osu file format v9

[General]
AudioFilename: .mp3
AudioLeadIn: 1000
PreviewTime: 41712
Countdown: 0
SampleSet: Normal
StackLeniency: 0.7
Mode: 0
LetterboxInBreaks: 1

[Editor]
DistanceSpacing: 0.9
BeatDivisor: 2
GridSize: 4

[Metadata]
Title:Babylon
Artist:Glutamine
Creator:CSY the corrupt
Version:Easy
Source:
Tags:Hatsune Miku BakaHuang huang99520 Touma

[Difficulty]
HPDrainRate:2
CircleSize:3
OverallDifficulty:2
ApproachRate:2
SliderMultiplier:0.89999990463257
SliderTickRate:1

[Events]
//Background and Video events
0,0,"BG.jpg"
//Break Periods
2,6765,15327
2,27535,35046
2,52543,60947
2,94164,100272
2,121832,130764
//Storyboard Layer 0 (Background)
//Storyboard Layer 1 (Fail)
//Storyboard Layer 2 (Pass)
//Storyboard Layer 3 (Foreground)
//Storyboard Sound Samples
//Background Colour Transformations
3,100,163,162,255

[TimingPoints]
1404,322.58064516129,4,2,1,70,1,0
5274,-100,4,1,1,70,0,0
16887,-100,4,1,1,80,0,0
26081,-100,4,1,1,5,0,0
27335,521.739130434783,3,2,1,80,1,0
36606,327.868852459016,4,1,1,80,1,0
41851,-100,4,1,1,80,0,1
42179,-100,4,1,1,80,0,0
47097,-100,4,1,1,80,0,1
47425,-100,4,1,1,80,0,0
62507,327.868852459016,4,1,1,80,1,0
83490,-100,4,1,1,80,0,1
83818,-100,4,1,1,80,0,0
88736,-100,4,1,1,80,0,1
89064,-100,4,1,1,80,0,0
92834,-100,4,1,1,5,0,0
93964,327.868852459016,3,1,1,75,1,0
105439,-100,3,1,1,80,0,0
109209,-100,3,1,1,5,0,0
110029,327.868852459016,4,1,1,5,1,0
112651,-100,4,1,1,80,0,0
145438,-100,4,1,1,80,0,1
145766,-100,4,1,1,80,0,0
150684,-100,4,1,1,80,0,1
151012,-100,4,1,1,80,0,0
161176,-100,4,1,1,80,0,1
161504,-100,4,1,1,80,0,0
166455,322.58064516129,4,1,1,85,1,1
176777,-100,4,1,1,70,0,0

[Colours]
Combo1 : 196,0,0
Combo2 : 0,128,64
Combo3 : 213,217,166

[HitObjects]
96,56,1404,1,2
416,56,2694,1,2
256,336,3984,1,6
256,192,5274,12,4,6565
24,192,16887,5,4
136,96,17533,2,0,B|216:48|216:48|320:48,1,179.999980926514,0|8
472,40,18823,1,2
472,120,19145,1,0
472,200,19468,1,8
352,304,20113,1,0
192,304,20758,1,8
192,144,21403,1,0
32,144,22049,6,0,B|32:16,2,89.999990463257,4|0|0
168,56,23339,2,0,B|168:144,2,89.999990463257,8|0|2
328,56,24629,1,8
328,216,25274,1,0
488,216,25920,1,0
256,192,26081,12,4,27335
288,192,36606,5,4
128,192,37261,2,0,B|-24:192,2,89.999990463257
208,56,38573,2,0,B|304:56,2,89.999990463257
128,192,39884,1,0
288,192,40540,1,0
368,192,40868,1,0
448,192,41196,1,0
376,336,41851,6,0,B|300:288|300:288|200:352,1,179.999980926514,2|0
200,256,42835,1,0
144,320,43163,2,0,B|96:244|96:244|160:144,1,179.999980926514,8|0
104,96,44146,1,0
184,96,44474,2,0,B|256:40|256:40|352:116,2,179.999980926514,8|0|8
312,192,46442,2,0,B|360:192|360:192|424:192,1,89.999990463257
404,272,47097,5,2
276,372,47753,2,0,B|76:372,1,179.999980926514,0|8
184,240,49065,1,0
104,240,49392,1,0
24,240,49720,5,8
24,160,50048,2,8,B|128:160|128:160|208:104|208:104|296:104,2,269.999971389771,8|8|0
24,240,52343,1,0
448,88,62507,6,0,B|448:232|448:232|336:344,1,269.999971389771
280,324,63818,1,0
200,324,64146,1,0
120,324,64474,2,0,B|56:260|56:260|56:148,1,179.999980926514,2|0
208,224,65785,5,0
256,72,66441,1,8
304,224,67097,1,0
360,72,67752,6,0,B|458:72,2,89.999990463257,8|0|0
200,72,69064,2,0,B|88:72,2,89.999990463257,0|0|2
112,208,70375,1,0
264,272,71031,1,0
424,272,71687,2,0,B|296:144|536:144|408:16,1,269.999971389771,8|0
344,40,72998,6,0,B|256:40|256:40|192:104|192:104|256:168|256:168|256:272,1,359.999961853028
120,352,74966,2,0,B|40:312|40:312|120:272,1,179.999980926514,0|4
280,272,76277,5,0
280,112,76933,1,0
200,112,77261,1,0
120,112,77588,1,0
120,192,77916,1,0
120,272,78244,6,0,B|184:336|184:336|288:336,2,179.999980926514
264,192,80211,2,0,B|316:192|316:192|356:232,2,89.999990463257
184,192,81195,1,0
104,192,81523,1,0
104,272,81851,1,0
184,276,82179,2,0,B|276:276|276:276|344:324|344:324|412:260,1,269.999971389771
412,180,83490,6,0,B|372:124|372:124|332:180|332:180|276:180,1,179.999980926514,2|0
216,144,84474,1,0
200,224,84802,2,0,B|200:266|200:266|256:306|256:306|200:346,1,179.999980926514,0|0
120,344,85785,1,0
40,344,86113,2,0,B|40:160,2,179.999980926514
168,240,88080,6,0,B|168:192|168:192|232:192,2,89.999990463257,0|0|2
320,288,89392,1,0
400,288,89720,1,0
400,208,90047,1,0
320,72,90703,1,0
240,72,91031,1,0
160,72,91359,6,0,B|72:72|72:72|72:176,2,179.999980926514,0|2|0
256,192,92834,12,0,93964
488,192,101832,6,0,B|424:256|424:256|352:256|352:256|272:256,1,179.999980926514,12|0
253,257,102816,1,0
171,257,103144,1,0
109,204,103472,2,0,B|45:141|45:141|45:47,1,179.999980926514
125,52,104455,1,0
205,52,104783,1,0
285,52,105111,1,0
365,52,105439,5,2
445,52,105767,2,2,B|485:132|485:132|427:252,1,179.999980926514,2|0
365,212,106750,2,0,B|261:212,2,89.999990463257,2|2|2
349,292,107734,1,0
269,292,108062,1,0
189,292,108390,2,0,B|101:292|101:292|29:220,1,179.999980926514
256,192,109373,12,0,111340
328,296,112651,6,0,B|256:352|256:352|176:296,1,179.999980926514
120,248,113635,2,0,B|64:176|64:176|120:96,1,179.999980926514,8|0
176,48,114619,1,0
256,24,114947,1,0
336,48,115274,1,6
256,192,115602,12,0,117897
256,192,119865,5,0
256,192,121176,1,0
104,192,132324,5,4
408,192,133635,1,0
256,32,134947,5,0
256,352,136258,1,0
424,72,137569,6,0,B|304:72,1,89.999990463257,0|8
252,72,138225,2,0,B|132:72,1,89.999990463257,0|8
164,152,138881,2,0,B|252:152,1,89.999990463257,0|0
336,152,139537,2,8,B|424:152,1,89.999990463257
420,232,140192,5,0
340,232,140520,2,0,B|340:320|340:320|212:320,1,179.999980926514,8|0
80,320,141832,1,8
184,192,142488,6,0,B|104:152|104:152|144:48|288:72,1,269.999971389771
408,72,144127,1,0
408,72,144783,1,2
448,232,145438,6,0,B|372:280|372:280|272:216,1,179.999980926514,2|0
248,296,146422,1,0
208,224,146750,2,0,B|256:148|256:148|192:48,1,179.999980926514
160,144,147733,1,0
80,144,148061,2,0,B|80:352,2,179.999980926514
216,48,150028,2,0,B|304:48,2,89.999990463257,0|0|2
352,136,151340,6,0,B|152:136,1,179.999980926514
40,232,152652,1,0
96,288,152979,1,0
176,288,153307,2,0,B|376:288,1,179.999980926514,0|2
440,288,154291,1,0
440,208,154619,6,0,B|352:208|352:208|288:144|288:144|196:144|196:144|124:72,1,359.999961853028,0|2
52,80,156258,1,0
52,160,156586,2,0,B|52:216|52:216|100:256|100:256|176:256,1,179.999980926514
244,256,157569,1,0
328,256,157897,2,2,B|392:192|392:192|392:96,1,179.999980926514,2|0
344,40,158881,1,2
264,40,159209,2,0,B|172:40|172:40|100:112,1,179.999980926514
64,168,160192,1,0
124,224,160520,6,0,B|200:300,2,89.999990463257,0|0|2
320,288,161832,1,0
400,288,162160,1,0
400,208,162488,1,0
320,72,163143,1,0
240,72,163471,1,0
200,142,163799,6,0,B|200:354,1,179.999980926514
281,322,164783,2,0,B|281:142,1,179.999980926514
200,142,165766,1,0
36,128,166455,6,0,B|124:128|124:128|124:220|124:220|212:220|212:220|212:312,1,359.999961853028
256,156,168390,1,0
304,312,169035,6,0,B|304:220|304:220|392:220|392:220|392:132|392:132|488:132,1,359.999961853028
352,40,170971,1,8
272,40,171293,1,8
192,40,171616,6,0,B|100:40|100:40|44:108|44:108|100:180|100:180|224:180,1,359.999961853028,0|0
352,176,173551,1,0
288,328,174196,2,0,B|352:264|352:264|416:328,2,179.999980926514,8|0|8
128,328,176132,5,0
128,168,176777,1,4
