osu file format v9

[General]
AudioFilename: .mp3
AudioLeadIn: 1000
PreviewTime: 41712
Countdown: 0
SampleSet: Normal
StackLeniency: 0.7
Mode: 0
LetterboxInBreaks: 1

[Editor]
DistanceSpacing: 1.1
BeatDivisor: 4
GridSize: 4

[Metadata]
Title:Babylon
Artist:Glutamine
Creator:CSY the corrupt
Version:Corruption
Source:
Tags:Hatsune Miku BakaHuang huang99520 Touma

[Difficulty]
HPDrainRate:6
CircleSize:4
OverallDifficulty:7
ApproachRate:9
SliderMultiplier:2.49999990463257
SliderTickRate:1

[Events]
//Background and Video events
0,0,"BG.jpg"
//Break Periods
2,8216,13062
2,73198,81579
2,121832,126478
2,127278,131724
2,176977,183919
//Storyboard Layer 0 (Background)
//Storyboard Layer 1 (Fail)
//Storyboard Layer 2 (Pass)
//Storyboard Layer 3 (Foreground)
//Storyboard Sound Samples
//Background Colour Transformations
3,100,163,162,255

[TimingPoints]
1404,322.58064516129,4,2,1,70,1,0
2613,-100,4,2,1,30,0,0
2694,-100,4,2,1,70,0,0
6081,-100,4,1,1,80,0,0
6565,-100,4,1,1,50,0,0
8016,-100,4,1,1,80,0,0
13662,-100,4,1,1,50,0,0
14629,-100,4,1,1,80,0,0
26807,-133.333333333333,4,1,1,70,0,0
27335,521.739130434783,3,2,1,70,1,0
35943,-133.333333333333,3,2,1,70,0,0
36204,-133.333333333333,3,2,1,5,0,0
36269,-100,3,1,1,80,0,0
36606,327.868852459016,4,1,1,80,1,0
41196,-133.333333333333,4,1,1,80,0,0
41851,-100,4,1,1,85,0,1
42179,-100,4,1,1,82,0,0
46442,-66.6666666666667,4,1,1,85,0,0
47097,-100,4,1,1,85,0,1
47425,-100,4,1,1,82,0,0
52015,-100,4,1,1,70,0,0
52671,-100,4,2,1,70,0,0
53983,-100,4,1,1,80,0,0
62507,327.868852459016,4,1,1,80,1,0
82179,-100,4,1,1,5,0,0
83162,-100,4,1,1,80,0,0
83490,-100,4,1,1,85,0,1
83818,-100,4,1,1,82,0,0
88080,-66.6666666666667,4,1,1,85,0,0
88736,-100,4,1,1,85,0,1
89064,-100,4,1,1,82,0,0
92670,-100,4,1,1,10,0,0
93964,327.868852459016,3,1,1,75,1,0
93964,-133.333333333333,3,1,1,75,0,0
105439,-100,3,1,1,80,0,0
108390,-133.333333333333,3,1,1,80,0,0
108636,-133.333333333333,3,1,1,5,0,0
108718,-133.333333333333,3,1,1,80,0,0
110029,327.868852459016,4,1,1,80,1,0
113471,-100,4,1,1,50,0,0
115274,-100,4,1,1,70,0,0
116586,-100,4,1,1,80,0,0
142488,-133.333333333333,4,1,1,80,0,0
143963,-100,4,1,1,80,0,0
144345,-100,4,1,1,81,0,0
144564,-100,4,1,1,82,0,0
144783,-100,4,1,1,83,0,0
145438,-100,4,1,1,85,0,1
145766,-100,4,1,1,82,0,0
150028,-66.6666666666667,4,1,1,85,0,0
150684,-100,4,1,1,85,0,1
151012,-100,4,1,1,82,0,0
154619,-100,4,1,1,75,0,0
154947,-100,4,1,1,80,0,0
155274,-66.6666666666667,4,1,1,85,0,0
155602,-66.6666666666667,4,1,1,90,0,0
155766,-100,4,1,1,85,0,0
155930,-100,4,1,1,80,0,0
156094,-100,4,1,1,83,0,0
156258,-100,4,1,1,85,0,0
156422,-100,4,1,1,83,0,0
156586,-100,4,1,1,80,0,0
156750,-100,4,1,1,83,0,0
156914,-100,4,1,1,85,0,0
157078,-100,4,1,1,87,0,0
157569,-100,4,1,1,75,0,0
157897,-100,4,1,1,85,0,0
158881,-100,4,1,1,82,0,0
159701,-100,4,1,1,78,0,0
160520,-66.6666666666667,4,1,1,85,0,0
161176,-100,4,1,1,85,0,1
161504,-100,4,1,1,82,0,0
163799,-100,4,1,1,80,0,0
166455,322.58064516129,4,1,1,85,1,0
166455,-66.6666666666667,4,1,1,85,0,1
172745,-66.6666666666667,4,1,1,80,0,1
173067,-66.6666666666667,4,1,1,85,0,1
175487,-66.6666666666667,4,1,1,82,0,1
175971,-100,4,1,1,79,0,1
176132,-100,4,1,1,76,0,1
176455,-133.333333333333,4,1,1,73,0,1
176777,-133.333333333333,4,1,1,70,0,0
184519,-133.333333333333,4,1,1,5,0,0
185648,-133.333333333333,4,1,1,60,0,0
187100,-133.333333333333,4,1,1,55,0,0
187261,-133.333333333333,4,2,1,55,0,0
187422,-133.333333333333,4,1,1,55,0,0
188067,-133.333333333333,4,2,1,55,0,0
188229,-133.333333333333,4,1,1,55,0,0
188390,-133.333333333333,4,2,1,55,0,0
188551,-133.333333333333,4,1,1,55,0,0
189922,-133.333333333333,4,2,1,40,0,0
190003,-133.333333333333,4,1,1,55,0,0
190648,-133.333333333333,4,2,1,55,0,0
190809,-133.333333333333,4,1,1,55,0,0
190971,-133.333333333333,4,2,1,55,0,0
191132,-133.333333333333,4,1,1,55,0,0
192503,-133.333333333333,4,2,1,55,0,0
192584,-133.333333333333,4,1,1,55,0,0
195084,-133.333333333333,4,2,1,55,0,0
195164,-133.333333333333,4,1,1,55,0,0
196885,-133.333333333333,4,1,1,60,0,0
197422,-100,4,1,1,77,0,0
197664,-100,4,2,1,40,0,0
197745,-100,4,1,1,80,0,0
198954,-100,4,2,1,40,0,0
199035,-100,4,1,1,80,0,0
201293,-100,4,1,1,78,0,0
201535,-100,4,2,1,40,0,0
201616,-100,4,1,1,76,0,0
202584,-100,4,1,1,78,0,0
202906,-100,4,1,1,50,0,0
203551,-100,4,1,1,45,0,0
204196,-100,4,1,1,40,0,0
204842,-100,4,1,1,35,0,0
205487,-100,4,1,1,30,0,0
206132,-100,4,1,1,25,0,0
206777,-100,4,1,1,20,0,0
207422,-100,4,1,1,15,0,0
207584,-100,4,1,1,35,0,0
207745,-100,4,1,1,40,0,0

[Colours]
Combo1 : 196,0,0
Combo2 : 0,128,64
Combo3 : 213,217,166

[HitObjects]
242,93,1404,37,2
160,152,1726,1,0
224,232,2049,1,0
312,280,2371,2,0,B|312:216|312:216|344:184|344:184|344:80,1,187.499992847443
344,80,2694,1,0
200,48,3016,1,0
344,80,3339,1,2
360,232,3662,1,0
240,320,3984,6,2,B|152:320|152:320|120:256|120:256|0:256,1,249.999990463257,2|0
104,40,4629,1,0
328,40,4952,1,2
352,264,5274,2,2,B|463:272|521:227|496:56|432:31|252:51|289:199,1,499.999980926514,2|0
174,91,6081,5,8
202,311,6242,1,8
379,173,6403,1,8
256,192,6565,12,4,8016
256,192,13662,12,0,14468
352,88,14629,6,2,B|400:136|400:136|400:208,2,124.999995231629,2|2|0
248,160,15113,1,0
168,64,15274,1,0
248,304,15597,2,2,B|152:304|152:304|64:216,1,187.499992847443,2|2
256,160,16081,1,2
176,64,16242,1,0
96,160,16403,2,0,B|16:160,2,62.4999976158143,0|0|0
368,48,16887,5,4
392,144,17049,1,0
280,120,17210,1,0
328,232,17371,1,2
216,312,17533,2,2,B|216:248|216:248|168:200,1,124.999995231629,2|0
62,146,17855,2,0,B|62:210|62:210|110:258,1,124.999995231629,0|0
172,204,18178,5,2
105,253,18339,1,0
234,161,18500,1,2
46,297,18662,1,0
294,117,18823,1,2
416,144,18984,1,2
416,176,19065,1,0
416,208,19145,1,0
416,240,19226,1,0
400,264,19307,1,2
384,288,19387,1,0
360,312,19468,5,2
232,312,19629,1,0
360,312,19791,1,0
232,312,19952,1,0
104,312,20113,2,0,B|56:264|56:264|56:206,1,124.999995231629,0|2
360,64,20597,5,2
384,88,20678,1,0
408,112,20758,1,0
344,264,20920,1,0
240,176,21081,1,0
136,88,21242,1,0
40,184,21403,2,0,B|86:225|86:225|86:313,1,124.999995231629,0|2
102,313,21645,1,0
118,337,21726,1,0
280,336,21887,1,0
260,311,21968,1,0
239,286,22049,6,0,B|239:222|239:222|175:158,1,124.999995231629,4|0
240,284,22371,5,0
428,287,22533,1,0
337,123,22694,1,2
304,256,22855,1,0
270,133,23017,1,0
391,166,23178,1,0
88,72,23339,6,2,B|132:116|132:116|88:160,1,124.999995231629,2|0
152,336,23662,1,0
336,336,23823,1,2
344,112,23984,1,2
368,128,24065,1,0
392,144,24145,1,2
416,160,24226,1,0
435,184,24307,1,0
440,216,24387,1,0
440,248,24468,1,2
440,280,24549,1,0
440,312,24629,6,2,B|404:360|404:360|332:360,1,124.999995231629,2|0
216,272,24952,2,0,B|256:231|256:231|324:231,1,124.999995231629
384,40,25274,2,2,B|316:40|316:40|276:81,1,124.999995231629,0|2
108,268,25758,5,0
84,244,25839,1,0
60,220,25920,1,0
164,324,26081,1,0
390,93,26403,1,0
414,117,26484,1,0
438,141,26565,1,2
323,283,26807,2,0,B|219:179,1,140.624990444631
223,183,27335,5,2
96,80,27595,1,0
146,42,27726,1,2
200,72,27856,1,0
343,148,28117,1,0
414,293,28378,1,0
295,181,28639,1,0
265,235,28769,1,0
202,230,28900,6,2,B|102:255|172:343,1,124.999995231629,2|2
317,300,29421,1,0
430,183,29682,1,2
335,50,29943,1,2
221,166,30204,1,0
149,312,30465,6,0,B|60:298|96:205,1,124.999995231629
112,165,30856,1,2
167,135,30987,1,2
313,205,31248,2,0,B|403:210|378:104,1,124.999995231629
245,39,31769,1,0
276,287,32030,1,4
169,60,32291,1,2
337,244,32552,6,0,B|262:195|326:130,1,124.999995231629
355,90,32943,1,0
397,43,33074,1,0
452,71,33204,1,0
430,129,33335,1,0
458,184,33465,1,0
456,246,33595,6,0,B|498:338|404:316,1,124.999995231629
346,309,33987,1,2
287,329,34117,1,2
125,309,34378,2,2,B|116:272|116:272|137:236|137:236|121:189,1,124.999995231629,2|0
149,136,34769,1,2
116,82,34900,1,0
280,72,35161,5,0
184,192,35421,1,2
40,240,35682,1,4
125,310,35943,2,0,B|176:328|240:280,1,93.7499936297538,4|0
264,256,36269,6,0,B|261:245|261:245|279:246|279:246|269:231|269:231|287:232|287:232|277:217|277:217|295:218|295:218|292:207,1,93.7499964237214,0|0
392,40,36606,5,2
440,152,36769,1,0
320,136,36933,1,2
376,248,37097,1,0
216,328,37261,2,2,B|156:328|156:328|104:276,1,124.999995231629,2|0
64,168,37589,1,0
64,40,37753,1,0
240,40,37917,6,2,B|240:120|240:120|296:176|296:176|296:32,1,249.999990463257,2|0
368,184,38409,5,0
448,280,38573,1,0
328,304,38737,1,2
448,280,38901,1,0
368,184,39065,1,0
328,304,39228,5,0
348,184,39392,1,0
40,296,39556,2,2,B|80:256|80:256|152:256,2,124.999995231629,2|0|2
216,256,40048,2,0,B|352:256|352:256|416:128,1,249.999990463257
320,56,40540,5,0
288,56,40622,1,0
256,56,40704,1,0
224,56,40786,1,0
193,71,40868,1,0
176,96,40950,1,0
160,120,41032,1,0
144,144,41114,1,0
128,168,41196,2,0,B|112:160|112:160|104:184|104:184|88:160|88:160|80:184|80:184|64:160|64:160|56:184|56:184|40:160|40:160|40:184,1,187.499987259508,0|0
308,172,41851,6,2,B|328:152|328:152|376:152,2,62.4999976158143,6|0|0
424,272,42179,2,0,B|380:316|380:316|300:316,1,124.999995231629,0|2
208,216,42507,1,0
152,352,42671,1,0
88,216,42835,1,0
36,96,42999,6,0,B|100:56|100:56|156:56|156:56|212:16|212:16|268:16,1,249.999990463257,0|0
360,96,43491,1,2
432,200,43655,1,0
432,328,43819,2,0,B|272:328,2,124.999995231629,0|0|0
328,256,44310,1,0
248,160,44474,1,0
152,240,44638,1,0
384,40,44802,6,2,B|440:96|440:96|360:176,1,187.499992847443,2|0
352,184,45130,1,0
104,104,45294,2,2,B|12:12,2,124.999995231629,2|0|2
104,104,45950,1,0
232,104,46114,1,0
232,232,46278,1,0
424,320,46442,6,2,B|460:284|460:284|396:220,1,93.7499936297538,2|0
88,64,46769,2,2,B|52:100|52:100|116:164,1,93.7499936297538,2|0
448,152,47097,6,2,B|472:128|472:128|472:72,2,62.4999976158143,2|0|0
328,192,47425,1,0
96,296,47589,1,2
24,192,47753,1,0
96,88,47917,1,0
168,192,48081,1,0
256,96,48245,6,2,B|352:192|352:192|256:288,1,249.999990463257,2|0
448,96,48737,1,2
432,272,48901,1,0
272,344,49065,2,2,B|216:344|216:344|136:264,2,124.999995231629,2|0|0
304,344,49474,1,0
336,344,49556,1,0
240,272,49720,6,0,B|192:224|192:224|192:120|192:120|128:56,1,249.999990463257,4|0
384,80,50212,1,2
440,232,50376,1,2
280,200,50540,1,0
400,160,50704,1,0
160,232,50868,1,2
56,160,51032,5,0
88,184,51114,1,0
120,208,51196,1,0
368,264,51524,1,0
336,240,51605,1,0
304,216,51687,1,0
96,360,52015,2,0,B|48:312|48:312|48:192|48:192|-8:136,1,249.999990463257,0|4
128,144,52671,5,2
256,144,52999,1,2
384,144,53327,2,2,B|432:192|432:192|432:312|432:312|488:368,1,249.999990463257,2|2
475,355,53983,5,2
296,184,54310,1,0
318,206,54392,1,0
341,229,54474,1,8
304,352,54638,1,0
281,329,54720,1,0
258,306,54802,1,8
368,256,54966,1,0
480,32,55294,5,0
448,32,55376,1,0
416,32,55458,1,0
384,32,55540,1,0
352,32,55622,1,8
320,32,55704,1,0
288,32,55786,1,8
160,32,55950,2,0,B|16:32,1,124.999995231629,0|4
32,160,56278,6,0,B|64:192|64:192|64:232|64:232|96:264,3,124.999995231629,4|8|0|12
92,260,56851,1,0
92,260,56933,1,4
344,256,57261,2,0,B|344:192|344:192|280:128,1,124.999995231629,4|0
424,144,57589,5,0
448,168,57671,1,8
456,200,57753,1,0
456,232,57835,1,8
456,264,57917,2,0,B|392:336,2,83.333330154419
380,328,58245,2,0,B|292:328,2,83.333330154419,0|0|0
280,328,58573,5,4
204,200,58737,1,8
124,328,58901,1,0
28,202,59065,1,8
44,226,59146,1,0
60,250,59228,1,0
312,40,59556,5,4
440,120,59720,1,0
312,192,59884,1,0
185,111,60048,1,8
169,87,60130,1,0
152,64,60212,1,0
232,192,60376,1,8
320,312,60540,1,4
304,288,60622,1,0
288,264,60704,1,8
200,144,60868,1,0
200,144,61196,6,0,B|128:144|128:144|88:80,2,124.999995231629,0|8|0
232,144,61605,1,0
264,144,61687,1,0
416,144,61851,2,0,B|472:184|472:184|472:272,1,124.999995231629,4|0
96,240,62179,2,0,B|40:200|40:200|40:112,1,124.999995231629,4|0
184,88,62507,5,2
323,30,62670,1,0
381,171,62834,1,2
240,228,62998,1,0
416,232,63162,1,2
443,58,63326,1,0
269,30,63490,1,2
242,204,63654,5,0
48,160,63818,2,2,B|48:232|48:232|104:272,1,124.999995231629,2|0
312,320,64146,2,2,B|312:248|312:248|256:208,1,124.999995231629,2|0
456,56,64474,5,2
344,160,64638,1,0
208,104,64802,1,0
176,88,64884,1,0
144,72,64966,1,2
280,136,65129,1,0
56,32,65457,5,0
144,264,65785,1,0
392,280,66113,2,0,B|392:216|392:216|448:160,1,124.999995231629,0|8
404,174,66359,1,0
373,174,66441,5,0
208,176,66605,1,0
336,72,66769,1,0
176,112,66933,1,0
304,8,67097,1,0
144,48,67261,2,2,B|56:136|56:136|56:272,1,249.999990463257,2|0
312,192,67752,5,2
272,312,67916,1,0
232,168,68080,1,2
176,336,68244,1,0
368,280,68408,2,2,B|400:248|400:248|400:200|400:200|440:160,1,124.999995231629,2|0
272,312,68736,1,0
312,192,68900,1,0
136,192,69064,6,2,B|136:128|136:128|184:80,1,124.999995231629,2|0
352,192,69392,2,2,B|352:256|352:256|304:304,1,124.999995231629,0|0
296,48,69720,1,2
192,152,69884,1,0
216,128,69966,1,0
240,104,70047,1,0
136,208,70211,1,2
240,104,70375,5,0
336,336,70703,1,0
488,136,71031,1,0
264,32,71359,1,0
344,128,71523,1,8
312,128,71605,1,0
280,128,71687,6,0,B|280:192|280:192|336:248,1,124.999995231629,0|0
292,234,71933,1,0
261,234,72015,1,0
135,235,72179,1,0
335,234,72343,1,0
296,352,72506,1,8
328,352,72588,1,0
360,352,72670,1,8
392,352,72752,1,0
424,352,72834,1,8
456,352,72916,1,0
480,352,72998,5,12
256,192,82179,12,0,83162
56,176,83490,6,2,B|56:136|56:136|24:104|24:104|24:16,1,124.999995231629,2|0
152,120,83818,1,0
376,224,83982,1,2
224,248,84146,1,0
304,120,84310,1,0
224,248,84474,1,0
328,352,84638,2,2,B|256:352|256:352|160:320|160:320|80:320,1,249.999990463257,2|0
128,72,85129,5,2
184,208,85293,1,0
296,104,85457,1,0
424,184,85621,2,0,B|424:120|424:120|376:72,1,124.999995231629,0|0
288,160,85949,1,0
160,160,86113,1,0
80,64,86277,1,0
168,296,86441,6,2,B|232:360|232:360|336:360,1,187.499992847443,2|0
352,360,86769,1,0
288,120,86933,2,2,B|240:72|240:72|152:72,1,124.999995231629,2|0
384,72,87261,1,2
140,308,87588,1,2
248,204,87752,1,2
140,308,87916,1,0
340,112,88080,6,2,B|372:144|372:144|372:192,1,93.7499936297538,2|0
140,308,88408,2,2,B|108:276|108:276|108:228,1,93.7499936297538,2|0
408,208,88736,6,2,B|408:240|408:240|440:304|440:304|440:368,1,124.999995231629,2|0
328,272,89064,1,2
152,96,89228,2,2,B|216:96|216:96|272:152,1,124.999995231629,2|0
124,208,89556,1,0
256,276,89720,1,0
212,132,89884,6,2,B|257:177|257:177|336:177,1,124.999995231629,2|0
428,72,90211,2,0,B|388:72|388:72|364:48|364:48|300:48,1,124.999995231629,0|0
408,164,90539,1,0
432,320,90703,2,0,B|480:272|480:272|480:208,2,124.999995231629,0|0|0
400,320,91113,1,0
368,320,91195,1,0
240,320,91359,6,0,B|112:320|112:320|16:224,1,249.999990463257
256,132,91851,2,2,B|296:132|296:132|328:100|328:100|368:100,2,124.999995231629,2|0|0
136,32,92343,1,0
384,32,92506,1,0
256,192,92670,12,0,93818
136,232,93964,6,4,B|64:160|64:160|64:56,1,187.499987259508,4|8
88,52,94373,1,0
112,32,94455,1,0
144,32,94537,1,0
176,32,94619,2,0,B|280:32,2,93.7499936297538,0|0|0
288,32,95111,5,0
228,128,95275,1,8
204,152,95357,1,0
178,172,95439,1,0
148,176,95521,1,0
116,176,95603,2,0,B|84:176|84:176|60:200|60:200|20:200,1,93.7499936297538,0|0
76,304,95931,6,0,B|166:304|166:304|245:224,1,187.499987259508,4|8
260,232,96341,1,0
292,232,96423,1,0
324,232,96504,1,0
356,232,96586,2,0,B|388:200|388:200|388:144,1,93.7499936297538,0|0
452,56,96914,6,0,B|484:88|484:88|484:136,1,93.7499936297538,0|0
484,248,97242,1,8
288,136,97570,1,0
376,208,97734,1,0
224,96,97898,6,4,B|184:120|184:120|184:208,1,93.7499936297538,4|0
72,180,98226,1,8
96,204,98308,1,0
120,228,98390,1,0
144,252,98472,1,0
168,276,98554,2,0,B|200:308|200:308|240:308|240:308|272:340|272:340|360:340,2,187.499987259508,0|0|8
192,252,99291,5,0
216,228,99373,1,0
240,204,99455,1,0
264,180,99537,2,0,B|264:84,1,93.7499936297538,0|0
156,52,99865,6,0,B|108:52|108:52|52:108,1,93.7499936297538,0|0
32,188,100193,1,8
64,188,100275,1,0
96,188,100357,1,0
128,164,100439,1,0
152,148,100521,1,0
268,208,100685,5,0
156,276,100849,1,4
96,60,101177,1,8
268,208,101504,1,0
292,192,101586,1,0
316,176,101668,1,0
340,160,101750,1,0
364,144,101832,6,4,B|364:88|364:88|412:48|412:48|412:120,1,187.499987259508,4|12
248,272,102488,2,0,B|208:232|208:232|208:168,1,93.7499936297538,0|0
204,80,102816,1,0
208,304,103144,1,12
432,304,103472,1,0
432,272,103554,1,0
432,240,103636,1,0
432,208,103718,1,0
432,176,103800,6,0,B|472:136|472:136|472:72,2,93.7499936297538,4|0|8
208,208,104455,1,0
180,80,104619,1,0
304,120,104783,1,4
84,72,105111,1,8
112,100,105439,1,0
276,308,105767,6,2,B|196:252|196:252|196:180|196:180|116:100,1,249.999990463257,2|0
276,308,106259,1,2
276,132,106423,2,2,B|172:36,1,124.999995231629,2|0
432,192,106750,5,2
256,192,106914,1,0
344,192,107078,1,2
168,192,107242,1,0
256,192,107406,1,2
80,192,107570,1,0
256,192,107734,5,2
256,224,108062,1,2
256,256,108390,2,2,B|264:264|264:264|248:272|248:272|264:280|264:280|248:288|248:288|264:296|264:296|248:304|248:304|264:312|264:312|248:320|248:320|264:328,1,140.624990444631,2|0
300,328,108718,2,2,B|352:296|352:296|332:288|332:288|352:280|352:280|332:272|332:272|352:264|352:264|332:256|332:256|352:248|352:248|332:240|332:240|352:232|352:232|332:224|332:224|352:216|352:216|332:208|332:208|352:200|352:200|332:192|332:192|352:184|352:184|332:176|332:176|348:168,2,374.999974519015,2|2|2
368,182,110192,5,0
272,328,110356,1,2
368,180,110520,1,0
336,180,110602,1,0
304,181,110684,2,2,B|304:102|304:102|352:54,1,124.999995231629,2|0
204,184,111012,2,2,B|204:262|204:262|156:310,1,124.999995231629,2|0
72,148,111340,6,2,B|176:76,1,124.999995231629,2|0
352,72,111668,1,2
352,336,111914,1,0
352,296,111996,1,0
212,192,112160,1,0
356,96,112324,1,0
212,192,112488,1,0
180,212,112569,1,0
148,232,112651,6,2,B|100:264|100:264|100:352,2,124.999995231629,2|0|2
404,168,113225,1,0
372,192,113307,1,0
256,192,113471,12,0,115110
192,280,115274,6,2,B|256:216|256:216|256:128|256:128|328:56,1,249.999990463257,6|2
367,320,115930,2,0,B|415:272|415:272|415:184,1,124.999995231629,0|0
145,64,116258,2,0,B|97:112|97:112|97:200,1,124.999995231629,0|0
307,77,116586,6,2,B|243:141|243:141|243:229|243:229|171:301,1,249.999990463257,2|2
320,284,117078,1,0
296,308,117160,1,0
272,332,117242,1,2
396,208,117406,1,0
272,88,117569,1,2
184,240,117733,1,0
209,217,117815,1,0
233,193,117897,6,0,B|81:193,1,124.999995231629,4|0
276,244,118225,1,0
144,128,118389,1,0
104,300,118553,2,2,B|240:300,1,124.999995231629,2|0
408,84,118881,2,0,B|272:84,1,124.999995231629,8|0
32,328,119373,5,10
32,104,119537,1,4
332,104,119865,2,0,B|380:152|380:152|380:200|380:200|428:248|428:248|428:320,1,249.999990463257,0|0
396,314,120274,1,0
364,313,120356,1,2
500,104,120684,5,8
332,312,120848,1,0
364,312,121176,5,0
256,192,127078,5,4
256,128,132324,5,4
320,192,132651,1,0
256,256,132979,1,0
192,192,133307,1,0
304,56,133635,2,0,B|400:152|400:152|400:280,1,249.999990463257
104,192,134291,1,0
408,192,134619,1,0
256,72,134947,5,0
256,312,135274,1,0
408,72,135602,1,0
104,312,135930,1,0
104,72,136258,1,0
408,312,136586,1,0
24,192,136914,1,0
488,192,137242,1,0
256,192,137569,5,0
200,28,137733,1,0
177,45,137815,1,0
154,62,137897,1,8
328,84,138061,1,0
352,100,138143,1,0
376,116,138225,1,0
352,136,138307,1,0
380,152,138389,1,0
404,168,138471,1,0
428,184,138553,1,8
428,360,138717,5,0
440,334,138799,1,0
453,309,138881,1,8
288,252,139045,1,0
298,279,139127,1,0
308,306,139209,1,8
136,348,139373,1,0
148,320,139455,1,0
162,295,139537,1,8
212,128,139701,5,0
216,156,139783,1,0
222,184,139865,1,10
64,108,140028,1,0
76,82,140110,1,0
89,56,140192,1,14
432,224,140520,6,2,B|376:192|376:192|376:128|376:128|320:88,1,187.499992847443,2|0
312,120,140848,2,2,B|312:192|312:192|256:248,1,124.999995231629,0|2
152,320,141176,2,2,B|152:248|152:248|208:192,2,124.999995231629,0|2|0
296,272,141668,2,2,B|368:272|368:272|424:216,1,124.999995231629,2|2
300,96,141996,1,2
296,272,142160,1,2
148,180,142324,1,2
300,96,142488,2,2,B|381:44|381:44|467:111,1,187.499987259508,0|0
436,192,142979,5,0
420,192,143471,1,8
404,192,143799,1,8
276,312,143963,1,0
292,296,144045,1,0
308,280,144127,5,2
216,72,144373,1,2
432,144,144619,1,0
432,144,144783,1,2
432,144,145438,6,2,B|304:272,1,124.999995231629,2|0
80,240,145766,2,2,B|200:128,1,124.999995231629,0|2
312,136,146094,1,0
424,216,146258,1,0
352,336,146422,1,0
256,240,146586,2,2,B|152:344,1,124.999995231629,2|0
320,332,146914,5,2
208,108,147078,1,2
360,108,147242,1,0
176,28,147406,2,2,B|368:28,1,187.499992847443,2|0
392,44,147733,2,0,B|440:92|440:92|440:156,1,124.999995231629,0|0
332,256,148061,6,0,B|284:208|284:208|284:144,1,124.999995231629,0|0
36,100,148389,2,2,B|172:236,1,187.499992847443,2|0
188,252,148717,1,0
428,328,148881,1,2
408,180,149045,1,0
216,48,149209,2,0,B|184:169|184:169|152:50,1,249.999990463257,2|2
284,48,149701,1,0
88,48,149865,1,0
360,48,150028,6,2,B|382:90|382:90|436:106,1,93.7499936297538,2|0
152,336,150356,2,2,B|129:293|129:293|75:277,1,93.7499936297538,2|0
160,192,150684,6,2,B|64:136,2,62.4999976158143,2|0|0
336,192,151012,1,0
496,312,151176,1,2
360,328,151340,1,0
336,192,151504,1,0
396,68,151668,1,0
264,32,151832,6,2,B|192:32|192:32|152:64,2,124.999995231629,2|0|2
152,232,152324,1,2
152,64,152488,1,0
152,312,152651,1,0
152,152,152815,1,0
312,232,152979,1,0
344,232,153061,1,0
376,232,153143,1,0
472,104,153307,6,0,B|384:104|384:104|296:40,1,187.499992847443,4|0
272,64,153635,2,0,B|336:104|336:104|336:168,1,124.999995231629,0|2
208,152,153963,1,2
312,224,154127,1,2
208,296,154291,1,0
312,368,154455,1,2
104,232,154619,6,0,B|192:320,1,124.999995231629,0|0
408,152,154947,2,2,B|320:64,1,124.999995231629,2|0
48,224,155274,6,2,B|184:360,1,187.499987259508
464,160,155602,2,2,B|328:24,1,187.499987259508
300,28,155848,5,0
268,32,155930,2,2,B|212:72,3,62.4999976158143,2|0|0|0
172,121,156258,2,2,B|201:193,3,62.4999976158143,2|0|0|0
197,248,156586,2,0,B|147:301,3,62.4999976158143,2|0|0|0
95,255,156914,2,0,B|70:171,3,62.4999976158143,2|0|0|0
110,134,157242,6,2,B|196:100,3,62.4999976158143,2|0|0|0
236,106,157569,2,0,B|245:99|245:99|242:115|242:115|253:100|253:100|250:116|250:116|260:101|260:101|258:117|258:117|268:103|268:103|266:118|266:118|276:104|276:104|274:120|274:120|284:105|284:105|282:121|282:121|292:106|292:106|290:122|290:122|299:110|299:110|304:125|304:125|307:117,1,249.999990463257,0|2
330,134,157979,1,0
352,156,158061,1,2
374,178,158143,1,0
392,203,158225,1,2
393,234,158307,1,0
393,265,158389,1,0
393,296,158471,1,0
393,327,158553,6,0,B|369:385|369:385|345:327,1,124.999995231629,0|0
309,195,158881,1,2
165,47,159127,1,0
141,23,159209,1,0
237,123,159373,1,2
28,296,159701,1,2
48,272,159783,1,0
72,248,159865,2,0,B|120:200|120:200|192:200,1,124.999995231629,0|0
340,100,160192,5,0
172,284,160356,1,0
288,32,160520,6,2,B|208:128,1,93.7499936297538,2|0
224,352,160848,2,2,B|304:256,1,93.7499936297538,2|0
80,192,161176,6,2,B|264:192,1,124.999995231629,2|0
432,192,161504,2,2,B|304:192,1,124.999995231629,0|2
160,288,161832,1,0
16,192,161996,1,0
160,96,162160,1,0
304,192,162324,1,2
200,336,162488,5,0
200,144,162651,1,0
200,240,162815,1,2
200,56,162979,1,0
136,192,163143,2,0,B|304:192,1,124.999995231629,2|0
416,192,163471,2,0,B|464:144|464:144|464:72,1,124.999995231629,0|0
336,192,163799,6,0,B|232:288,1,124.999995231629,0|0
176,192,164291,2,0,B|280:96,1,124.999995231629,0|0
288,288,164783,5,2
224,96,164947,1,2
224,336,165274,5,2
288,48,165438,1,2
256,192,165766,1,2
424,256,166455,6,2,B|424:200|424:200|472:152|472:152|472:88,2,187.499987259508,2|0|2
296,256,166938,1,2
252,96,167100,2,0,B|252:168|252:168|212:216|212:216|212:320,1,187.499987259508,0|2
168,128,167422,1,0
96,240,167584,2,2,B|56:200|56:200|56:152,2,93.7499936297538,2|0|0
208,312,167906,5,2
168,184,168067,1,0
296,312,168229,1,2
256,184,168390,2,2,B|232:144|232:144|232:64,2,93.7499936297538,0|0|2
368,120,168713,2,2,B|392:160|392:160|392:208,2,93.7499936297538,0|0|2
232,97,169035,5,2
392,207,169196,1,0
232,97,169358,1,2
392,207,169519,1,2
376,336,169680,2,2,B|296:336|296:336|256:376|256:376|168:376,1,187.499987259508,0|2
144,264,170003,2,2,B|200:264|200:264|256:208|256:208|320:208,2,187.499987259508,0|2|0
32,192,170487,5,0
32,64,170648,1,0
32,320,170809,1,8
168,192,170971,1,0
352,144,171132,1,8
168,192,171293,1,0
352,240,171455,1,8
200,48,171616,6,2,B|128:48|128:48|88:88|88:88|24:88,3,187.499987259508,0|0|2|2
156,128,172261,2,2,B|228:128|228:128|268:88|268:88|332:88,1,187.499987259508,0|2
260,200,172584,1,0
168,296,172745,2,0,B|136:264|136:264|176:224,1,93.7499936297538,2|0
320,100,173067,5,10
430,27,173229,1,0
436,159,173390,1,10
260,352,173713,2,2,B|156:352|156:352|74:273,1,187.499987259508,2|2
80,276,173955,1,0
64,260,174035,1,2
48,244,174116,1,0
32,228,174196,6,2,B|144:228|144:228|208:292,3,187.499987259508,4|0|2|2
464,192,175003,1,2
332,192,175164,2,2,B|316:176|316:176|308:208|308:208|300:176|300:176|292:208|292:208|284:176|284:176|276:208|276:208|268:176|268:176|260:208|260:208|252:176|252:176|244:208|244:208|236:176|236:176|220:192,1,374.999974519015,0|2
220,191,175729,5,2
408,192,175971,2,2,B|408:256|408:256|362:296,1,124.999995231629,2|0
140,248,176455,2,0,B|140:152|140:152|212:88,1,187.499987259508
256,192,184519,12,0,185487
280,80,185648,5,0
304,56,185729,1,8
328,32,185809,1,8
248,112,185971,1,0
168,192,186132,2,0,B|96:264,1,93.7499936297538,4|0
212,248,186454,1,8
324,236,186616,2,0,B|252:308,1,93.7499936297538,4|0
236,324,186858,1,0
212,348,186938,1,8
324,344,187100,6,0,B|372:344|372:344|428:280,1,93.7499936297538,0|0
472,220,187422,1,0
420,120,187584,1,0
456,16,187745,1,8
344,16,187906,2,0,B|296:16|296:16|264:48,1,93.7499936297538,0|0
264,160,188229,2,0,B|312:160|312:160|344:128,1,93.7499936297538,0|0
263,48,188551,5,0
184,128,188713,2,0,B|152:160|152:160|152:216,1,93.7499936297538,8|0
328,352,189196,2,2,B|224:352,1,93.7499936297538,2|8
304,264,189519,1,0
376,176,189680,6,0,B|376:104|376:104|432:48,1,140.624990444631,4|0
456,32,190003,1,0
456,144,190164,1,0
456,256,190325,1,8
456,368,190487,2,0,B|408:368|408:368|368:328,1,93.7499936297538,0|0
376,224,190809,2,0,B|344:192|344:192|280:192,1,93.7499936297538,0|0
184,192,191132,5,0
152,192,191213,1,0
120,192,191293,1,0
32,120,191454,1,0
64,120,191535,1,0
96,120,191616,1,0
208,120,191777,2,0,B|256:120|256:120|304:72,2,93.7499936297538,0|8|0
296,192,192261,6,0,B|376:192|376:192|440:128,1,140.624990444631,4|0
448,120,192584,1,0
304,120,192745,1,0
184,192,192906,1,8
40,192,193067,1,0
256,352,193390,6,0,B|336:352|336:352|368:320|368:320|432:320,1,187.499987259508,0|0
480,216,193874,2,0,B|400:216|400:216|368:248|368:248|304:248,1,187.499987259508,8|0
192,248,194358,2,0,B|168:208|168:208|144:248,2,93.7499936297538,0|8|0
52,248,194842,6,0,B|52:160|52:160|96:100,1,140.624990444631,4|0
108,88,195164,1,0
220,84,195325,1,0
320,136,195487,2,0,B|344:176|344:176|368:136,1,93.7499936297538,8|0
168,240,195971,5,0
168,128,196132,1,8
72,192,196293,1,0
72,304,196454,2,0,B|120:352|120:352|240:352,1,187.499987259508,0|8
312,352,196885,2,0,B|424:352,2,62.4999957531692,0|0|2
472,48,197422,6,2,B|376:48|376:48|304:120,1,187.499992847443,6|0
296,128,197745,1,2
160,72,197906,1,0
48,176,198067,1,0
160,272,198229,1,0
272,176,198390,6,0,B|400:176,1,124.999995231629,0|0
296,288,198713,2,0,B|224:288|224:288|176:336|176:336|104:336,1,187.499992847443,0|0
96,336,199035,1,2
344,168,199358,2,2,B|392:216|392:216|392:280,1,124.999995231629,2|0
496,168,199680,2,0,B|448:120|448:120|448:56,1,124.999995231629,8|0
344,168,200003,5,0
344,168,200325,1,2
200,208,200487,1,0
344,248,200648,1,0
200,288,200809,1,2
344,328,200971,1,0
200,368,201132,1,2
80,280,201293,6,0,B|80:184|80:184|168:96,1,187.499992847443
168,104,201616,2,0,B|248:104|248:104|304:48|304:48|400:48,1,249.999990463257,0|0
396,348,202261,1,0
396,196,202422,1,0
396,164,202503,1,0
396,132,202584,1,12
256,192,202906,12,0,207422
168,176,207584,1,4
168,208,207665,1,0
168,240,207746,1,4
