osu file format v9

[General]
AudioFilename: .mp3
AudioLeadIn: 0
PreviewTime: 41712
Countdown: 0
SampleSet: Normal
StackLeniency: 0.7
Mode: 0
LetterboxInBreaks: 1

[Editor]
Bookmarks: 155602
DistanceSpacing: 1
BeatDivisor: 4
GridSize: 8

[Metadata]
Title:Babylon
Artist:Glutamine
Creator:CSY the corrupt
Version:BakaHard
Source:
Tags:Hatsune Miku BakaHuang huang99520 Touma

[Difficulty]
HPDrainRate:5
CircleSize:4
OverallDifficulty:6
ApproachRate:8
SliderMultiplier:1.49999990463257
SliderTickRate:1

[Events]
//Background and Video events
0,0,"BG.jpg"
//Break Periods
2,55166,61757
2,121832,131574
//Storyboard Layer 0 (Background)
//Storyboard Layer 1 (Fail)
//Storyboard Layer 2 (Pass)
//Storyboard Layer 3 (Foreground)
//Storyboard Sound Samples
//Background Colour Transformations
3,100,163,162,255

[TimingPoints]
1404,322.58064516129,4,2,1,70,1,0
6081,-100,4,1,1,80,0,0
27335,521.739130434783,3,2,1,80,1,0
36269,-100,3,1,1,80,0,0
36606,327.868852459016,4,1,1,80,1,0
41851,-100,4,1,1,85,0,1
42179,-100,4,1,1,82,0,0
46442,-100,4,1,1,85,0,0
47097,-100,4,1,1,85,0,1
47425,-100,4,1,1,82,0,0
52015,-100,4,1,1,70,0,0
52343,-133.333333333333,4,1,1,80,0,0
53983,-100,4,1,1,80,0,0
62507,327.868852459016,4,1,1,80,1,0
72343,-200,4,1,1,80,0,0
72670,-100,4,1,1,80,0,0
82179,-100,4,1,1,60,0,0
83490,-100,4,1,1,85,0,1
83818,-100,4,1,1,82,0,0
88736,-100,4,1,1,85,0,1
89064,-100,4,1,1,82,0,0
92670,-200,4,1,1,80,0,0
93326,-100,4,1,1,80,0,0
93964,327.868852459016,3,1,1,80,1,0
110029,327.868852459016,4,1,1,80,1,0
144345,-100,4,1,1,81,0,0
144564,-100,4,1,1,82,0,0
144783,-100,4,1,1,83,0,0
145438,-100,4,1,1,85,0,1
145766,-100,4,1,1,82,0,0
150028,-100,4,1,1,85,0,0
150684,-100,4,1,1,85,0,1
151012,-100,4,1,1,82,0,0
154619,-100,4,1,1,75,0,0
154947,-100,4,1,1,80,0,0
155274,-100,4,1,1,85,0,0
155602,-100,4,1,1,90,0,0
161176,-100,4,1,1,85,0,1
161504,-100,4,1,1,82,0,0
166455,322.58064516129,4,1,1,85,1,1
175487,-100,4,1,1,82,0,1
176132,-100,4,1,1,76,0,1
176777,-100,4,1,1,70,0,0

[Colours]
Combo1 : 196,0,0
Combo2 : 0,128,64
Combo3 : 213,217,166

[HitObjects]
256,192,6081,6,8,B|256:272,2,74.9999952316285,8|0|8
256,192,6565,12,4,8016
280,216,8339,6,0,B|328:160|312:72,2,149.999990463257,2|2|0
208,216,9145,2,0,B|160:272|176:360,2,149.999990463257,8|0|0
280,216,9952,6,0,B|440:216,1,149.999990463257,0|8
296,144,10597,2,0,B|248:216|288:288,1,149.999990463257,2|2
400,192,11242,2,0,B|438:122|390:50,1,149.999990463257,2|8
312,48,11726,6,0,B|480:48,2,149.999990463257
256,96,12533,2,0,B|216:168|256:240,2,149.999990463257,0|2|2
400,144,13500,2,0,B|439:215|399:287,2,149.999990463257,8|2|0
360,80,14307,5,8
360,80,14629,2,2,B|400:128|400:128|400:216,1,149.999990463257,2|2
328,240,15113,2,0,B|328:136,1,74.9999952316285
184,128,15597,2,2,B|184:248,1,112.499992847443
256,328,16081,2,0,B|256:232,1,74.9999952316285
256,104,16565,1,0
256,104,16887,5,0
200,48,17049,1,0
128,48,17210,2,0,B|32:48,1,74.9999952316285,0|2
80,120,17533,2,2,B|168:120,2,74.9999952316285,2|0|0
49,188,18016,1,0
80,256,18178,6,0,B|176:256,1,74.9999952316285,0|0
256,200,18500,1,0
352,256,18662,1,2
448,200,18823,2,2,B|448:160|448:160|464:120|464:120|464:48,1,149.999990463257,2|0
392,88,19307,2,0,B|392:8,1,74.9999952316285,8|0
256,88,19791,5,0
184,120,19952,1,0
112,88,20113,2,0,B|112:8,1,74.9999952316285,8|0
48,152,20597,2,0,B|8:224|48:296,1,149.999990463257
112,256,21081,2,0,B|144:296|160:336,1,74.9999952316285
224,352,21403,2,0,B|248:320|256:280,1,74.9999952316285
256,104,22049,5,0
312,48,22211,1,0
384,48,22372,2,0,B|480:48,1,74.9999952316285,0|2
432,120,22695,2,2,B|344:120,2,74.9999952316285,2|0|0
462,188,23178,1,0
432,256,23340,6,2,B|336:256,1,74.9999952316285,2|0
256,200,23662,1,0
160,256,23824,1,2
64,200,23985,2,2,B|64:160|64:160|48:120|48:120|48:48,1,149.999990463257,2|0
120,88,24469,2,0,B|120:8,1,74.9999952316285,8|0
256,88,24953,5,0
328,120,25114,1,0
400,88,25275,2,0,B|400:8,1,74.9999952316285,8|0
464,152,25758,2,0,B|504:224|464:296,1,149.999990463257
400,256,26242,2,0,B|368:296|352:336,1,74.9999952316285
288,352,26565,2,0,B|240:304|240:232,1,112.499992847443
256,144,27049,1,0
256,144,27335,5,2
200,88,27595,1,0
184,88,27726,1,0
168,88,27856,1,0
128,24,28117,1,0
96,88,28378,2,0,B|88:128|96:168,1,74.9999952316285,2|0
48,304,28900,2,2,B|56:264|48:224,1,74.9999952316285
24,160,29421,1,0
152,240,29682,1,0
296,208,29943,2,0,B|328:184|336:144,1,74.9999952316285
360,72,30465,5,0
424,32,30726,1,0
424,32,30856,1,0
424,32,30987,1,0
488,72,31248,1,0
464,144,31508,1,0
384,144,31769,1,2
328,192,32030,2,0,B|288:256|296:352,1,149.999990463257
223,360,32813,2,0,B|215:288|239:208,1,149.999990463257
256,139,33595,1,0
200,88,33856,6,0,B|224:56|224:32,2,37.4999976158143,0|0|2
128,96,34378,1,2
88,160,34639,1,2
72,192,34769,1,0
56,224,34900,1,0
120,264,35161,6,0,B|72:352,1,74.9999952316285,0|2
160,344,35682,2,0,B|208:248,1,74.9999952316285,0|0
168,168,36269,5,2
168,168,36606,2,2,B|144:144|144:144|104:144,1,74.9999952316285,2|0
48,192,36933,2,2,B|72:216|72:216|112:216,1,74.9999952316285,2|0
104,288,37261,2,2,B|160:288|160:288|184:248|184:248|232:248,1,149.999990463257,2|0
296,208,37753,1,0
360,248,37917,2,0,B|392:184|376:96,1,149.999990463257
344,32,38409,1,8
416,32,38573,1,0
416,32,38737,2,0,B|248:32,1,149.999990463257,8|0
192,32,39228,1,0
32,192,39556,5,2
192,352,39884,1,2
352,192,40212,1,8
352,192,40294,1,0
352,192,40376,1,8
352,192,40540,2,0,B|472:192,2,112.499992847443
280,192,41196,1,0
264,192,41851,6,2,B|232:192|184:192,1,74.9999952316285,2|0
112,192,42179,1,0
112,192,42261,1,0
112,192,42343,1,2
56,144,42507,1,0
56,240,42671,1,0
56,240,42999,2,0,B|72:312|72:312|80:312|80:312|96:384,1,149.999990463257
160,344,43491,1,0
256,280,43655,1,0
352,344,43819,1,0
352,344,44146,6,0,B|376:312|392:280,1,74.9999952316285
392,208,44474,2,0,B|368:176|352:144,1,74.9999952316285
456,32,44802,2,2,B|480:64|496:96,1,74.9999952316285,2|0
496,112,45048,1,0
496,128,45130,1,0
472,200,45294,1,2
384,320,45622,6,0,B|416:256|400:192|384:160,1,149.999990463257
320,144,46114,1,0
256,192,46278,1,0
192,144,46442,1,0
127,319,46769,2,0,B|96:256|112:192|121:174,1,149.999990463257,0|2
128,96,47261,1,0
192,144,47425,1,0
201,70,47589,1,0
201,70,47917,5,0
256,24,48081,1,0
310,70,48245,1,0
310,70,48573,6,0,B|304:112|320:144,1,74.9999952316285
384,104,48901,1,0
384,176,49065,2,0,B|392:264|368:336,1,149.999990463257
128,176,49720,6,0,B|120:264|144:336,1,149.999990463257
208,360,50212,1,2
208,288,50376,2,0,B|192:248|200:208,1,74.9999952316285
304,96,50704,2,0,B|320:136|312:176,2,74.9999952316285
256,192,51114,12,0,52015
40,192,52343,6,0,B|144:248|256:192,1,224.999978989364,4|0
472,192,53327,2,0,B|368:136|256:192,1,224.999978989364
256,192,54310,5,0
256,192,54638,1,0
256,192,54966,1,0
256,192,62507,5,0
184,192,62670,1,0
112,192,62834,2,2,B|72:192|72:192|32:208,1,74.9999952316285,2|0
88,264,63162,2,2,B|168:264,1,74.9999952316285,2|0
256,328,63490,1,2
349,264,63654,1,0
464,248,63818,6,0,B|480:216|480:176,1,74.9999952316285
408,88,64146,2,2,B|392:120|392:160,1,74.9999952316285,0|2
349,264,64474,1,2
288,168,64638,1,0
216,256,64802,1,0
155,160,64966,1,2
155,160,65129,1,8
40,64,65457,6,0,B|32:144,1,74.9999952316285
104,112,65785,2,0,B|112:64|144:40,1,74.9999952316285
208,32,66113,1,0
256,88,66277,1,8
256,88,66359,1,0
256,88,66441,1,8
304,32,66605,1,0
375,46,66769,2,0,B|400:64|408:112,1,74.9999952316285
479,138,67097,2,0,B|472:64,1,74.9999952316285,8|0
256,192,67753,5,0
328,192,67916,1,0
400,192,68080,2,2,B|440:192|440:192|480:176,1,74.9999952316285,2|0
424,120,68408,2,2,B|344:120,1,74.9999952316285,2|0
256,56,68736,1,0
163,120,68900,1,0
48,136,69064,6,2,B|32:168|32:208,1,74.9999952316285,2|0
104,296,69392,2,2,B|120:264|120:224,1,74.9999952316285,0|2
163,120,69720,1,2
224,216,69884,1,0
296,128,70048,1,0
357,224,70212,1,2
357,224,70375,1,8
472,320,70703,6,0,B|480:240,1,74.9999952316285
408,272,71031,2,0,B|400:320|368:344,1,74.9999952316285
304,352,71359,1,0
256,296,71523,1,8
256,296,71605,1,0
256,296,71687,1,8
208,352,71851,1,0
137,338,72015,2,0,B|112:320|104:272,1,74.9999952316285
33,246,72343,6,0,B|40:320,1,74.9999952316285,8|0
24,168,72998,6,0,B|80:112|56:24,1,149.999990463257,4|0
128,16,73490,1,0
128,16,73654,2,0,B|144:56|136:96,1,74.9999952316285
76,220,73982,2,0,B|104:200|120:160,1,74.9999952316285
192,144,74310,2,0,B|328:144,2,112.499992847443
216,216,74966,2,0,B|248:288|216:368,2,149.999990463257,0|0|4
288,216,75785,5,0
288,216,75949,2,0,B|368:216,1,74.9999952316285
336,144,76277,2,2,B|416:128,1,74.9999952316285,2|0
376,64,76605,2,2,B|448:24,1,74.9999952316285,2|0
496,80,76933,2,0,B|464:144|496:232,1,149.999990463257,0|2
368,312,77588,1,2
280,192,77916,1,4
488,168,78244,6,0,B|432:112|456:24,1,149.999990463257
384,16,78736,1,0
384,16,78900,2,0,B|368:56|376:96,1,74.9999952316285,8|0
435,220,79228,2,0,B|408:200|392:160,1,74.9999952316285,0|0
320,144,79556,2,0,B|184:144,2,112.499992847443,0|0|0
296,216,80212,2,0,B|264:288|296:368,2,149.999990463257
224,216,81031,5,0
224,216,81195,2,0,B|144:216,1,74.9999952316285,8|0
176,144,81523,2,0,B|96:128,1,74.9999952316285
136,64,81851,2,0,B|64:24,1,74.9999952316285,8|0
16,80,82179,2,0,B|48:144|16:232,1,149.999990463257
144,312,82834,1,0
232,192,83162,1,8
256,40,83490,5,2
256,40,83654,1,0
216,104,83818,2,2,B|256:120|288:104,1,74.9999952316285,2|0
352,64,84146,2,0,B|376:32|424:32,1,74.9999952316285,0|0
352,136,84474,1,0
352,136,84638,2,0,B|400:208|360:280,1,149.999990463257
361,277,85129,1,2
256,328,85293,1,0
150,277,85457,1,0
80,296,85621,1,0
24,248,85785,2,0,B|16:200|32:160,1,74.9999952316285
96,208,86113,6,0,B|96:128|120:56,1,149.999990463257,0|2
184,24,86605,1,0
256,40,86769,1,0
328,24,86933,1,2
416,208,87261,2,2,B|416:128|392:56,1,149.999990463257,2|2
328,24,87752,1,2
256,40,87916,2,2,B|256:136,1,74.9999952316285,0|2
256,344,88408,1,8
256,344,88736,5,2
256,344,88900,1,0
216,280,89064,2,2,B|256:264|288:280,1,74.9999952316285,2|0
352,320,89392,2,0,B|376:352|424:352,1,74.9999952316285
352,248,89720,1,0
352,248,89884,2,0,B|400:176|360:104,1,149.999990463257
361,107,90375,1,2
256,56,90539,1,0
150,107,90703,1,2
80,88,90867,1,0
24,136,91031,2,0,B|16:184|32:224,1,74.9999952316285
96,176,91359,6,0,B|96:256|120:328,1,149.999990463257
184,360,91851,2,2,B|256:344|336:360,1,149.999990463257,2|0
408,336,92343,1,0
432,264,92506,1,2
384,200,92670,6,0,B|328:152|336:48,1,149.999990463257
335,63,93654,1,0
192,40,93964,6,0,B|104:48|80:136,1,149.999990463257,4|8
40,192,94455,1,0
88,256,94619,1,0
160,232,94783,1,0
160,160,94947,1,0
256,272,95275,1,8
320,312,95439,1,8
336,280,95521,1,0
328,240,95603,2,0,B|320:192|336:160,1,74.9999952316285
256,184,95931,6,0,B|344:184|384:104,1,149.999990463257,0|8
384,40,96423,1,0
320,72,96586,2,0,B|296:112|256:112,1,74.9999952316285
256,40,96914,1,0
104,40,97242,1,0
112,192,97570,5,0
112,192,97734,1,0
112,192,97898,2,0,B|96:264|112:344,1,149.999990463257,12|0
256,312,98554,1,0
400,340,98882,2,0,B|416:264|400:192,1,149.999990463257
392,120,99373,1,0
392,120,99537,1,0
256,48,99865,6,0,B|240:128|256:200,1,149.999990463257
288,264,100357,1,0
256,280,100439,1,0
224,264,100521,2,0,B|192:248|184:200,1,74.9999952316285
255,196,100849,1,0
360,88,101177,1,0
464,192,101504,1,0
352,296,101832,6,0,B|392:232|360:152,1,149.999990463257,4|8
296,192,102324,1,0
256,128,102488,1,0
256,128,102570,1,0
256,128,102652,1,0
216,192,102816,1,0
112,88,103144,1,8
8,192,103472,1,0
72,152,103636,1,0
88,184,103718,1,0
80,224,103800,6,0,B|64:264|72:304,1,74.9999952316285
144,272,104127,2,0,B|144:320|176:352,1,74.9999952316285,8|0
346,342,104455,2,0,B|368:320|368:272,2,74.9999952316285
256,56,105439,5,2
256,56,105767,2,2,B|192:72|192:72|184:88|184:88|120:112,1,149.999990463257,2|0
48,88,106259,1,2
64,160,106423,2,0,B|48:224|64:312,1,149.999990463257
256,192,107078,1,0
448,308,107406,2,0,B|464:224|448:160,1,149.999990463257
256,192,108062,1,0
256,344,108390,1,0
256,192,108718,6,0,B|264:152|256:112,1,74.9999952316285,0|8
200,232,109045,2,0,B|160:224|120:232,1,74.9999952316285,0|8
256,272,109373,2,0,B|240:312|256:344,1,74.9999952316285,0|0
312,232,109701,2,0,B|352:240|392:232,1,74.9999952316285,0|8
256,192,110029,12,0,112651
256,32,113635,5,0
408,56,113963,2,0,B|360:136|256:160|256:160|208:264,1,299.999980926514
104,56,115274,2,2,B|152:136|256:160|256:160|304:264,2,299.999980926514,2|0|2
256,192,116668,12,0,119209
128,216,119373,6,0,B|128:304,1,74.9999952316285,8|0
64,152,119865,2,0,B|88:104|168:104|192:152,1,149.999990463257,4|0
256,192,120356,1,0
256,40,120684,2,0,B|256:136,1,74.9999952316285,8|0
256,264,121176,1,0
144,40,132324,6,0,B|120:120|144:192,1,149.999990463257,4|0
216,192,132979,2,0,B|368:192,1,149.999990463257
440,192,133635,2,0,B|464:272|440:344,1,149.999990463257,4|0
368,336,134291,2,0,B|216:336,1,149.999990463257
240,264,134947,2,0,B|80:264,2,149.999990463257,4|0|0
312,264,135930,1,0
312,264,136258,5,0
336,192,136586,1,0
400,160,136914,2,0,B|480:128|488:32,1,149.999990463257
416,32,137569,6,0,B|408:80|368:88,1,74.9999952316285,0|8
344,16,137897,2,0,B|304:32|296:72,1,74.9999952316285,0|8
256,136,138225,2,0,B|248:176|208:189,1,74.9999952316285
136,192,138553,2,0,B|40:192,1,74.9999952316285,8|8
88,264,138881,6,0,B|240:264,1,149.999990463257
256,112,139537,2,0,B|416:112,2,149.999990463257,0|8|4
256,192,140274,12,0,142160
256,64,142488,5,0
176,192,142815,1,0
480,192,143471,1,8
336,152,143799,1,8
328,192,143881,1,0
336,232,143963,2,0,B|328:272|336:312,1,74.9999952316285
448,296,144373,1,0
480,192,144619,1,0
480,192,144783,1,2
328,192,145438,6,2,B|296:192|248:192,1,74.9999952316285,2|0
176,192,145766,1,0
176,192,145848,1,0
176,192,145930,1,2
64,235,146094,1,0
128,134,146258,1,2
135,253,146422,1,0
59,159,146586,2,0,B|66:85|66:85|74:84|74:84|81:11,1,149.999990463257
160,40,147078,1,2
256,104,147242,1,0
352,40,147406,1,0
352,40,147733,6,0,B|376:72|392:104,1,74.9999952316285
392,176,148061,2,0,B|368:208|352:240,1,74.9999952316285
456,352,148389,2,2,B|480:320|496:288,1,74.9999952316285,2|0
496,272,148635,1,0
496,256,148717,1,0
472,184,148881,1,2
384,64,149209,6,2,B|416:128|400:192|384:224,1,149.999990463257,2|2
320,240,149701,1,0
256,192,149865,1,0
192,240,150029,1,0
127,65,150356,2,0,B|96:128|112:192|121:210,1,149.999990463257,2|2
128,288,150848,1,0
192,240,151012,5,0
201,314,151176,1,2
128,288,151340,1,0
256,192,151504,1,0
384,288,151668,1,0
312,312,151832,2,0,B|296:248|352:200|400:216,1,149.999990463257
464,208,152324,2,2,B|496:184|496:128,1,74.9999952316285,2|0
424,144,152651,1,0
312,48,152979,1,0
312,48,153061,1,0
312,48,153143,1,0
384,40,153307,6,0,B|392:112|328:136|280:120,1,149.999990463257,4|0
232,72,153799,2,2,B|193:58|129:82|137:154,1,149.999990463257,2|0
184,208,154291,2,0,B|224:184|208:128,2,74.9999952316285,0|0|8
256,344,154947,1,2
148,237,155274,1,2
256,129,155602,1,0
363,237,155930,6,2,B|448:224,1,74.9999952316285,2|0
400,160,156258,2,2,B|472:120,1,74.9999952316285,2|0
464,48,156586,1,0
320,80,156750,1,0
392,64,156914,1,0
256,128,157078,2,0,B|248:200|256:288,1,149.999990463257
216,344,157569,1,0
144,312,157733,1,0
144,90,157897,6,2,B|152:168|144:240,1,149.999990463257,2|2
72,272,158389,1,0
144,312,158553,2,0,B|224:296|296:320,1,149.999990463257,0|2
368,328,159045,1,0
408,320,159127,1,0
432,288,159209,2,2,B|464:256|464:208,1,74.9999952316285,0|2
424,80,159701,5,2
424,80,159783,1,0
424,80,159865,1,0
496,104,160028,2,0,B|464:176|384:160|368:128,1,149.999990463257
372,135,160520,1,0
256,40,160848,1,0
139,135,161176,5,2
139,135,161258,1,0
139,135,161340,1,0
80,88,161504,2,0,B|56:64|40:16,2,74.9999952316285,0|0|0
64,160,161996,2,0,B|56:208|64:248,1,74.9999952316285
136,216,162324,2,0,B|144:288|136:368,1,149.999990463257
208,344,162815,1,0
256,288,162979,1,0
304,344,163143,2,0,B|352:344|384:368,1,74.9999952316285
448,368,163471,2,0,B|464:328|464:296,1,74.9999952316285
464,216,163799,6,0,B|464:128,1,74.9999952316285
320,104,164291,2,0,B|320:16,1,74.9999952316285
200,120,164783,2,0,B|200:195,1,74.9999952316285
56,231,165275,2,0,B|56:306,1,74.9999952316285
56,152,165766,1,0
360,56,166455,6,2,B|392:144|328:192,1,149.999990463257,2|0
256,192,166938,1,0
184,192,167100,2,0,B|96:192,2,74.9999952316285
256,192,167584,1,0
152,56,167906,6,0,B|120:144|184:192,1,149.999990463257
256,192,168389,1,0
328,192,168551,2,0,B|416:192,2,74.9999952316285
256,192,169035,5,0
256,344,169358,1,2
128,264,169681,1,2
128,264,169762,1,0
128,264,169842,1,0
192,224,170003,2,0,B|208:264|192:304,1,74.9999952316285
256,344,170325,1,0
317,297,170487,6,0,B|304:264|320:224,1,74.9999952316285
384,264,170809,2,0,B|392:216|440:208,1,74.9999952316285
464,280,171132,1,0
488,136,171455,1,0
496,208,171616,6,2,B|424:216|400:144|424:96,1,149.999990463257,2|2
456,48,172100,1,0
384,48,172261,2,2,B|280:48,1,74.9999952316285,2|0
336,120,172584,2,0,B|256:120,1,74.9999952316285
136,40,173067,6,0,B|104:96|104:96|104:112|104:112|64:176,1,149.999990463257
88,320,173713,2,0,B|120:264|120:264|120:248|120:248|160:184,1,149.999990463257
208,240,174196,6,2,B|280:272|360:240,1,149.999990463257,0|2
408,104,174842,2,8,B|384:136|376:176,2,74.9999952316285,2|0|8
256,104,175487,6,2,B|232:168|224:232,1,112.499992847443,2|10
176,112,175971,2,2,B|192:72|184:32,1,74.9999952316285,10|0
112,168,176455,1,0
112,168,176777,1,4
