osu file format v5

[General]
AudioFilename: Global Deejays - The Sounds Of San Francisco.mp3
AudioLeadIn: 0
PreviewTime: -1
Countdown: 1
SampleSet: Normal
StackLeniency: 0.7
Mode: 0

[Metadata]
Title:The Sounds Of San Francisco
Artist:Global Deejays
Creator:Darkytron
Version:Normal
Source:
Tags:

[Difficulty]
HPDrainRate:5
CircleSize:5
OverallDifficulty:5
SliderMultiplier:1
SliderTickRate:1

[Events]
//Background and Video events
0,0,"5695979.jpg"
//Break Periods
2,120235,131535
//Storyboard Layer 0 (Background)
//Storyboard Layer 1 (Failing)
//Storyboard Layer 2 (Passing)
//Storyboard Layer 3 (Foreground)
//Storyboard Sound Samples
//Background Colour Transformations
3,100,163,162,255

[TimingPoints]
2100,453.596500000001,4,1,0,100

[HitObjects]
96,64,5728,1,0
96,128,6635,1,0
96,192,7542,1,0
96,256,8449,1,0
96,288,8789,1,0
192,288,9357,6,0,B|192:224,2,50
192,160,10264,2,0,B|192:96,2,50
320,64,11171,2,0,B|320:128,2,50
320,192,12079,2,0,B|320:256,4,50
192,160,13439,6,0,B|128:160,2,50
192,256,14800,2,0,B|256:256,2,50
320,256,15707,2,0,B|384:256,4,50
352,64,18429,6,0,B|288:64,2,50
352,128,20017,2,0,B|288:128,2,50
352,192,21831,2,0,B|288:192,3,50
352,256,23872,2,0,B|288:256,2,50
352,320,25687,2,0,B|288:320,3,50
224,256,27501,2,0,B|224:192,2,50
64,192,29315,6,0,B|192:192|224:192|256:128|224:64|160:64|128:96|128:160|192:224|224:224|256:224|288:192,1,425
384,320,32944,6,0,B|320:320,2,50
384,256,34758,2,0,B|320:256,2,50
384,192,36573,2,0,B|320:192,2,50
384,128,38387,2,0,B|320:128,3,50
384,64,40202,2,0,B|320:64,2,50
288,96,41789,2,0,B|288:256,1,150
288,320,43830,5,0
192,320,44284,1,0
128,320,44738,2,0,B|64:320|64:288|64:224,1,125
96,160,46439,5,0
96,96,46892,1,0
192,96,47459,2,0,B|448:96,1,250
448,192,49047,5,0
416,256,49274,1,0
320,256,50181,1,0
224,256,51088,1,0
160,256,51201,2,0,B|96:224|64:192|32:96|32:64|192:96,1,325
416,64,53583,5,0
352,128,54036,1,0
288,192,54376,1,0
224,256,54603,2,0,B|192:288|160:288|128:288|96:256|96:256|64:224|64:192|64:128|64:96,1,300
64,64,56077,5,0
128,128,56531,1,0
192,192,56985,1,0
256,256,57438,1,0
320,320,57778,1,0
416,320,58232,2,0,B|448:288|480:256|480:224|480:160|480:128|448:96|416:96|416:64|384:64|384:64|288:64,1,400
224,64,61067,5,0
224,160,61521,1,0
224,256,61974,2,0,B|288:320|320:320|384:320|416:288|448:288|448:256|448:224|448:192,1,300
384,160,63789,5,0
288,160,64696,1,0
192,160,65490,1,0
128,160,65603,2,0,B|32:224|32:256|32:288|64:320|128:320|160:320,1,275
256,320,68325,5,0
192,256,68665,1,0
128,192,69232,2,0,B|96:96|160:64|192:64|224:96|256:128|224:160|192:192|160:192,1,300
192,288,71273,5,0
224,288,71727,1,0
256,288,71953,1,0
288,288,72180,1,0
384,288,72861,2,0,B|384:160,4,125
384,96,76489,5,0
320,96,77283,1,0
256,96,77850,1,0
224,96,78077,1,0
192,96,78304,1,0
160,96,78531,1,0
128,96,78757,1,0
128,192,80118,5,0
192,192,80798,1,0
256,192,81139,1,0
320,192,81706,1,0
352,192,81932,1,0
384,192,82159,1,0
416,192,82386,1,0
416,288,83747,5,0
352,288,84427,1,0
288,288,85108,1,0
256,288,85334,1,0
224,288,85561,1,0
192,288,85788,1,0
128,288,86015,1,0
128,192,87376,5,0
192,192,88056,1,0
256,192,88396,1,0
320,192,88963,1,0
352,192,89190,1,0
384,192,89417,1,0
416,192,89644,1,0
416,96,90097,5,0
256,96,90551,1,0
96,96,90778,2,0,B|96:192,2,75
96,224,91685,1,0
160,288,92365,1,0
192,288,92592,1,0
224,288,92819,1,0
256,288,93046,1,0
288,288,93272,1,0
384,288,94633,5,0
384,224,95314,1,0
384,160,95767,1,0
384,96,96221,1,0
352,96,96448,1,0
320,96,96674,1,0
288,96,96901,1,0
96,96,98262,5,0
96,160,98942,1,0
96,224,99623,1,0
96,256,99850,1,0
96,288,100076,1,0
96,320,100303,1,0
160,320,100530,1,0
288,320,101891,5,0
352,320,102458,1,0
416,320,103025,1,0
448,288,103478,1,0
448,256,103705,1,0
448,224,103932,1,0
448,160,104159,1,0
448,64,104612,5,0
352,128,105066,1,0
256,192,105520,1,0
160,256,106200,1,0
64,288,106880,1,0
64,256,107107,1,0
64,224,107334,1,0
64,192,107561,1,0
64,128,107787,1,0
64,64,109148,5,0
160,128,109715,1,0
256,192,110282,1,0
352,128,110736,1,0
384,96,110963,1,0
416,64,111189,1,0
448,32,111416,1,0
352,32,112777,5,0
288,32,113457,1,0
224,32,114138,1,0
192,32,114365,1,0
160,32,114591,1,0
128,32,114818,1,0
96,32,115045,1,0
96,128,116406,5,0
160,128,117086,1,0
224,128,117540,1,0
288,128,117993,1,0
320,128,118220,1,0
352,128,118447,1,0
384,128,118674,1,0
256,192,119127,12,0,120035
256,64,132735,5,0
256,160,133189,1,0
256,256,133529,2,0,B|256:320,5,50
448,320,135570,5,0
384,256,135910,1,0
320,192,136364,2,0,B|256:128,4,75
96,64,138178,5,0
96,128,139086,1,0
96,192,139879,2,0,B|96:288,5,75
192,320,142488,5,0
192,256,142941,1,0
192,160,143281,2,0,B|192:64,5,75
288,64,145436,5,0
288,128,145890,1,0
288,192,146343,1,0
288,224,146457,1,0
288,288,147250,2,0,B|288:352,7,50
416,320,149972,5,0
416,256,150426,1,0
416,192,150993,1,0
416,160,151333,2,0,B|416:96,1,50
416,64,152353,5,0
320,64,152694,2,0,B|224:64,1,75
224,64,153487,2,0,B|128:64,1,75
111,64,154508,2,0,B|80:72|64:97|49:130|42:165|40:210|42:236|44:251|48:269|48:283|63:309|84:323|104:332|115:327|128:320,1,325
224,320,157230,5,0
288,320,157683,1,0
352,320,158023,1,0
352,224,159724,5,0
288,224,160178,1,0
224,224,160631,1,0
160,224,160858,1,0
128,224,161198,1,0
128,128,161652,5,0
192,128,161992,1,0
256,128,162446,1,0
320,128,162673,1,0
352,128,162899,1,0
352,64,163353,5,0
288,64,163807,1,0
224,64,164260,1,0
160,64,164487,1,0
128,64,164714,1,0
96,64,168229,5,0
224,128,168683,1,0
352,192,169023,2,0,B|352:288,2,75
320,288,170384,1,0
288,288,170611,1,0
256,288,170837,1,0
224,288,171064,1,0
160,288,171291,1,0
96,64,172652,5,0
160,64,173332,1,0
224,64,173786,1,0
288,64,174239,1,0
320,64,174466,1,0
352,64,174693,1,0
416,64,174920,1,0
416,160,176281,5,0
352,160,176961,1,0
288,160,177641,1,0
256,160,177868,1,0
224,160,178095,1,0
192,160,178322,1,0
128,160,178549,1,0
128,224,179909,5,0
192,224,180476,1,0
256,224,181043,1,0
320,224,181497,1,0
352,224,181724,1,0
384,224,181951,1,0
448,224,182177,1,0
448,320,182631,5,0
384,320,183085,1,0
320,320,183538,1,0
256,320,184218,1,0
192,320,184899,1,0
160,320,185126,1,0
128,320,185352,1,0
96,320,185579,1,0
64,320,185806,1,0
64,224,187167,5,0
128,224,187847,1,0
192,224,188301,1,0
256,224,188754,1,0
288,224,188981,1,0
320,224,189208,1,0
352,224,189435,1,0
352,128,190796,5,0
288,128,191476,1,0
224,128,192156,1,0
192,128,192383,1,0
160,128,192610,1,0
128,128,192837,1,0
96,128,193064,1,0
96,64,194424,5,0
160,64,195105,1,0
224,64,195558,1,0
288,64,196012,1,0
320,64,196239,1,0
352,64,196466,1,0
384,64,196692,1,0
384,160,197826,6,0,B|384:224,3,50
320,160,199868,2,0,B|320:224,2,50
256,160,201682,2,0,B|256:224,2,50
192,160,203496,2,0,B|192:224,2,50
128,160,205311,2,0,B|128:224,2,50
128,320,207125,6,0,B|128:256,2,50
192,320,208713,2,0,B|192:256,2,50
288,320,210754,5,0
288,256,211207,1,0
288,160,211661,2,0,B|288:96,2,50
