osu file format v12

[General]
AudioFilename: Global Deejays - The Sound of San Francisco.mp3
AudioLeadIn: 0
PreviewTime: 51043
Countdown: 0
SampleSet: Soft
StackLeniency: 0.7
Mode: 0
LetterboxInBreaks: 0
WidescreenStoryboard: 0

[Editor]
DistanceSpacing: 1
BeatDivisor: 4
GridSize: 4

[Metadata]
Title:The Sound of San Francisco
TitleUnicode:The Sound of San Francisco
Artist:Global Deejays
ArtistUnicode:Global Deejays
Creator:Sey
Version:Paris
Source:
Tags:Deif _Gezo_ Dance House
BeatmapID:258465
BeatmapSetID:96422

[Difficulty]
HPDrainRate:2
CircleSize:3
OverallDifficulty:2
ApproachRate:3
SliderMultiplier:1.1
SliderTickRate:1

[Events]
//Background and Video events
0,0,"eiffel-tower-paris.jpg",0,0
//Break Periods
2,51311,64196
//Storyboard Layer 0 (Background)
//Storyboard Layer 1 (Fail)
//Storyboard Layer 2 (Pass)
//Storyboard Layer 3 (Foreground)
//Storyboard Sound Samples
//Background Colour Transformations
3,100,163,162,255

[TimingPoints]
380,453.172205438066,4,2,1,70,1,0
51111,453.172205438066,4,2,1,70,1,0
65636,453.172205438066,4,2,1,70,1,0
78212,-100,4,2,1,30,0,0
81950,-100,4,2,1,80,0,1
95546,-100,4,2,1,70,0,0
96452,-100,4,2,1,80,0,1
110954,-100,4,2,1,5,0,0

[Colours]
Combo1 : 0,0,128
Combo2 : 6,174,255
Combo3 : 255,255,255

[HitObjects]
58,231,7630,6,0,P|108:216|144:172,1,110,4|8,2:1|0:0,0:0:0:0:
208,84,8537,2,0,P|256:60|304:84,1,110,0|8,0:0|0:0,0:0:0:0:
368,172,9443,2,0,P|404:216|456:232,1,110,0|8,0:0|0:0,0:0:0:0:
464,124,10349,1,0,0:0:0:0:
464,124,10802,1,8,0:0:0:0:
376,60,11256,6,0,B|316:56|316:56|304:48|304:48|256:48,1,110,0|8,0:0|0:0,0:0:0:0:
168,88,12162,2,0,B|160:128|160:128|168:136|168:136|168:208,1,110,0|8,0:0|0:0,0:0:0:0:
257,256,13068,2,0,B|306:258|306:258|316:270|316:270|382:277,1,110,0|8,0:0|0:0,0:0:0:0:
350,166,13975,1,0,0:0:0:0:
351,166,14428,1,8,0:0:0:0:
244,132,14881,6,0,P|268:84|270:28,1,110,0|8,0:0|0:0,0:0:0:0:
164,64,15787,2,0,P|127:106|79:129,1,110,0|8,0:0|0:0,0:0:0:0:
84,240,16694,2,0,P|143:238|198:212,1,110,0|8,0:0|0:0,0:0:0:0:
272,148,17600,2,0,L|312:100,2,55,0|0|8,0:0|0:0|0:0,0:0:0:0:
168,112,18506,6,0,P|168:168|192:220,1,110,0|8,0:0|0:0,0:0:0:0:
284,272,19413,2,0,L|396:260,1,110,0|8,0:0|0:0,0:0:0:0:
416,152,20319,2,0,L|464:112,2,55,0|0|4,0:0|0:0|0:0,0:0:0:0:
96,224,22132,6,0,B|152:256|208:216,1,110,0|8,0:0|0:0,0:0:0:0:
220,116,23038,2,0,B|260:68|324:92,1,110,0|8,0:0|0:0,0:0:0:0:
416,144,23945,2,0,P|406:165|330:193,1,110,0|8,0:0|0:0,0:0:0:0:
224,216,24851,1,0,0:0:0:0:
224,216,25304,1,8,0:0:0:0:
136,152,25757,6,0,B|144:112|144:112|136:88|152:40,1,110,0|8,0:0|0:0,0:0:0:0:
256,80,26663,2,0,B|270:123|262:147|262:147|270:187,1,110,0|8,0:0|0:0,0:0:0:0:
376,164,27570,2,0,B|384:120|384:120|380:96|380:96|396:32,1,110,0|8,0:0|0:0,0:0:0:0:
488,108,28476,2,0,L|476:180,2,55,0|0|8,0:0|0:0|0:0,0:0:0:0:
380,132,29383,6,0,P|332:156|268:148,1,110,0|8,0:0|0:0,0:0:0:0:
248,256,30289,2,0,P|304:236|360:240,1,110,0|8,0:0|0:0,0:0:0:0:
440,304,31195,2,0,P|450:236|434:200,1,110,0|8,0:0|0:0,0:0:0:0:
364,116,32102,1,0,0:0:0:0:
264,68,32555,1,8,0:0:0:0:
156,92,33008,6,0,B|100:92|100:92|92:100|92:100|92:156,1,110,0|8,0:0|0:0,0:0:0:0:
92,252,33914,2,0,B|92:308|92:308|100:316|100:316|148:316,1,110,0|8,0:0|0:0,0:0:0:0:
208,228,34821,1,0,0:0:0:0:
68,180,36633,6,0,B|108:148|108:148|112:120|160:92,1,110,0|8,0:0|0:0,0:0:0:0:
240,48,37540,2,0,P|260:104|232:160,1,110,0|8,0:0|0:0,0:0:0:0:
212,256,38446,2,0,P|192:312|220:368,1,110,0|8,0:0|0:0,0:0:0:0:
308,308,39352,1,0,0:0:0:0:
308,308,39805,1,8,0:0:0:0:
368,216,40259,6,0,P|412:152|412:104,1,110,0|8,0:0|0:0,0:0:0:0:
328,56,41165,2,0,P|280:32|232:56,1,110,0|8,0:0|0:0,0:0:0:0:
152,128,42071,2,0,P|154:158|198:222,1,110,0|8,0:0|0:0,0:0:0:0:
288,280,42978,1,0,0:0:0:0:
288,280,43431,1,8,0:0:0:0:
384,328,43884,6,0,P|404:272|376:216,1,110,0|8,0:0|0:0,0:0:0:0:
288,176,44790,2,0,P|268:120|296:64,1,110,0|8,0:0|0:0,0:0:0:0:
392,64,45696,1,0,0:0:0:0:
392,64,46149,1,8,0:0:0:0:
416,168,46603,2,0,P|432:236|400:284,1,110,0|8,0:0|0:0,0:0:0:0:
308,288,47509,6,0,P|268:256|208:248,1,110,0|8,0:0|0:0,0:0:0:0:
192,140,48416,2,0,P|256:136|296:100,1,110,0|8,0:0|0:0,0:0:0:0:
256,192,49322,12,2,51111,0:0:0:0:
200,264,65636,6,0,P|184:200|128:176,1,110
80,96,66543,2,0,P|128:72|192:72,1,110,0|2,0:0|0:0,0:0:0:0:
296,72,67449,2,0,P|344:72|400:104,1,110,0|2,0:0|0:0,0:0:0:0:
464,188,68355,1,2,0:0:0:0:
356,208,68809,1,0,0:0:0:0:
400,308,69262,6,0,P|288:312|256:208,2,220
412,200,71528,2,0,P|380:160|312:160,1,110,2|0,0:0|0:0,0:0:0:0:
248,232,72434,1,0,0:0:0:0:
152,280,72887,6,0,P|104:240|104:184,1,110,0|2,0:0|0:0,0:0:0:0:
168,108,73793,2,0,B|272:116|272:116|336:92|336:92|408:92,2,220
116,208,76059,6,0,B|150:217|150:217|174:209|174:209|222:217,2,110,2|0|2,0:0|0:0|0:0,0:0:0:0:
100,100,77419,2,0,B|156:108|156:108|172:100|172:100|220:108,1,110,0|2,0:0|0:0,0:0:0:0:
256,192,78325,12,0,81044,0:0:0:0:
80,168,81950,6,0,P|144:144|208:144,1,110,0|8,0:0|0:0,0:0:0:0:
216,248,82857,2,0,P|280:272|344:272,1,110,0|8,0:0|0:0,0:0:0:0:
428,248,83763,1,0,0:0:0:0:
428,248,84216,1,8,0:0:0:0:
464,144,84670,6,0,P|400:144|344:168,1,110,0|8,0:0|0:0,0:0:0:0:
248,160,85576,1,0,0:0:0:0:
144,128,86029,2,0,P|64:112|40:72,2,110,8|0|8,0:0|0:0|0:0,0:0:0:0:
248,104,87389,1,0,0:0:0:0:
248,104,87842,1,8,0:0:0:0:
344,44,88295,6,0,P|376:108|352:148,1,110,0|8,0:0|0:0,0:0:0:0:
320,236,89201,2,0,P|272:276|208:276,1,110,0|8,0:0|0:0,0:0:0:0:
136,216,90108,2,0,P|96:168|96:104,1,110,0|8,0:0|0:0,0:0:0:0:
200,128,91014,1,0,0:0:0:0:
200,128,91467,1,8,0:0:0:0:
288,64,91920,6,0,P|320:120|288:176,1,110,0|8,0:0|0:0,0:0:0:0:
200,184,92827,2,0,P|168:240|200:296,1,110,0|8,0:0|0:0,0:0:0:0:
288,312,93733,1,0,0:0:0:0:
384,260,94186,2,0,P|432:204|432:148,2,110,8|0|8,0:0|0:0|0:0,0:0:0:0:
200,120,96451,6,0,L|184:48,2,55,0|0|8,0:0|0:0|0:0,0:0:0:0:
312,120,97358,2,0,L|328:48,2,55,0|0|8,0:0|0:0|0:0,0:0:0:0:
312,232,98265,2,0,L|368:200,2,55,0|0|8,0:0|0:0|0:0,0:0:0:0:
200,232,99171,6,0,L|144:200,2,55,0|0|8,0:0|0:0|0:0,0:0:0:0:
260,140,100078,1,0,0:0:0:0:
204,48,100531,2,0,P|256:32|307:46,2,110,8|0|8,0:0|0:0|0:0,0:0:0:0:
212,160,101890,1,0,0:0:0:0:
212,160,102342,1,8,0:0:0:0:
112,112,102796,6,0,B|160:88|160:88|168:64|216:48,1,110,0|8,0:0|0:0,0:0:0:0:
312,72,103703,2,0,L|376:56,2,55,0|0|8,0:0|0:0|0:0,0:0:0:0:
312,184,104609,2,0,L|248:208,2,55,0|0|8,0:0|0:0|0:0,0:0:0:0:
416,144,105516,1,0,0:0:0:0:
416,144,105969,1,8,0:0:0:0:
336,72,106422,6,0,P|291:71|235:103,1,110,0|8,0:0|0:0,0:0:0:0:
312,184,107327,2,0,P|376:208|432:184,1,110,0|8,0:0|0:0,0:0:0:0:
448,96,108235,1,0,0:0:0:0:
344,72,108688,2,0,P|272:40|216:40,2,110,8|0|8,0:0|0:0|0:0,0:0:0:0:
352,184,110047,2,0,P|385:179|441:131,1,110,0|8,0:0|0:0,0:0:0:0:
256,192,110954,12,2,112842,0:0:0:0:
