osu file format v12

[General]
AudioFilename: Global Deejays - The Sound of San Francisco.mp3
AudioLeadIn: 0
PreviewTime: 51043
Countdown: 0
SampleSet: Normal
StackLeniency: 0.7
Mode: 1
LetterboxInBreaks: 0
WidescreenStoryboard: 0

[Editor]
Bookmarks: 43792,121738
DistanceSpacing: 1
BeatDivisor: 4
GridSize: 4

[Metadata]
Title:The Sound of San Francisco
TitleUnicode:The Sound of San Francisco
Artist:Global Deejays
ArtistUnicode:Global Deejays
Creator:Sey
Version:MuzuZoda
Source:
Tags:Deif _Gezo_ Dance House
BeatmapID:258464
BeatmapSetID:96422

[Difficulty]
HPDrainRate:5
CircleSize:5
OverallDifficulty:5
ApproachRate:5
SliderMultiplier:1.4
SliderTickRate:1

[Events]
//Background and Video events
0,0,"Golden-Gate-Bridge-san-francisco.jpg",0,0
//Break Periods
//Storyboard Layer 0 (Background)
//Storyboard Layer 1 (Fail)
//Storyboard Layer 2 (Pass)
//Storyboard Layer 3 (Foreground)
//Storyboard Sound Samples
//Background Colour Transformations
3,100,163,162,255

[TimingPoints]
380,453.172205438066,4,1,1,50,1,0
51111,453.172205438066,4,1,1,50,1,0
65636,453.172205438066,4,1,1,50,1,0
81950,-100,4,1,1,50,0,1
95546,-100,4,1,1,50,0,0
96452,-100,4,1,1,50,0,1
110954,-100,4,1,1,50,0,0

[Colours]
Combo1 : 145,0,72
Combo2 : 6,174,255
Combo3 : 128,67,254
Combo4 : 255,255,255
Combo5 : 0,0,140

[HitObjects]
248,240,7630,1,0,0:0:0:0:
248,240,8083,1,8,0:0:0:0:
248,240,8310,1,8,0:0:0:0:
248,240,8537,1,0,0:0:0:0:
248,240,8990,1,8,0:0:0:0:
248,240,9216,1,8,0:0:0:0:
248,240,9443,1,0,0:0:0:0:
248,240,9896,1,8,0:0:0:0:
248,240,10123,1,8,0:0:0:0:
248,240,10349,1,0,0:0:0:0:
248,240,10576,1,8,0:0:0:0:
248,240,10802,1,8,0:0:0:0:
248,240,11256,1,0,0:0:0:0:
248,240,11709,1,8,0:0:0:0:
248,240,11935,1,8,0:0:0:0:
248,240,12162,1,0,0:0:0:0:
248,240,12615,1,8,0:0:0:0:
248,240,12842,1,8,0:0:0:0:
248,240,13068,1,0,0:0:0:0:
248,240,13521,1,8,0:0:0:0:
248,240,13748,1,8,0:0:0:0:
248,240,13975,1,0,0:0:0:0:
248,240,14088,1,0,0:0:0:0:
248,240,14201,1,0,0:0:0:0:
248,240,14428,1,8,0:0:0:0:
248,240,14881,1,0,0:0:0:0:
248,240,15334,1,8,0:0:0:0:
248,240,15561,1,8,0:0:0:0:
248,240,15787,1,0,0:0:0:0:
248,240,16241,1,8,0:0:0:0:
248,240,16467,1,8,0:0:0:0:
248,240,16694,1,0,0:0:0:0:
248,240,17147,1,8,0:0:0:0:
248,240,17600,1,0,0:0:0:0:
248,240,17713,1,0,0:0:0:0:
248,240,17827,1,0,0:0:0:0:
248,240,18053,1,8,0:0:0:0:
248,240,18280,1,8,0:0:0:0:
248,240,18506,1,0,0:0:0:0:
248,240,18960,1,8,0:0:0:0:
248,240,19186,1,8,0:0:0:0:
248,240,19413,1,0,0:0:0:0:
248,240,19866,1,8,0:0:0:0:
248,240,20319,1,0,0:0:0:0:
248,240,20772,1,8,0:0:0:0:
248,240,21225,1,0,0:0:0:0:
248,240,21679,1,8,0:0:0:0:
248,240,22132,1,0,0:0:0:0:
248,240,22585,1,8,0:0:0:0:
248,240,23265,1,0,0:0:0:0:
248,240,23491,1,8,0:0:0:0:
248,240,23944,1,0,0:0:0:0:
248,240,24398,1,8,0:0:0:0:
248,240,25077,1,0,0:0:0:0:
248,240,25304,1,8,0:0:0:0:
248,240,25757,1,0,0:0:0:0:
248,240,26210,1,8,0:0:0:0:
248,240,26890,1,0,0:0:0:0:
248,240,27117,1,8,0:0:0:0:
248,240,27570,1,0,0:0:0:0:
248,240,28023,1,8,0:0:0:0:
248,240,28703,1,0,0:0:0:0:
248,240,28929,1,8,0:0:0:0:
248,240,29156,1,0,0:0:0:0:
248,240,29269,1,0,0:0:0:0:
248,240,29383,1,0,0:0:0:0:
248,240,29836,1,8,0:0:0:0:
248,240,30515,1,0,0:0:0:0:
248,240,30742,1,8,0:0:0:0:
248,240,31195,1,0,0:0:0:0:
248,240,31648,1,8,0:0:0:0:
248,240,32328,1,0,0:0:0:0:
248,240,32555,1,8,0:0:0:0:
248,240,33008,1,0,0:0:0:0:
248,240,33461,1,8,0:0:0:0:
248,240,34141,1,0,0:0:0:0:
248,240,34367,1,8,0:0:0:0:
248,240,34821,1,0,0:0:0:0:
248,240,35274,1,0,0:0:0:0:
248,240,35727,1,8,0:0:0:0:
248,240,35954,1,8,0:0:0:0:
248,240,36180,1,0,0:0:0:0:
248,240,36633,1,0,0:0:0:0:
248,240,37086,1,8,0:0:0:0:
248,240,37540,1,0,0:0:0:0:
248,240,37766,1,0,0:0:0:0:
248,240,37993,1,8,0:0:0:0:
248,240,38446,1,0,0:0:0:0:
248,240,38899,1,8,0:0:0:0:
248,240,39352,1,0,0:0:0:0:
248,240,39466,1,0,0:0:0:0:
248,240,39579,1,0,0:0:0:0:
248,240,39805,1,8,0:0:0:0:
248,240,40032,1,8,0:0:0:0:
248,240,40259,1,0,0:0:0:0:
248,240,40712,1,8,0:0:0:0:
248,240,41165,1,0,0:0:0:0:
248,240,41392,1,0,0:0:0:0:
248,240,41618,1,8,0:0:0:0:
248,240,42071,1,0,0:0:0:0:
248,240,42525,1,8,0:0:0:0:
248,240,42978,1,0,0:0:0:0:
248,240,43091,1,0,0:0:0:0:
248,240,43204,1,0,0:0:0:0:
248,240,43431,1,8,0:0:0:0:
248,240,43657,1,8,0:0:0:0:
248,240,43884,1,0,0:0:0:0:
248,240,44337,1,8,0:0:0:0:
248,240,44790,1,0,0:0:0:0:
248,240,45017,1,0,0:0:0:0:
248,240,45244,1,8,0:0:0:0:
248,240,45697,1,0,0:0:0:0:
248,240,46150,1,8,0:0:0:0:
248,240,46603,1,0,0:0:0:0:
248,240,46716,1,0,0:0:0:0:
248,240,46830,1,0,0:0:0:0:
248,240,47056,1,8,0:0:0:0:
248,240,47283,1,8,0:0:0:0:
248,240,47509,1,0,0:0:0:0:
248,240,47963,1,8,0:0:0:0:
248,240,48416,1,0,0:0:0:0:
248,240,48642,1,0,0:0:0:0:
248,240,48869,1,8,0:0:0:0:
248,240,49322,1,8,0:0:0:0:
248,240,49775,1,8,0:0:0:0:
212,240,50228,1,8,0:0:0:0:
248,240,50455,1,0,0:0:0:0:
248,240,50908,1,8,0:0:0:0:
248,240,51111,1,0,0:0:0:0:
248,240,51564,1,8,0:0:0:0:
248,240,52244,1,0,0:0:0:0:
248,240,52470,1,8,0:0:0:0:
248,240,52923,1,0,0:0:0:0:
248,240,53377,1,8,0:0:0:0:
248,240,53603,1,0,0:0:0:0:
248,240,54056,1,0,0:0:0:0:
248,240,54283,1,8,0:0:0:0:
248,240,54736,1,0,0:0:0:0:
248,240,55189,1,8,0:0:0:0:
248,240,55869,1,0,0:0:0:0:
248,240,56096,1,8,0:0:0:0:
248,240,56549,1,0,0:0:0:0:
248,240,57002,1,8,0:0:0:0:
248,240,57229,1,0,0:0:0:0:
248,240,57682,1,0,0:0:0:0:
248,240,57908,1,8,0:0:0:0:
248,240,58135,1,8,0:0:0:0:
248,240,58362,1,0,0:0:0:0:
248,240,58815,1,8,0:0:0:0:
248,240,59494,1,0,0:0:0:0:
248,240,59721,1,8,0:0:0:0:
248,240,60174,1,0,0:0:0:0:
248,240,60627,1,8,0:0:0:0:
248,240,60854,1,0,0:0:0:0:
248,240,61307,1,0,0:0:0:0:
248,240,61534,1,8,0:0:0:0:
248,240,61987,1,0,0:0:0:0:
248,240,62440,1,8,0:0:0:0:
248,240,63120,1,0,0:0:0:0:
248,240,63346,1,8,0:0:0:0:
248,240,63800,1,0,0:0:0:0:
248,240,64253,1,8,0:0:0:0:
248,240,64479,1,0,0:0:0:0:
248,240,64933,1,0,0:0:0:0:
248,240,65159,1,8,0:0:0:0:
248,240,65636,1,0,0:0:0:0:
248,240,66089,1,8,0:0:0:0:
248,240,66543,1,0,0:0:0:0:
248,240,66769,1,0,0:0:0:0:
248,240,66996,1,8,0:0:0:0:
248,240,67449,1,0,0:0:0:0:
248,240,67902,1,8,0:0:0:0:
248,240,68129,1,0,0:0:0:0:
248,240,68582,1,0,0:0:0:0:
248,240,68809,1,8,0:0:0:0:
248,240,69035,1,8,0:0:0:0:
248,240,69262,1,0,0:0:0:0:
248,240,69715,1,8,0:0:0:0:
248,240,70168,1,0,0:0:0:0:
248,240,70395,1,0,0:0:0:0:
248,240,70621,1,8,0:0:0:0:
248,240,71074,1,0,0:0:0:0:
248,240,71528,1,8,0:0:0:0:
248,240,71754,1,0,0:0:0:0:
248,240,72207,1,0,0:0:0:0:
248,240,72434,1,8,0:0:0:0:
248,240,72660,1,0,0:0:0:0:
248,240,72887,1,0,0:0:0:0:
248,240,73340,1,8,0:0:0:0:
248,240,73793,1,0,0:0:0:0:
248,240,74020,1,0,0:0:0:0:
248,240,74247,1,8,0:0:0:0:
248,240,74700,1,0,0:0:0:0:
248,240,75153,1,8,0:0:0:0:
248,240,75606,1,0,0:0:0:0:
248,240,75833,1,0,0:0:0:0:
248,240,76059,1,8,0:0:0:0:
248,240,76512,1,0,0:0:0:0:
248,240,76966,1,8,0:0:0:0:
248,240,77192,1,0,0:0:0:0:
248,240,77645,1,0,0:0:0:0:
248,240,77872,1,8,0:0:0:0:
248,240,78325,1,0,0:0:0:0:
248,240,78778,1,8,0:0:0:0:
248,240,79005,1,0,0:0:0:0:
248,240,79458,1,0,0:0:0:0:
248,240,79685,1,8,0:0:0:0:
248,240,80138,1,0,0:0:0:0:
248,240,81044,1,0,0:0:0:0:
248,240,81497,1,0,0:0:0:0:
248,240,81950,1,0,0:0:0:0:
248,240,82177,1,8,0:0:0:0:
248,240,82404,1,0,0:0:0:0:
248,240,82857,1,0,0:0:0:0:
248,240,83083,1,8,0:0:0:0:
248,240,83310,1,0,0:0:0:0:
248,240,83763,1,8,0:0:0:0:
248,240,83876,1,8,0:0:0:0:
248,240,83990,1,8,0:0:0:0:
248,240,84216,1,0,0:0:0:0:
248,240,84670,1,8,0:0:0:0:
248,240,85123,1,0,0:0:0:0:
248,240,85349,1,0,0:0:0:0:
248,240,85576,1,8,0:0:0:0:
248,240,85802,1,0,0:0:0:0:
248,240,86255,1,0,0:0:0:0:
248,240,86482,1,8,0:0:0:0:
248,240,86709,1,0,0:0:0:0:
248,240,87162,1,0,0:0:0:0:
248,240,87389,1,8,0:0:0:0:
248,240,87502,1,8,0:0:0:0:
248,240,87615,1,8,0:0:0:0:
248,240,87842,1,0,0:0:0:0:
248,240,88295,1,0,0:0:0:0:
248,240,88748,1,8,0:0:0:0:
248,240,89201,1,0,0:0:0:0:
248,240,89428,1,0,0:0:0:0:
248,240,89654,1,8,0:0:0:0:
248,240,90108,1,0,0:0:0:0:
248,240,90561,1,8,0:0:0:0:
248,240,90787,1,0,0:0:0:0:
248,240,91014,1,0,0:0:0:0:
248,240,91241,1,0,0:0:0:0:
248,240,91467,1,8,0:0:0:0:
248,240,91920,1,0,0:0:0:0:
248,240,92373,1,8,0:0:0:0:
248,240,92600,1,0,0:0:0:0:
248,240,92827,1,0,0:0:0:0:
248,240,93052,1,8,0:0:0:0:
248,240,93280,1,0,0:0:0:0:
248,240,93733,1,0,0:0:0:0:
248,240,93960,1,8,0:0:0:0:
248,240,94186,1,0,0:0:0:0:
248,240,94639,1,0,0:0:0:0:
248,240,94866,1,0,0:0:0:0:
248,240,95092,1,8,0:0:0:0:
248,240,95546,1,0,0:0:0:0:
248,240,95772,1,0,0:0:0:0:
248,240,95999,1,8,0:0:0:0:
248,240,96225,1,8,0:0:0:0:
248,240,96452,1,0,0:0:0:0:
248,240,96905,1,8,0:0:0:0:
248,240,97585,1,0,0:0:0:0:
248,240,97812,1,8,0:0:0:0:
248,240,98038,1,0,0:0:0:0:
248,240,98265,1,0,0:0:0:0:
248,240,98491,1,0,0:0:0:0:
248,240,98718,1,8,0:0:0:0:
248,240,99171,1,0,0:0:0:0:
248,240,99398,1,8,0:0:0:0:
248,240,99623,1,0,0:0:0:0:
248,240,99738,1,0,0:0:0:0:
248,240,99851,1,0,0:0:0:0:
248,240,100077,1,0,0:0:0:0:
248,240,100531,1,8,0:0:0:0:
248,240,100984,1,0,0:0:0:0:
248,240,101210,1,0,0:0:0:0:
248,240,101437,1,8,0:0:0:0:
248,240,101663,1,0,0:0:0:0:
248,240,101890,1,0,0:0:0:0:
248,240,102003,1,0,0:0:0:0:
248,240,102117,1,0,0:0:0:0:
248,240,102343,1,8,0:0:0:0:
248,240,102796,1,0,0:0:0:0:
248,240,103250,1,8,0:0:0:0:
248,240,103476,1,8,0:0:0:0:
248,240,103703,1,0,0:0:0:0:
248,240,104156,1,8,0:0:0:0:
248,240,104609,1,0,0:0:0:0:
248,240,105062,1,8,0:0:0:0:
248,240,105289,1,0,0:0:0:0:
248,240,105515,1,0,0:0:0:0:
248,240,105742,1,0,0:0:0:0:
248,240,105969,1,8,0:0:0:0:
248,240,106195,1,0,0:0:0:0:
248,240,106422,1,0,0:0:0:0:
248,240,106535,1,0,0:0:0:0:
248,240,106648,1,0,0:0:0:0:
248,240,106875,1,8,0:0:0:0:
248,240,107328,1,0,0:0:0:0:
248,240,107781,1,8,0:0:0:0:
248,240,108234,1,0,0:0:0:0:
248,240,108688,1,8,0:0:0:0:
248,240,108914,1,8,0:0:0:0:
248,240,109141,1,0,0:0:0:0:
248,240,109367,1,8,0:0:0:0:
248,240,109594,1,0,0:0:0:0:
248,240,110047,1,0,0:0:0:0:
248,240,110274,1,0,0:0:0:0:
248,240,110500,1,8,0:0:0:0:
248,240,110954,1,0,0:0:0:0:
