osu file format v12

[General]
AudioFilename: Global Deejays - The Sound of San Francisco.mp3
AudioLeadIn: 0
PreviewTime: 51043
Countdown: 0
SampleSet: Soft
StackLeniency: 0.7
Mode: 0
LetterboxInBreaks: 0
WidescreenStoryboard: 0

[Editor]
DistanceSpacing: 1.1
BeatDivisor: 4
GridSize: 4

[Metadata]
Title:The Sound of San Francisco
TitleUnicode:The Sound of San Francisco
Artist:Global Deejays
ArtistUnicode:Global Deejays
Creator:Sey
Version:Boston
Source:
Tags:Deif _Gezo_ Dance House
BeatmapID:258463
BeatmapSetID:96422

[Difficulty]
HPDrainRate:4
CircleSize:3
OverallDifficulty:4
ApproachRate:5
SliderMultiplier:1.5
SliderTickRate:1

[Events]
//Background and Video events
0,0,"bostonwallpaper.jpg",0,0
//Break Periods
2,51311,64436
//Storyboard Layer 0 (Background)
//Storyboard Layer 1 (Fail)
//Storyboard Layer 2 (Pass)
//Storyboard Layer 3 (Foreground)
//Storyboard Sound Samples
//Background Colour Transformations
3,100,163,162,255

[TimingPoints]
380,453.172205438066,4,2,1,70,1,0
51111,453.172205438066,4,2,1,70,1,0
65636,453.172205438066,4,2,1,70,1,0
81950,-100,4,2,1,80,0,1
95546,-100,4,2,1,70,0,0
96452,-100,4,2,1,80,0,1
110954,-100,4,2,1,30,0,0

[Colours]
Combo1 : 0,0,128
Combo2 : 6,174,255
Combo3 : 255,255,255

[HitObjects]
48,256,7630,2,0,B|76:256|76:256|108:272|196:272,1,150,0|8,0:0|0:0,0:0:0:0:
248,208,8310,1,0,0:0:0:0:
296,136,8537,2,0,B|384:136|416:120|416:120|464:120,2,150,0|8|0,0:0|0:0|0:0,0:0:0:0:
136,160,9896,1,8,0:0:0:0:
64,192,10123,2,0,B|40:216|48:264,1,75
112,312,10576,2,0,P|133:276|133:244,1,75,0|8,0:0|0:0,0:0:0:0:
272,328,11256,6,0,P|336:320|408:272,1,150,0|8,0:0|0:0,0:0:0:0:
360,112,12162,2,0,P|320:160|224:144,1,150,0|8,0:0|0:0,0:0:0:0:
88,96,13068,2,0,P|163:49|211:73,1,150,0|8,0:0|0:0,0:0:0:0:
232,152,13748,2,0,P|280:136|296:88,2,75
248,232,14428,2,0,P|248:272|200:312,1,75,8|0,0:0|0:0,0:0:0:0:
168,248,14881,6,0,P|97:230|26:168,1,150,0|8,0:0|0:0,0:0:0:0:
184,104,15787,2,0,P|248:88|344:104,1,150,0|8,0:0|0:0,0:0:0:0:
424,232,16694,2,0,P|350:275|261:283,1,150,0|8,0:0|0:0,0:0:0:0:
168,184,17600,1,0,0:0:0:0:
168,184,17827,1,0,0:0:0:0:
168,184,18053,2,0,P|128:152|96:144,1,75,8|0,0:0|0:0,0:0:0:0:
64,216,18506,6,0,P|99:278|187:304,1,150,0|8,0:0|0:0,0:0:0:0:
336,328,19413,2,0,P|402:328|464:272,1,150,0|8,0:0|0:0,0:0:0:0:
416,120,20319,1,0,0:0:0:0:
416,120,20772,1,4,0:0:0:0:
264,56,21225,6,0,B|216:64|192:104,1,75,8|0,0:0|0:0,0:0:0:0:
272,136,21679,2,0,P|256:176|216:208,1,75,8|0,0:0|0:0,0:0:0:0:
152,168,22132,5,0,0:0:0:0:
72,312,22585,1,8,0:0:0:0:
48,152,23038,2,0,P|110:72|183:74,1,150,0|8,0:0|0:0,0:0:0:0:
184,232,23944,2,0,P|272:272|328:280,1,150,0|8,0:0|0:0,0:0:0:0:
424,144,24851,2,0,P|408:104|408:40,2,75,0|0|8,0:0|0:0|0:0,0:0:0:0:
304,256,25757,6,0,B|240:200|224:104|224:104,1,150,0|8,0:0|0:0,0:0:0:0:
66,143,26663,2,0,B|82:239|146:295,1,150,0|8,0:0|0:0,0:0:0:0:
290,285,27570,2,0,P|279:212|287:137,1,150,0|8,0:0|0:0,0:0:0:0:
160,160,28476,2,0,P|152:200|160:256,2,75,0|0|8,0:0|0:0|0:0,0:0:0:0:
192,80,29156,1,0,0:0:0:0:
112,80,29383,6,0,P|48:128|64:208,1,150,0|8,0:0|0:0,0:0:0:0:
216,200,30289,2,0,P|256:312|232:344,1,150,0|8,0:0|0:0,0:0:0:0:
376,232,31195,2,0,P|360:152|384:88,1,150,0|8,0:0|0:0,0:0:0:0:
280,224,32102,2,0,B|272:272|248:296,1,75
176,256,32555,2,0,B|128:256|96:208,1,75,8|0,0:0|0:0,0:0:0:0:
176,176,33008,6,0,B|264:120|280:48,1,150,0|8,0:0|0:0,0:0:0:0:
384,192,33915,2,0,P|368:264|400:352,1,150,0|8,0:0|0:0,0:0:0:0:
256,192,34821,12,0,36633,0:0:0:0:
104,192,37086,5,8,0:0:0:0:
232,88,37540,2,0,P|312:56|384:104,1,150,0|8,0:0|0:0,0:0:0:0:
416,240,38446,2,0,P|354:320|281:318,1,150,0|8,0:0|0:0,0:0:0:0:
160,264,39352,2,0,P|112:288|64:288,2,75,0|0|8,0:0|0:0|0:0,0:0:0:0:
232,224,40032,1,0,0:0:0:0:
288,160,40259,6,0,P|248:96|176:96,1,150,0|8,0:0|0:0,0:0:0:0:
49,195,41165,2,0,B|63:272|133:345,1,150,0|8,0:0|0:0,0:0:0:0:
280,264,42071,2,0,B|286:289|270:193|206:137,1,150,0|8,0:0|0:0,0:0:0:0:
376,160,42978,2,0,P|384:120|376:64,2,75,0|0|8,0:0|0:0|0:0,0:0:0:0:
360,240,43657,1,0,0:0:0:0:
280,256,43884,6,0,P|328:320|408:312,1,150,0|8,0:0|0:0,0:0:0:0:
440,160,44791,2,0,P|464:88|424:24,1,150,0|8,0:0|0:0,0:0:0:0:
312,144,45697,2,0,P|272:32|281:15,1,150,0|8,0:0|0:0,0:0:0:0:
400,128,46603,2,0,P|432:152|480:152,1,75
464,240,47056,2,0,P|416:248|400:280,1,75,8|0,0:0|0:0,0:0:0:0:
320,256,47509,6,0,P|272:224|264:136,1,150,0|8,0:0|0:0,0:0:0:0:
400,48,48416,2,0,P|456:96|456:168,1,150,0|8,0:0|0:0,0:0:0:0:
256,192,49322,12,0,51111,0:0:0:0:
464,60,65636,6,0,P|407:82|336:170,1,150,0|8,0:0|0:0,0:0:0:0:
224,256,66543,2,0,P|140:282|61:256,1,150,0|8,0:0|0:0,0:0:0:0:
176,128,67449,2,0,P|108:49|51:27,1,150,0|8,0:0|0:0,0:0:0:0:
72,200,68355,2,0,P|48:256|128:304,1,150,0|8,0:0|0:0,0:0:0:0:
272,288,69262,6,0,P|352:296|440:264,1,150,0|8,0:0|0:0,0:0:0:0:
320,144,70168,2,0,P|273:164|175:164,1,150,0|8,0:0|0:0,0:0:0:0:
272,32,71074,2,0,P|354:35|414:64,1,150,0|8,0:0|0:0,0:0:0:0:
464,224,71981,1,0,0:0:0:0:
464,224,72434,1,8,0:0:0:0:
400,72,72887,6,0,P|320:96|272:168,1,150,0|8,0:0|0:0,0:0:0:0:
280,312,73793,2,0,P|208:328|112:296,1,150,0|8,0:0|0:0,0:0:0:0:
248,192,74700,2,0,P|208:128|136:96,1,150,0|8,0:0|0:0,0:0:0:0:
48,232,75606,1,0,0:0:0:0:
48,232,76059,1,8,0:0:0:0:
142,96,76512,6,0,P|208:128|248:192,1,150,0|8,0:0|0:0,0:0:0:0:
176,344,77419,2,0,P|112:320|58:257,1,150,0|8,0:0|0:0,0:0:0:0:
256,192,78325,12,0,81044,0:0:0:0:
40,160,81950,5,0,0:0:0:0:
40,160,82177,2,0,P|112:136|192:168,1,150
256,192,82857,1,0,0:0:0:0:
376,80,83310,2,0,L|472:80,1,75,8|0,0:0|0:0,0:0:0:0:
448,160,83763,2,0,L|368:160,2,75,0|0|8,0:0|0:0|0:0,0:0:0:0:
328,272,84670,5,0,0:0:0:0:
176,336,85122,1,8,0:0:0:0:
184,168,85575,1,0,0:0:0:0:
240,108,85802,2,0,L|293:54,2,75,0|8|0,0:0|0:0|0:0,0:0:0:0:
160,88,86482,2,0,L|106:34,2,75,0|0|8,0:0|0:0|0:0,0:0:0:0:
184,168,87162,2,0,L|130:221,2,75,0|0|0,0:0|0:0|0:0,0:0:0:0:
240,104,87842,1,8,0:0:0:0:
312,252,88295,6,0,B|344:96,2,150,0|8|0,0:0|0:0|0:0,0:0:0:0:
424,132,89655,2,0,B|392:288,1,150,8|0,0:0|0:0,0:0:0:0:
228,284,90561,2,0,L|156:324,1,75,8|0,0:0|0:0,0:0:0:0:
144,240,91014,2,0,L|78:203,1,75,0|0,0:0|0:0,0:0:0:0:
84,120,91467,1,8,0:0:0:0:
240,72,91919,6,0,B|336:76|376:128,1,150,0|8,0:0|0:0,0:0:0:0:
216,168,92827,2,0,P|236:240|300:300,1,150,0|8,0:0|0:0,0:0:0:0:
424,204,93733,2,0,P|372:148|348:72,2,150,0|8|0,0:0|0:0|0:0,0:0:0:0:
292,304,95092,1,8,0:0:0:0:
216,72,95772,6,0,B|188:51|188:51|156:75,1,75,0|0,0:0|0:0,0:0:0:0:
160,240,96451,6,0,B|104:184|104:184|72:112,1,150,0|8,0:0|0:0,0:0:0:0:
240,96,97358,1,0,0:0:0:0:
320,240,97812,2,0,B|376:184|376:184|408:112,2,150,8|0|8,0:0|0:0|0:0,0:0:0:0:
168,296,99170,5,0,0:0:0:0:
168,296,99623,1,8,0:0:0:0:
104,144,100078,2,0,B|152:88|240:88,1,150,0|8,0:0|0:0,0:0:0:0:
400,96,100984,2,0,L|488:96,2,75,0|0|8,0:0|0:0|0:0,0:0:0:0:
320,96,101664,2,0,L|240:96,2,75
360,168,102342,1,8,0:0:0:0:
224,264,102797,6,0,B|280:320|360:320,2,150,0|8|0,0:0|0:0|0:0,0:0:0:0:
72,192,104156,1,8,0:0:0:0:
32,120,104383,2,0,L|96:64,1,75
256,72,105062,2,0,L|320:136,1,75,8|0,0:0|0:0,0:0:0:0:
376,80,105515,2,0,L|440:136,1,75
368,184,105968,1,8,0:0:0:0:
224,264,106421,6,0,B|176:320|88:320,1,150,0|8,0:0|0:0,0:0:0:0:
184,184,107327,2,0,P|128:120|128:48,1,150,0|8,0:0|0:0,0:0:0:0:
288,72,108234,2,0,P|344:128|344:200,1,150,0|8,0:0|0:0,0:0:0:0:
392,352,109141,2,0,P|448:296|448:224,1,150,0|8,0:0|0:0,0:0:0:0:
288,256,110047,2,0,P|232:240|160:184,1,150,0|8,0:0|0:0,0:0:0:0:
256,192,110954,12,2,112842,0:0:0:0:
