osu file format v13

[General]
AudioFilename: Pokmon Smaragd Battle Frontier Brain Remix.mp3
AudioLeadIn: 1000
PreviewTime: 108483
Countdown: 0
SampleSet: Soft
StackLeniency: 0.7
Mode: 0
LetterboxInBreaks: 1
WidescreenStoryboard: 0

[Editor]
DistanceSpacing: 1.2
BeatDivisor: 4
GridSize: 4
TimelineZoom: 1.3

[Metadata]
Title:Pokemon Emerald Battle Frontier Brain Remix
TitleUnicode:Pokemon Emerald Battle Frontier Brain Remix
Artist:GlitchxCity
ArtistUnicode:GlitchxCity
Creator:TaikuGx
Version:Insane
Source:Pokemon Emerald
Tags:Rayquaza Hoenn Game Freak Nintendo
BeatmapID:477214
BeatmapSetID:201569

[Difficulty]
HPDrainRate:7
CircleSize:4
OverallDifficulty:7
ApproachRate:9
SliderMultiplier:1.7
SliderTickRate:1

[Events]
//Background and Video events
0,0,"rayquaza.jpg",0,0
//Break Periods
2,58473,67778
//Storyboard Layer 0 (Background)
//Storyboard Layer 1 (Fail)
//Storyboard Layer 2 (Pass)
//Storyboard Layer 3 (Foreground)
//Storyboard Sound Samples
//Background Colour Transformations
3,100,163,162,255

[TimingPoints]
168,315.789473684211,4,2,0,50,1,0
5220,-100,4,2,0,70,0,0
10273,-100,4,2,0,75,0,0
12799,-100,4,2,0,80,0,0
108799,-100,4,2,0,100,0,1
126483,-100,4,2,0,100,0,0

[Colours]
Combo1 : 255,255,0
Combo2 : 0,128,0
Combo3 : 204,0,0
Combo4 : 0,0,0

[HitObjects]
184,184,168,6,0,L|240:280,1,85
432,232,641,1,0,0:0:0:0:
400,136,799,1,0,0:0:0:0:
176,64,1273,1,0,0:0:0:0:
176,160,1431,6,0,B|176:216|144:240|208:240|176:264|176:328,1,160
88,280,1904,1,0,0:0:0:0:
64,184,2062,2,0,L|24:144,2,40,0|0|0,0:0|0:0|0:0,0:0:0:0:
120,104,2378,2,0,L|160:64,2,40,0|0|0,0:0|0:0|0:0,0:0:0:0:
184,176,2694,6,0,P|208:296|320:360,1,255,0|0,0:0|0:0,0:0:0:0:
440,216,3483,1,0,0:0:0:0:
352,48,3799,1,0,0:0:0:0:
264,80,3957,6,0,L|192:48,2,42.5,0|0|0,0:0|0:0|0:0,0:0:0:0:
328,152,4273,2,0,L|392:184,2,42.5,0|0|0,0:0|0:0|0:0,0:0:0:0:
248,200,4589,2,0,L|192:176,2,42.5,0|0|0,0:0|0:0|0:0,0:0:0:0:
304,280,4904,1,0,0:0:0:0:
288,296,4983,1,0,0:0:0:0:
264,304,5062,1,0,0:0:0:0:
240,304,5141,1,0,0:0:0:0:
216,296,5220,6,0,P|168:264|152:224,1,85,8|0,0:0|0:0,0:0:0:0:
104,168,5536,2,0,P|85:128|96:80,1,85
184,120,5852,2,0,P|208:168|192:224,1,85,8|0,0:0|0:0,0:0:0:0:
120,256,6168,1,0,0:0:0:0:
176,344,6325,1,0,0:0:0:0:
280,344,6483,2,0,P|352:344|408:288,2,127.5,8|0|0,0:0|0:0|0:0,0:0:0:0:
312,248,7115,5,8,0:0:0:0:
312,248,7194,1,0,0:0:0:0:
312,248,7273,1,0,0:0:0:0:
368,160,7431,2,0,L|408:144,2,42.5,0|0|0,0:0|0:0|0:0,0:0:0:0:
288,96,7746,2,0,P|176:48|48:88,1,255,8|0,0:0|0:0,0:0:0:0:
127,160,8378,6,0,P|135:200|164:236,1,85,8|0,0:0|0:0,0:0:0:0:
185,257,8615,1,0,0:0:0:0:
224,280,8694,2,0,P|280:296|328:272,1,85
371,229,9010,5,8,0:0:0:0:
384,207,9089,1,0,0:0:0:0:
391,181,9168,2,0,P|431:160|477:158,2,85,0|0|0,0:0|0:0|0:0,0:0:0:0:
365,84,9641,1,8,0:0:0:0:
271,42,9799,1,0,0:0:0:0:
171,62,9957,1,0,0:0:0:0:
151,78,10036,1,0,0:0:0:0:
133,96,10115,1,0,0:0:0:0:
120,118,10194,1,0,0:0:0:0:
110,141,10273,6,0,L|89:239,1,85,4|0,0:0|0:0,0:0:0:0:
210,274,10589,2,0,L|192:362,1,85
374,244,10904,2,0,L|391:141,1,85,4|0,0:0|0:0,0:0:0:0:
202,62,11220,2,0,P|255:85|278:140,1,85
222,285,11536,6,0,P|183:269|158:236,1,85,4|0,0:0|0:0,0:0:0:0:
377,124,11852,2,0,B|389:168|389:168|340:218,1,85
222,32,12168,2,0,B|193:55|193:55|200:102,1,85,4|0,0:0|0:0,0:0:0:0:
259,290,12483,2,0,B|278:250|278:250|317:229,1,85
106,130,12799,5,4,0:0:0:0:
165,190,12957,1,0,0:0:0:0:
226,248,13115,2,0,L|288:310,1,85,4|0,0:0|0:0,0:0:0:0:
368,286,13431,1,4,0:0:0:0:
308,225,13589,1,0,0:0:0:0:
249,164,13746,2,0,L|186:101,1,85,4|0,0:0|0:0,0:0:0:0:
400,96,14062,5,4,0:0:0:0:
380,77,14141,1,0,0:0:0:0:
360,63,14220,1,0,0:0:0:0:
336,49,14299,1,0,0:0:0:0:
313,40,14378,1,0,0:0:0:0:
289,34,14457,1,0,0:0:0:0:
264,31,14536,1,0,0:0:0:0:
237,33,14615,1,0,0:0:0:0:
212,38,14694,1,4,0:0:0:0:
186,44,14773,1,0,0:0:0:0:
163,55,14852,1,0,0:0:0:0:
141,69,14931,1,0,0:0:0:0:
120,88,15010,2,0,P|88:123|80:163,1,85
256,192,15325,12,4,17536,0:0:0:0:
312,56,17852,6,0,L|392:96,1,85,6|0,0:0|0:0,0:0:0:0:
312,163,18168,2,0,L|397:209,1,85
312,273,18483,2,0,L|392:313,1,85,2|0,0:0|0:0,0:0:0:0:
222,336,18799,6,0,L|140:296,1,85
222,230,19115,2,0,L|140:190,1,85,2|0,0:0|0:0,0:0:0:0:
222,124,19431,2,0,L|140:84,1,85
239,42,19746,5,2,0:0:0:0:
239,42,19825,1,0,0:0:0:0:
239,42,19904,1,0,0:0:0:0:
327,93,20062,2,0,L|380:59,2,42.5,0|0|0,0:0|0:0|0:0,0:0:0:0:
343,194,20378,1,2,0:0:0:0:
343,194,20457,1,0,0:0:0:0:
343,194,20536,1,0,0:0:0:0:
294,283,20694,6,0,B|263:317|263:317|210:320,1,85
112,183,21010,2,0,B|147:147|147:147|202:146,1,85,2|0,0:0|0:0,0:0:0:0:
219,241,21325,1,0,0:0:0:0:
294,311,21483,1,0,0:0:0:0:
392,348,21641,5,2,0:0:0:0:
374,236,21799,1,2,0:0:0:0:
392,348,21957,2,0,P|455:310|463:276,1,85,2|0,0:0|0:0,0:0:0:0:
441,190,22273,2,0,P|401:204|374:236,1,85,2|0,0:0|0:0,0:0:0:0:
386,129,22589,1,0,0:0:0:0:
369,109,22668,1,0,0:0:0:0:
350,91,22746,1,0,0:0:0:0:
328,76,22825,1,0,0:0:0:0:
304,66,22904,6,0,P|216:46|124:69,1,170,6|0,0:0|0:0,0:0:0:0:
163,164,23378,1,2,0:0:0:0:
113,261,23536,2,0,P|183:323|290:332,1,170,2|0,0:0|0:0,0:0:0:0:
314,246,24010,1,2,0:0:0:0:
424,192,24168,2,0,B|424:144|424:144|440:128|440:128|408:128|408:128|424:108|424:108|424:32,1,170,2|0,0:0|0:0,0:0:0:0:
308,60,24641,1,0,0:0:0:0:
196,76,24799,6,0,L|156:52,1,42.5,2|0,0:0|0:0,0:0:0:0:
127,118,24957,2,0,L|164:140,1,42.5,2|0,0:0|0:0,0:0:0:0:
132,204,25115,2,0,L|84:172,1,42.5,2|0,0:0|0:0,0:0:0:0:
64,244,25273,2,0,L|100:268,1,42.5,2|0,0:0|0:0,0:0:0:0:
68,332,25431,6,4,B|116:380|180:332|244:284|308:356,1,255,6|4,0:0|0:0,0:0:0:0:
456,216,26220,1,4,0:0:0:0:
304,80,26536,1,4,0:0:0:0:
210,44,26694,6,0,B|235:127|171:127|217:243,2,170,4|0|0,0:0|0:0|0:0,0:0:0:0:
115,80,27483,1,0,0:0:0:0:
56,168,27641,1,0,0:0:0:0:
56,192,27720,1,0,0:0:0:0:
56,216,27799,1,0,0:0:0:0:
56,240,27878,1,0,0:0:0:0:
56,264,27957,6,0,B|56:328|88:360|168:360,1,170,6|0,0:0|0:0,0:0:0:0:
264,328,28431,1,2,0:0:0:0:
352,272,28589,2,0,B|408:208|408:208|344:136,1,170,2|0,0:0|0:0,0:0:0:0:
272,208,29062,1,2,0:0:0:0:
192,272,29220,2,0,B|136:208|136:208|200:136,1,170,2|0,0:0|0:0,0:0:0:0:
272,72,29694,1,2,0:0:0:0:
400,48,29852,6,0,L|456:72,1,42.5,2|0,0:0|0:0,0:0:0:0:
407,128,30010,2,0,L|368:112,1,42.5,2|0,0:0|0:0,0:0:0:0:
336,176,30168,2,0,L|392:200,1,42.5,2|0,0:0|0:0,0:0:0:0:
343,256,30325,2,0,L|304:240,1,42.5,2|0,0:0|0:0,0:0:0:0:
272,304,30483,6,0,P|168:336|136:216,1,255,6|4,0:0|0:0,0:0:0:0:
273,72,31273,1,4,0:0:0:0:
432,208,31589,1,4,0:0:0:0:
320,256,31746,6,0,B|272:272|256:376|240:272|192:256,2,170,4|0|0,0:0|0:0|0:0,0:0:0:0:
304,152,32536,1,0,0:0:0:0:
232,80,32694,1,0,0:0:0:0:
208,72,32773,1,0,0:0:0:0:
182,68,32852,1,0,0:0:0:0:
156,69,32931,1,0,0:0:0:0:
130,73,33010,6,0,P|56:110|30:197,1,170,6|0,0:0|0:0,0:0:0:0:
130,180,33483,1,2,0:0:0:0:
122,281,33641,2,0,P|206:251|229:173,1,170,2|0,0:0|0:0,0:0:0:0:
332,189,34115,1,2,0:0:0:0:
311,92,34273,2,0,B|244:133|203:47|123:106,1,170,2|0,0:0|0:0,0:0:0:0:
106,168,34746,5,2,0:0:0:0:
165,318,34904,1,2,0:0:0:0:
236,163,35062,1,2,0:0:0:0:
295,322,35220,1,2,0:0:0:0:
360,164,35378,1,2,0:0:0:0:
415,324,35536,6,0,P|465:226|463:80,1,255,6|4,0:0|0:0,0:0:0:0:
272,157,36325,1,4,0:0:0:0:
95,56,36641,1,4,0:0:0:0:
57,150,36799,5,0,0:0:0:0:
95,56,36957,1,0,0:0:0:0:
57,150,37115,2,0,P|116:157|160:132,1,85
228,99,37431,2,0,P|238:149|227:189,1,85
135,232,37746,1,0,0:0:0:0:
154,248,37825,1,0,0:0:0:0:
176,258,37904,1,0,0:0:0:0:
200,266,37983,1,0,0:0:0:0:
225,270,38062,6,0,L|334:271,1,85
440,270,38378,1,4,0:0:0:0:
200,104,38694,6,0,L|296:104,1,85
416,104,39010,1,4,0:0:0:0:
96,256,39325,6,0,L|184:256,1,85,0|0,0:0|0:0,0:0:0:0:
320,256,39641,1,4,0:0:0:0:
160,72,39957,6,0,L|256:72,1,85
376,72,40273,1,4,0:0:0:0:
222,277,40589,6,0,L|222:192,1,85,4|0,0:0|0:0,0:0:0:0:
290,191,40904,2,0,L|290:276,1,85,4|0,0:0|0:0,0:0:0:0:
155,276,41220,2,0,L|155:191,1,85,4|0,0:0|0:0,0:0:0:0:
358,192,41536,2,0,L|358:277,1,85,4|0,0:0|0:0,0:0:0:0:
272,336,41852,5,4,0:0:0:0:
238,341,41931,1,0,0:0:0:0:
204,339,42010,1,0,0:0:0:0:
172,326,42089,1,0,0:0:0:0:
143,307,42168,1,0,0:0:0:0:
120,281,42246,1,0,0:0:0:0:
107,249,42325,1,0,0:0:0:0:
101,215,42404,1,0,0:0:0:0:
101,180,42483,1,4,0:0:0:0:
107,146,42562,1,0,0:0:0:0:
127,118,42641,1,0,0:0:0:0:
149,92,42720,1,0,0:0:0:0:
179,77,42799,2,0,P|226:62|264:70,1,85
256,192,43115,5,6,0:0:0:0:
256,192,43273,2,0,P|247:237|256:304,2,85,0|0|0,0:0|0:0|0:0,0:0:0:0:
312,104,43746,2,0,P|359:96|416:104,1,85,2|0,0:0|0:0,0:0:0:0:
448,192,44062,2,0,P|460:241|444:302,1,85,0|2,0:0|0:0,0:0:0:0:
432,304,44299,1,2,0:0:0:0:
408,328,44378,6,0,P|362:340|288:328,1,85,2|0,0:0|0:0,0:0:0:0:
222,329,44694,1,0,0:0:0:0:
128,264,44852,1,0,0:0:0:0:
72,168,45010,2,0,P|112:80|216:56,1,170,2|0,0:0|0:0,0:0:0:0:
240,128,45483,1,2,0:0:0:0:
240,128,45562,1,2,0:0:0:0:
240,128,45641,6,0,L|312:176,1,85,2|0,0:0|0:0,0:0:0:0:
216,288,45957,2,0,L|136:232,1,85
160,88,46273,2,0,L|88:168,1,85,2|0,0:0|0:0,0:0:0:0:
304,296,46589,2,0,L|360:216,1,85
413,144,46904,5,2,0:0:0:0:
328,80,47062,1,0,0:0:0:0:
304,64,47141,1,0,0:0:0:0:
280,56,47220,1,0,0:0:0:0:
254,52,47299,1,0,0:0:0:0:
228,51,47378,1,0,0:0:0:0:
140,103,47536,2,0,L|43:168,1,85,2|0,0:0|0:0,0:0:0:0:
230,213,47852,2,0,L|303:159,1,85,2|0,0:0|0:0,0:0:0:0:
349,250,48168,5,6,0:0:0:0:
469,274,48325,2,0,P|459:316|426:341,2,85,0|0|0,0:0|0:0|0:0,0:0:0:0:
468,173,48799,2,0,P|450:129|393:106,1,85,2|0,0:0|0:0,0:0:0:0:
320,110,49115,2,0,P|282:137|272:191,1,85
276,274,49431,2,0,P|304:323|346:336,1,85,2|0,0:0|0:0,0:0:0:0:
379,223,49746,1,0,0:0:0:0:
379,223,49904,1,0,0:0:0:0:
469,223,50062,2,0,L|261:224,1,170,2|0,0:0|0:0,0:0:0:0:
256,64,50694,5,4,0:0:0:0:
104,328,51168,1,4,0:0:0:0:
408,328,51641,1,4,0:0:0:0:
256,192,52115,1,4,0:0:0:0:
128,80,52589,6,0,L|128:32,1,42.5,2|0,0:0|0:0,0:0:0:0:
200,85,52746,2,0,L|200:128,1,42.5,2|0,0:0|0:0,0:0:0:0:
272,176,52904,2,0,L|272:128,1,42.5,2|0,0:0|0:0,0:0:0:0:
344,181,53062,2,0,L|344:224,1,42.5,2|0,0:0|0:0,0:0:0:0:
416,264,53220,5,6,0:0:0:0:
256,32,53536,2,4,L|256:120,1,85,4|4,0:0|0:0,0:0:0:0:
88,320,54010,2,4,L|152:264,1,85
432,320,54483,2,4,L|368:256,1,85
264,304,54957,1,0,0:0:0:0:
128,248,55115,6,2,L|128:200,1,42.5
200,173,55273,2,2,L|200:216,1,42.5
272,184,55431,2,2,L|272:136,1,42.5
344,109,55589,2,2,L|344:152,1,42.5
416,120,55746,5,6,0:0:0:0:
215,49,56062,2,0,B|152:64|152:64|144:120|144:120|73:138,1,170,0|0,0:0|0:0,0:0:0:0:
88,234,56536,2,0,P|107:294|152:321,2,85,2|2|2,0:0|0:0|0:0,0:0:0:0:
190,234,57010,5,2,0:0:0:0:
214,227,57089,1,0,0:0:0:0:
236,215,57168,1,2,0:0:0:0:
257,201,57246,1,0,0:0:0:0:
275,183,57325,1,2,0:0:0:0:
290,163,57404,1,0,0:0:0:0:
302,140,57483,1,2,0:0:0:0:
310,115,57562,1,0,0:0:0:0:
311,89,57641,2,0,P|304:47|270:18,1,85,2|0,0:0|0:0,0:0:0:0:
121,122,57957,2,0,P|126:168|165:197,1,85,2|0,0:0|0:0,0:0:0:0:
361,250,58273,5,4,0:0:0:0:
144,152,68378,6,0,L|224:112,1,85,2|0,0:0|0:0,0:0:0:0:
272,168,68694,2,0,L|176:216,1,85
128,120,69010,2,0,L|224:72,1,85,2|0,0:0|0:0,0:0:0:0:
288,200,69325,2,0,L|192:248,1,85
112,88,69641,2,0,L|208:40,1,85,2|0,0:0|0:0,0:0:0:0:
312,232,69957,2,0,L|224:280,1,85
168,184,70273,6,0,L|168:240,1,42.5,2|0,0:0|0:0,0:0:0:0:
240,216,70431,2,0,L|240:264,1,42.5,2|0,0:0|0:0,0:0:0:0:
312,248,70589,2,0,L|312:296,1,42.5,2|0,0:0|0:0,0:0:0:0:
384,280,70746,2,0,L|384:328,1,42.5,2|0,0:0|0:0,0:0:0:0:
464,304,70904,6,0,L|464:216,1,85,2|0,0:0|0:0,0:0:0:0:
224,96,71220,2,0,L|224:200,1,85
424,288,71536,2,0,L|424:184,1,85,2|0,0:0|0:0,0:0:0:0:
192,72,71852,2,0,L|192:176,1,85
368,264,72168,2,0,L|368:160,1,85,2|0,0:0|0:0,0:0:0:0:
152,48,72483,2,0,L|152:152,1,85
280,72,72799,6,0,L|328:72,1,42.5,2|0,0:0|0:0,0:0:0:0:
312,140,72957,2,0,L|368:140,1,42.5,2|0,0:0|0:0,0:0:0:0:
344,208,73115,2,0,L|400:208,1,42.5,2|0,0:0|0:0,0:0:0:0:
368,276,73273,2,0,L|432:276,1,42.5,2|0,0:0|0:0,0:0:0:0:
392,344,73431,6,2,P|332:357|292:348,1,85
244,272,73746,1,0,0:0:0:0:
176,348,73904,2,0,B|92:316|92:316|56:224,1,170,2|0,0:0|0:0,0:0:0:0:
144,168,74378,2,0,P|184:64|312:64,1,255,2|2,0:0|0:0,0:0:0:0:
336,88,74931,1,2,0:0:0:0:
352,112,75010,2,0,P|376:176|368:208,1,85,2|0,0:0|0:0,0:0:0:0:
336,288,75325,2,0,P|304:344|256:352,1,85,2|0,0:0|0:0,0:0:0:0:
184,344,75641,2,0,L|88:344,1,85
147,248,75957,6,0,L|232:248,2,85,2|0|0,0:0|0:0|0:0,0:0:0:0:
200,152,76431,1,0,0:0:0:0:
224,56,76589,2,0,B|343:49|343:169|464:144,1,255,2|2,0:0|0:0,0:0:0:0:
376,336,77378,5,4,0:0:0:0:
112,288,77852,1,4,0:0:0:0:
120,88,78168,1,4,0:0:0:0:
320,64,78483,6,4,P|376:96|392:152,1,85,6|0,0:0|0:0,0:0:0:0:
392,216,78799,1,0,0:0:0:0:
336,304,78957,2,0,B|256:328|256:328|168:304,1,170,2|0,0:0|0:0,0:0:0:0:
88,248,79431,2,0,B|168:216|168:216|264:248,1,170,2|0,0:0|0:0,0:0:0:0:
360,192,79904,1,0,0:0:0:0:
376,160,79983,1,0,0:0:0:0:
384,128,80062,2,0,L|384:40,1,85,2|0,0:0|0:0,0:0:0:0:
288,72,80378,1,2,0:0:0:0:
264,272,80694,1,2,0:0:0:0:
184,144,81010,5,2,0:0:0:0:
328,144,81168,1,2,0:0:0:0:
216,224,81325,1,2,0:0:0:0:
256,88,81483,1,2,0:0:0:0:
304,224,81641,2,0,B|340:304|340:304|400:268|400:268|452:376,1,255,2|0,0:0|0:0,0:0:0:0:
256,164,82431,1,0,0:0:0:0:
176,296,82904,6,0,L|216:272,1,42.5,2|0,0:0|0:0,0:0:0:0:
176,232,83062,2,0,L|136:208,1,42.5,2|0,0:0|0:0,0:0:0:0:
176,168,83220,2,0,L|216:144,1,42.5,2|0,0:0|0:0,0:0:0:0:
176,112,83378,2,0,L|136:88,1,42.5,2|0,0:0|0:0,0:0:0:0:
176,48,83536,5,6,0:0:0:0:
272,72,83694,1,0,0:0:0:0:
432,192,84010,1,0,0:0:0:0:
280,328,84325,1,0,0:0:0:0:
128,200,84641,1,0,0:0:0:0:
273,71,84957,1,0,0:0:0:0:
432,192,85273,1,0,0:0:0:0:
328,200,85431,6,0,B|304:200|304:200|288:152|288:240|272:200|272:200|256:200|256:200|240:152|240:240|224:200|224:200|192:200,1,170
144,336,86062,2,0,L|256:336,3,85,2|0|0|0,0:0|0:0|0:0|0:0,0:0:0:0:
232,232,86694,2,0,L|336:232,3,85,2|0|0|0,0:0|0:0|0:0|0:0,0:0:0:0:
320,128,87325,2,0,L|416:128,3,85,2|0|0|0,0:0|0:0|0:0|0:0,0:0:0:0:
408,24,87957,2,0,L|496:24,3,85,2|0|0|0,0:0|0:0|0:0|0:0,0:0:0:0:
472,128,88589,6,0,P|464:176|440:200,1,85,4|0,0:0|0:0,0:0:0:0:
360,264,88904,1,4,0:0:0:0:
264,288,89062,1,0,0:0:0:0:
168,272,89220,2,0,P|112:248|88:200,1,85,4|0,0:0|0:0,0:0:0:0:
72,128,89536,1,4,0:0:0:0:
104,32,89694,1,0,0:0:0:0:
173,81,89852,5,4,0:0:0:0:
200,101,89931,1,0,0:0:0:0:
232,111,90010,1,0,0:0:0:0:
265,107,90089,1,0,0:0:0:0:
293,88,90168,1,0,0:0:0:0:
319,67,90246,1,0,0:0:0:0:
352,61,90325,1,0,0:0:0:0:
384,70,90404,1,0,0:0:0:0:
410,91,90483,1,4,0:0:0:0:
430,117,90562,1,0,0:0:0:0:
444,147,90641,1,0,0:0:0:0:
453,179,90720,1,0,0:0:0:0:
461,211,90799,2,6,P|470:262|457:323,1,85,6|0,0:0|0:0,0:0:0:0:
347,234,91115,5,6,0:0:0:0:
347,234,91273,2,0,P|359:193|331:146,2,85,0|0|0,0:0|0:0|0:0,0:0:0:0:
336,344,91746,2,0,P|292:359|216:360,1,85,2|0,0:0|0:0,0:0:0:0:
248,256,92062,2,0,P|192:256|168:224,1,85,0|2,0:0|0:0,0:0:0:0:
152,216,92299,1,2,0:0:0:0:
136,192,92378,6,0,P|120:144|136:96,1,85,2|0,0:0|0:0,0:0:0:0:
224,144,92694,2,0,L|320:128,1,85
400,168,93010,2,0,B|440:184|440:184|440:248,1,85,2|0,0:0|0:0,0:0:0:0:
340,248,93325,1,0,0:0:0:0:
284,164,93483,1,0,0:0:0:0:
232,72,93641,6,0,L|152:136,1,85,2|0,0:0|0:0,0:0:0:0:
168,239,93957,2,0,L|112:176,1,85
336,168,94273,2,0,L|408:240,1,85,2|0,0:0|0:0,0:0:0:0:
272,328,94589,2,0,L|336:272,1,85
176,288,94904,5,2,0:0:0:0:
104,216,95062,1,0,0:0:0:0:
94,192,95141,1,0,0:0:0:0:
91,166,95220,1,0,0:0:0:0:
94,140,95299,1,0,0:0:0:0:
102,115,95378,1,0,0:0:0:0:
186,58,95536,2,0,B|218:25|218:25|277:57,1,85,2|0,0:0|0:0,0:0:0:0:
361,185,95852,2,0,B|334:221|334:221|262:207,1,85,2|0,0:0|0:0,0:0:0:0:
192,222,96168,5,6,0:0:0:0:
122,299,96325,2,0,L|69:215,2,85,0|0|0,0:0|0:0|0:0,0:0:0:0:
256,301,96799,2,0,L|301:219,1,85,2|0,0:0|0:0,0:0:0:0:
147,111,97115,2,0,L|190:36,1,85
322,37,97431,2,0,L|365:111,1,85,2|0,0:0|0:0,0:0:0:0:
255,180,97746,1,0,0:0:0:0:
255,180,97904,1,0,0:0:0:0:
157,149,98062,2,0,P|174:246|259:283,1,170,2|0,0:0|0:0,0:0:0:0:
399,322,98694,5,4,0:0:0:0:
127,72,99168,1,4,0:0:0:0:
123,255,99641,1,4,0:0:0:0:
392,33,100115,1,4,0:0:0:0:
424,192,100589,5,2,0:0:0:0:
400,192,100668,1,0,0:0:0:0:
376,192,100746,1,2,0:0:0:0:
352,192,100825,1,0,0:0:0:0:
326,192,100904,2,0,L|213:192,1,85,2|0,0:0|0:0,0:0:0:0:
144,192,101220,5,4,0:0:0:0:
456,192,101694,1,4,0:0:0:0:
296,328,102168,1,4,0:0:0:0:
296,48,102641,1,4,0:0:0:0:
253,194,103115,5,2,0:0:0:0:
236,213,103194,1,0,0:0:0:0:
219,232,103273,1,2,0:0:0:0:
204,252,103352,1,0,0:0:0:0:
189,273,103431,2,0,L|136:340,1,85,2|0,0:0|0:0,0:0:0:0:
73,258,103746,5,4,0:0:0:0:
121,105,104062,2,0,P|190:43|291:50,1,170,2|0,0:0|0:0,0:0:0:0:
260,141,104536,2,0,L|234:232,2,85,0|2|0,0:0|0:0|0:0,0:0:0:0:
335,70,105010,5,2,0:0:0:0:
350,90,105089,1,0,0:0:0:0:
361,112,105168,1,0,0:0:0:0:
368,136,105246,1,0,0:0:0:0:
372,161,105325,1,2,0:0:0:0:
372,186,105404,1,0,0:0:0:0:
370,211,105483,1,0,0:0:0:0:
364,235,105562,1,0,0:0:0:0:
357,260,105641,2,0,P|338:305|299:329,1,85,2|0,0:0|0:0,0:0:0:0:
200,290,105957,2,0,P|221:254|259:235,1,85,2|0,0:0|0:0,0:0:0:0:
256,192,106273,12,0,108168,0:0:0:0:
368,198,108483,5,4,0:0:0:0:
348,215,108562,1,0,0:0:0:0:
326,228,108641,1,0,0:0:0:0:
303,239,108720,1,0,0:0:0:0:
280,247,108799,1,8,0:0:0:0:
164,214,109036,5,0,0:0:0:0:
154,190,109115,2,0,P|158:130|207:95,1,85,0|0,0:0|0:0,0:0:0:0:
247,170,109431,2,0,P|297:160|337:103,1,85,8|0,0:0|0:0,0:0:0:0:
251,73,109746,2,0,P|217:36|152:35,1,85
74,87,110062,5,8,0:0:0:0:
74,291,110378,1,8,0:0:0:0:
278,294,110694,1,8,0:0:0:0:
276,89,111010,1,8,0:0:0:0:
173,192,111325,5,12,0:0:0:0:
173,192,111404,1,0,0:0:0:0:
173,192,111483,1,0,0:0:0:0:
173,192,111562,1,0,0:0:0:0:
173,192,111641,2,0,L|268:192,1,85
256,40,111957,2,0,L|152:40,1,85,8|0,0:0|0:0,0:0:0:0:
256,160,112273,2,0,L|360:160,1,85
160,72,112589,2,0,L|64:72,1,85,8|0,0:0|0:0,0:0:0:0:
144,160,112904,1,0,0:0:0:0:
296,192,113062,5,8,0:0:0:0:
296,224,113141,1,8,0:0:0:0:
296,256,113220,2,0,B|296:296|328:328|376:328|408:296|408:240,1,170,8|8,0:0|0:0,0:0:0:0:
406,226,113615,1,8,0:0:0:0:
405,191,113694,1,8,0:0:0:0:
399,157,113773,1,8,0:0:0:0:
385,125,113852,1,12,0:0:0:0:
248,72,114089,5,0,0:0:0:0:
232,88,114168,2,0,P|200:128|192:192,1,85
237,254,114483,2,0,L|309:318,1,85,8|0,0:0|0:0,0:0:0:0:
457,248,114799,2,0,L|385:320,1,85,0|0,0:0|0:0,0:0:0:0:
345,140,115115,6,0,B|353:99|353:99|324:67,1,85,8|0,0:0|0:0,0:0:0:0:
129,55,115431,2,0,B|122:98|122:98|168:136,1,85
338,295,115746,1,8,0:0:0:0:
109,295,116062,1,8,0:0:0:0:
221,219,116378,5,12,0:0:0:0:
221,193,116457,1,0,0:0:0:0:
221,167,116536,1,0,0:0:0:0:
221,141,116615,1,0,0:0:0:0:
220,115,116694,2,0,L|221:21,1,85
352,112,117010,6,0,P|320:160|272:176,1,85,8|0,0:0|0:0,0:0:0:0:
91,112,117325,2,0,P|123:160|171:176,1,85,0|8,0:0|0:0,0:0:0:0:
169,182,117562,1,8,0:0:0:0:
193,187,117641,1,8,0:0:0:0:
300,224,117799,2,0,L|276:268,2,42.5,0|0|0,0:0|0:0|0:0,0:0:0:0:
388,284,118115,1,8,0:0:0:0:
407,301,118194,1,8,0:0:0:0:
417,324,118273,1,8,0:0:0:0:
440,184,118431,1,0,0:0:0:0:
379,73,118589,5,0,0:0:0:0:
360,91,118668,1,0,0:0:0:0:
338,105,118746,1,0,0:0:0:0:
314,115,118825,1,0,0:0:0:0:
288,120,118904,1,12,0:0:0:0:
177,209,119141,1,0,0:0:0:0:
157,226,119220,2,0,P|130:270|138:335,1,85
229,289,119536,6,0,P|281:277|314:227,1,85,8|0,0:0|0:0,0:0:0:0:
112,280,119852,2,0,P|72:312|80:376,1,85
184,192,120168,2,0,P|176:112|96:48,2,170,8|0|8,0:0|0:0|0:0,0:0:0:0:
229,290,120957,1,0,0:0:0:0:
310,327,121115,1,0,0:0:0:0:
336,328,121194,1,0,0:0:0:0:
360,320,121273,1,0,0:0:0:0:
384,304,121352,1,0,0:0:0:0:
400,288,121431,1,12,0:0:0:0:
416,136,121668,5,0,0:0:0:0:
408,112,121746,2,0,P|384:64|328:32,1,85
293,201,122062,2,0,P|310:255|351:280,1,85,8|0,0:0|0:0,0:0:0:0:
310,116,122378,2,0,P|354:82|365:32,1,85
227,139,122694,2,0,P|146:111|68:146,2,170,8|0|8,0:0|0:0|0:0,0:0:0:0:
240,240,123483,1,0,0:0:0:0:
425,154,123799,1,0,0:0:0:0:
256,192,123957,12,4,126168,0:0:0:0:
256,192,126483,5,4,0:0:0:0:
