osu file format v13

[General]
AudioFilename: Pokmon Smaragd Battle Frontier Brain Remix.mp3
AudioLeadIn: 1000
PreviewTime: 108483
Countdown: 0
SampleSet: Soft
StackLeniency: 0.7
Mode: 0
LetterboxInBreaks: 1
WidescreenStoryboard: 1

[Editor]
DistanceSpacing: 1.2
BeatDivisor: 4
GridSize: 4
TimelineZoom: 1

[Metadata]
Title:Pokemon Emerald Battle Frontier Brain Remix
TitleUnicode:Pokemon Emerald Battle Frontier Brain Remix
Artist:GlitchxCity
ArtistUnicode:GlitchxCity
Creator:TaikuGx
Version:Hard
Source:Pokemon Emerald
Tags:Rayquaza Hoenn Game Freak Nintendo
BeatmapID:477213
BeatmapSetID:201569

[Difficulty]
HPDrainRate:6
CircleSize:4
OverallDifficulty:6
ApproachRate:8
SliderMultiplier:1.5
SliderTickRate:1

[Events]
//Background and Video events
0,0,"rayquaza.jpg",0,0
//Break Periods
2,58473,67628
//Storyboard Layer 0 (Background)
//Storyboard Layer 1 (Fail)
//Storyboard Layer 2 (Pass)
//Storyboard Layer 3 (Foreground)
//Storyboard Sound Samples
//Background Colour Transformations
3,100,163,162,255

[TimingPoints]
168,315.789473684211,4,2,0,50,1,0
5220,-100,4,2,0,70,0,0
10273,-100,4,2,0,75,0,0
12799,-100,4,2,0,80,0,0
108799,-100,4,2,0,100,0,1
126483,-100,4,2,0,100,0,0

[Colours]
Combo1 : 255,255,0
Combo2 : 0,128,0
Combo3 : 204,0,0
Combo4 : 0,0,0

[HitObjects]
149,193,168,6,0,P|161:246|206:271,1,75
265,180,642,2,0,P|255:138|226:113,1,75
139,83,1273,1,0,0:0:0:0:
91,144,1431,2,0,P|66:226|97:302,1,150
132,344,1905,1,0,0:0:0:0:
160,272,2063,2,0,L|184:236,2,37.5,0|0|0,0:0|0:0|0:0,0:0:0:0:
208,332,2379,2,0,L|248:352,2,37.5,0|0|0,0:0|0:0|0:0,0:0:0:0:
252,268,2695,6,0,B|336:190|332:63,1,225
192,12,3484,1,0,0:0:0:0:
74,86,3800,1,0,0:0:0:0:
76,161,3958,2,0,L|38:159,10,37.5,0|0|0|0|0|0|0|0|0|0|0,0:0|0:0|0:0|0:0|0:0|0:0|0:0|0:0|0:0|0:0|0:0,0:0:0:0:
83,235,4905,2,0,B|74:274|74:274|121:321,1,75
168,328,5221,6,0,L|256:328,1,75,8|0,0:0|0:0,0:0:0:0:
240,256,5537,2,0,L|344:256,1,75
320,184,5852,2,0,L|400:184,1,75,8|0,0:0|0:0,0:0:0:0:
392,112,6168,2,0,L|312:112,1,75
312,40,6484,2,0,L|232:40,1,75,8|0,0:0|0:0,0:0:0:0:
171,77,6800,5,0,0:0:0:0:
130,140,6958,1,0,0:0:0:0:
117,213,7116,2,0,L|58:215,2,37.5,8|0|0,0:0|0:0|0:0,0:0:0:0:
196,222,7431,2,0,L|239:254,2,37.5,0|0|0,0:0|0:0|0:0,0:0:0:0:
148,286,7747,2,0,P|242:343|357:339,1,225,8|0,0:0|0:0,0:0:0:0:
419,302,8379,2,0,P|448:261|450:208,1,75,8|0,0:0|0:0,0:0:0:0:
420,105,8695,2,0,P|404:141|402:175,1,75
304,203,9010,6,0,L|288:149,2,37.5,8|0|0,0:0|0:0|0:0,0:0:0:0:
240,240,9326,2,0,L|258:302,2,37.5,0|0|0,0:0|0:0|0:0,0:0:0:0:
216,168,9642,2,0,L|202:123,2,37.5,8|0|0,0:0|0:0|0:0,0:0:0:0:
152,208,9958,2,0,L|167:253,2,37.5,0|0|0,0:0|0:0|0:0,0:0:0:0:
59,165,10273,5,0,0:0:0:0:
59,165,10431,1,0,0:0:0:0:
59,165,10589,2,0,P|69:116|103:80,1,75,4|0,0:0|0:0,0:0:0:0:
240,52,10905,1,0,0:0:0:0:
240,52,11063,1,0,0:0:0:0:
240,52,11220,2,0,P|230:101|196:137,1,75,4|0,0:0|0:0,0:0:0:0:
203,261,11537,5,0,0:0:0:0:
203,261,11695,1,0,0:0:0:0:
203,261,11852,2,0,B|230:290|230:290|275:262,1,75,4|0,0:0|0:0,0:0:0:0:
374,153,12168,1,0,0:0:0:0:
374,153,12326,1,0,0:0:0:0:
374,153,12484,2,0,B|398:185|398:185|370:226,1,75,4|0,0:0|0:0,0:0:0:0:
400,304,12800,6,0,P|352:304|312:272,1,75,4|0,0:0|0:0,0:0:0:0:
240,272,13116,2,0,P|224:208|240:168,1,75,0|0,0:0|0:0,0:0:0:0:
280,128,13431,2,0,P|256:88|216:72,1,75,4|0,0:0|0:0,0:0:0:0:
144,64,13747,2,0,P|104:112|104:152,1,75,0|0,0:0|0:0,0:0:0:0:
116,206,14063,5,4,0:0:0:0:
148,276,14221,1,0,0:0:0:0:
200,332,14378,2,0,P|236:356|276:360,1,75,4|0,0:0|0:0,0:0:0:0:
360,256,14695,1,4,0:0:0:0:
320,192,14852,1,0,0:0:0:0:
272,136,15010,2,0,P|241:114|205:107,1,75,4|0,0:0|0:0,0:0:0:0:
256,192,15326,12,4,17537,0:0:0:0:
263,127,17852,6,0,P|311:139|330:175,1,75,6|0,0:0|0:0,0:0:0:0:
317,249,18168,2,0,P|278:242|256:215,1,75,0|0,0:0|0:0,0:0:0:0:
406,270,18484,2,0,P|387:315|340:336,1,75,2|0,0:0|0:0,0:0:0:0:
276,321,18800,2,0,P|233:305|205:272,1,75,0|0,0:0|0:0,0:0:0:0:
233,186,19116,2,0,P|204:209|168:216,1,75,2|0,0:0|0:0,0:0:0:0:
210,113,19431,2,0,P|170:90|159:51,1,75
245,36,19746,5,2,0:0:0:0:
245,36,19826,1,0,0:0:0:0:
245,36,19905,1,0,0:0:0:0:
309,92,20063,2,0,L|342:61,2,37.5,0|0|0,0:0|0:0|0:0,0:0:0:0:
367,160,20379,2,0,P|364:270|261:318,1,225,2|0,0:0|0:0,0:0:0:0:
180,308,21010,6,0,P|200:264|232:240,1,75,2|0,0:0|0:0,0:0:0:0:
300,200,21326,2,0,P|254:163|207:166,1,75
224,72,21642,2,0,L|277:70,2,37.5,8|0|0,0:0|0:0|0:0,0:0:0:0:
160,136,21958,2,0,L|103:140,2,37.5,8|0|0,0:0|0:0|0:0,0:0:0:0:
216,208,22273,2,0,L|269:204,2,37.5,8|0|0,0:0|0:0|0:0,0:0:0:0:
180,292,22589,2,0,L|134:300,2,37.5,8|8|8,0:0|0:0|0:0,0:0:0:0:
340,298,22904,5,8,0:0:0:0:
259,338,23063,1,0,0:0:0:0:
340,298,23221,2,0,L|410:260,1,75,2|2,0:0|0:0,0:0:0:0:
254,263,23536,1,8,0:0:0:0:
329,214,23695,1,0,0:0:0:0:
254,263,23852,2,0,L|184:303,1,75,2|2,0:0|0:0,0:0:0:0:
161,160,24168,5,8,0:0:0:0:
120,241,24326,1,0,0:0:0:0:
161,160,24484,2,0,P|182:124|221:109,1,75,2|2,0:0|0:0,0:0:0:0:
245,193,24799,2,0,L|283:195,2,37.5,8|8|8,0:0|0:0|0:0,0:0:0:0:
307,127,25116,1,8,0:0:0:0:
307,127,25194,1,8,0:0:0:0:
307,127,25273,1,8,0:0:0:0:
393,102,25431,6,0,B|356:182|422:226|371:321,1,225,12|4,0:0|0:0,0:0:0:0:
296,331,26063,2,0,P|300:292|322:253,1,75,2|0,0:0|0:0,0:0:0:0:
315,113,26379,2,0,P|306:145|312:188,1,75,2|0,0:0|0:0,0:0:0:0:
244,231,26695,6,0,L|213:271,2,37.5,8|0|0,0:0|0:0|0:0,0:0:0:0:
214,145,27010,2,0,L|250:106,2,37.5,8|0|0,0:0|0:0|0:0,0:0:0:0:
126,122,27325,2,0,L|78:167,2,37.5,8|0|0,0:0|0:0|0:0,0:0:0:0:
81,42,27642,2,0,L|127:3,2,37.5,8|8|8,0:0|0:0|0:0,0:0:0:0:
27,115,27957,6,0,P|16:155|38:193,1,75,14|0,0:0|0:0,0:0:0:0:
93,246,28273,2,0,P|116:208|106:165,1,75
193,131,28589,2,0,P|205:175|195:223,1,75,2|0,0:0|0:0,0:0:0:0:
292,197,28905,2,0,P|277:245|238:276,1,75
174,286,29220,5,2,0:0:0:0:
93,246,29379,1,0,0:0:0:0:
55,164,29537,2,0,P|54:103|69:79,1,75,2|0,0:0|0:0,0:0:0:0:
134,34,29852,2,0,L|135:83,2,37.5,2|2|2,0:0|0:0|0:0,0:0:0:0:
214,76,30168,2,0,L|214:127,2,37.5,2|2|2,0:0|0:0|0:0,0:0:0:0:
291,121,30484,6,0,P|299:223|401:284,1,225,6|0,0:0|0:0,0:0:0:0:
432,200,31116,2,0,L|485:140,1,75,2|0,0:0|0:0,0:0:0:0:
379,125,31431,2,0,L|437:60,1,75
291,121,31747,6,0,L|261:73,2,37.5,2|0|0,0:0|0:0|0:0,0:0:0:0:
257,205,32063,2,0,L|280:242,2,37.5,2|0|0,0:0|0:0|0:0,0:0:0:0:
347,210,32379,2,0,L|376:253,2,37.5,2|0|0,0:0|0:0|0:0,0:0:0:0:
379,125,32695,2,0,L|353:76,2,37.5,2|2|2,0:0|0:0|0:0,0:0:0:0:
292,122,33010,6,0,P|223:78|132:80,1,150,6|0,0:0|0:0,0:0:0:0:
81,124,33484,1,0,0:0:0:0:
166,153,33642,2,0,P|237:184|265:268,1,150,2|0,0:0|0:0,0:0:0:0:
225,326,34116,1,0,0:0:0:0:
182,247,34273,2,0,P|73:225|33:239,1,150,2|0,0:0|0:0,0:0:0:0:
106,297,34747,1,0,0:0:0:0:
177,342,34904,6,0,L|177:393,2,37.5,2|2|2,0:0|0:0|0:0,0:0:0:0:
263,370,35221,2,0,L|263:319,2,37.5,2|2|2,0:0|0:0|0:0,0:0:0:0:
334,308,35537,2,0,P|398:259|427:182,1,150,6|0,0:0|0:0,0:0:0:0:
338,223,36010,2,0,P|362:143|338:79,1,150,2|0,0:0|0:0,0:0:0:0:
292,159,36484,2,0,P|283:120|244:95,1,75,2|0,0:0|0:0,0:0:0:0:
336,52,36800,6,0,L|381:37,2,37.5,2|0|0,0:0|0:0|0:0,0:0:0:0:
380,131,37116,2,0,L|428:123,2,37.5,2|0|0,0:0|0:0|0:0,0:0:0:0:
387,220,37431,2,0,L|429:227,2,37.5,2|0|0,0:0|0:0|0:0,0:0:0:0:
374,309,37746,2,0,L|417:333,2,37.5,2|2|2,0:0|0:0|0:0,0:0:0:0:
296,280,38063,6,0,L|296:192,1,75,4|0,0:0|0:0,0:0:0:0:
296,112,38379,1,2,0:0:0:0:
224,280,38695,2,0,L|224:192,1,75,4|0,0:0|0:0,0:0:0:0:
224,112,39010,1,2,0:0:0:0:
152,280,39326,6,0,L|152:200,1,75,4|0,0:0|0:0,0:0:0:0:
152,112,39641,1,2,0:0:0:0:
80,280,39958,2,0,L|80:192,1,75,4|0,0:0|0:0,0:0:0:0:
80,112,40273,1,2,0:0:0:0:
300,97,40589,5,4,0:0:0:0:
300,97,40747,1,0,0:0:0:0:
202,188,40905,2,0,P|223:218|231:254,1,75,4|0,0:0|0:0,0:0:0:0:
300,309,41221,1,4,0:0:0:0:
300,309,41379,1,0,0:0:0:0:
367,255,41536,2,0,P|375:218|396:188,1,75,4|0,0:0|0:0,0:0:0:0:
300,97,41852,5,4,0:0:0:0:
300,97,42010,1,0,0:0:0:0:
305,231,42168,2,0,P|268:237|237:257,1,75,4|0,0:0|0:0,0:0:0:0:
150,247,42484,1,4,0:0:0:0:
150,247,42642,1,0,0:0:0:0:
141,161,42799,2,0,P|161:129|167:93,1,75,4|0,0:0|0:0,0:0:0:0:
259,199,43115,5,4,0:0:0:0:
259,199,43273,2,0,L|339:199,2,75,0|0|0,0:0|0:0|0:0,0:0:0:0:
253,289,43747,2,0,P|210:276|181:237,1,75,2|0,0:0|0:0,0:0:0:0:
128,192,44063,2,0,P|104:232|112:288,1,75
144,339,44379,5,2,0:0:0:0:
144,339,44537,1,0,0:0:0:0:
204,272,44695,2,0,P|228:224|220:184,1,75
141,175,45010,2,0,L|53:175,1,75,2|0,0:0|0:0,0:0:0:0:
119,101,45326,2,0,L|207:101,1,75,0|0,0:0|0:0,0:0:0:0:
248,173,45642,6,0,L|352:173,1,75,8|0,0:0|0:0,0:0:0:0:
377,100,45958,2,0,L|457:100,1,75,8|0,0:0|0:0,0:0:0:0:
432,192,46273,1,8,0:0:0:0:
432,192,46431,1,8,0:0:0:0:
432,192,46589,2,0,P|440:240|408:288,1,75,8|0,0:0|0:0,0:0:0:0:
344,232,46905,6,0,P|328:272|344:312,1,75,8|0,0:0|0:0,0:0:0:0:
264,352,47221,2,0,P|240:312|248:264,1,75,8|0,0:0|0:0,0:0:0:0:
256,192,47537,1,8,0:0:0:0:
256,192,47695,1,8,0:0:0:0:
256,192,47852,2,0,P|288:152|344:144,1,75,8|0,0:0|0:0,0:0:0:0:
344,56,48168,6,0,L|384:24,2,37.5,4|0|0,0:0|0:0|0:0,0:0:0:0:
256,56,48484,2,0,P|216:32|160:32,1,75
192,120,48800,1,2,0:0:0:0:
120,64,48958,1,0,0:0:0:0:
112,152,49116,6,0,P|144:200|176:208,1,75
88,264,49431,2,0,P|128:288|176:280,1,75,2|0,0:0|0:0,0:0:0:0:
229,236,49747,2,0,P|247:287|238:323,1,75
324,348,50063,2,0,P|333:270|299:187,1,150,2|0,0:0|0:0,0:0:0:0:
256,56,50695,5,4,0:0:0:0:
255,324,51168,1,4,0:0:0:0:
391,194,51642,1,4,0:0:0:0:
134,194,52116,1,4,0:0:0:0:
344,168,52589,2,0,P|354:218|335:266,1,75,2|0,0:0|0:0,0:0:0:0:
134,194,52904,2,0,P|121:155|140:107,1,75,2|0,0:0|0:0,0:0:0:0:
344,168,53221,5,4,0:0:0:0:
228,39,53695,1,4,0:0:0:0:
228,307,54168,1,4,0:0:0:0:
125,168,54642,1,4,0:0:0:0:
344,168,55116,2,0,B|368:200|368:200|352:240,1,75,2|0,0:0|0:0,0:0:0:0:
136,232,55431,2,0,B|112:200|112:200|125:168,1,75,2|0,0:0|0:0,0:0:0:0:
256,192,55747,6,0,P|288:231|280:280,1,75,6|0,0:0|0:0,0:0:0:0:
349,186,56062,2,0,P|392:211|401:260,1,75,0|0,0:0|0:0,0:0:0:0:
431,147,56378,2,0,P|480:156|505:198,1,75,2|0,0:0|0:0,0:0:0:0:
416,64,56695,1,0,0:0:0:0:
328,48,56852,1,0,0:0:0:0:
239,62,57010,5,2,0:0:0:0:
239,62,57168,2,0,P|199:59|157:86,2,75,0|0|0,0:0|0:0|0:0,0:0:0:0:
216,144,57641,2,0,L|160:216,1,75,2|0,0:0|0:0,0:0:0:0:
256,240,57958,2,0,L|304:304,1,75
224,352,58273,1,4,0:0:0:0:
301,208,68378,5,2,0:0:0:0:
301,208,68536,2,0,P|338:215|367:246,2,75,0|0|0,0:0|0:0|0:0,0:0:0:0:
224,164,69010,2,0,P|215:199|224:240,1,75,2|0,0:0|0:0,0:0:0:0:
236,324,69325,2,0,P|273:316|301:286,1,75,0|0,0:0|0:0,0:0:0:0:
364,240,69642,2,0,L|404:256,2,37.5,2|0|0,0:0|0:0|0:0,0:0:0:0:
352,152,69958,2,0,P|304:172|284:220,1,75
197,254,70273,5,2,0:0:0:0:
177,166,70431,1,0,0:0:0:0:
112,227,70589,1,2,0:0:0:0:
93,139,70746,1,0,0:0:0:0:
208,40,70905,6,0,P|232:80|232:128,1,75,2|0,0:0|0:0,0:0:0:0:
320,80,71221,2,0,P|320:136|296:176,1,75
400,168,71537,2,0,P|384:224|344:248,1,75,2|0,0:0|0:0,0:0:0:0:
448,280,71852,2,0,P|424:312|368:336,1,75
312,296,72168,2,0,L|316:356,2,37.5,2|0|0,0:0|0:0|0:0,0:0:0:0:
232,336,72484,2,0,P|208:296|208:248,1,75
224,180,72799,5,2,0:0:0:0:
312,160,72957,1,0,0:0:0:0:
251,95,73115,1,2,0:0:0:0:
339,76,73273,1,0,0:0:0:0:
416,120,73431,6,0,P|448:168|448:216,1,75,6|0,0:0|0:0,0:0:0:0:
424,272,73747,1,0,0:0:0:0:
352,328,73905,2,0,B|280:352|256:280|184:328,1,150,2|0,0:0|0:0,0:0:0:0:
120,288,74379,2,0,B|88:216|168:192|144:120,1,150,2|0,0:0|0:0,0:0:0:0:
216,88,74852,2,0,L|176:48,2,37.5,0|0|0,0:0|0:0|0:0,0:0:0:0:
304,80,75168,1,0,0:0:0:0:
392,104,75326,6,0,P|384:152|344:184,1,75,2|0,0:0|0:0,0:0:0:0:
448,208,75642,2,0,P|408:248|360:256,1,75,2|0,0:0|0:0,0:0:0:0:
309,291,75957,1,2,0:0:0:0:
246,356,76116,1,0,0:0:0:0:
221,269,76273,2,0,P|189:245|165:197,2,75,2|0|2,0:0|0:0|0:0,0:0:0:0:
352,144,76905,5,4,0:0:0:0:
96,48,77379,1,4,0:0:0:0:
176,304,77852,1,4,0:0:0:0:
360,304,78168,1,4,0:0:0:0:
408,128,78483,6,0,P|368:104|312:112,1,75,6|0,0:0|0:0,0:0:0:0:
344,192,78800,1,0,0:0:0:0:
264,160,78958,2,0,P|256:208|328:280,1,150,2|0,0:0|0:0,0:0:0:0:
391,332,79431,2,0,P|358:357|301:357,1,75,2|0,0:0|0:0,0:0:0:0:
237,339,79747,1,0,0:0:0:0:
161,289,79905,2,0,L|105:329,2,37.5,0|0|2,0:0|0:0|0:0,0:0:0:0:
97,224,80221,5,0,0:0:0:0:
56,152,80379,2,0,B|124:96|140:164|200:88,1,150,2|2,0:0|0:0,0:0:0:0:
257,38,80852,1,0,0:0:0:0:
299,117,81010,2,0,P|311:156|301:192,1,75,2|0,0:0|0:0,0:0:0:0:
272,273,81325,2,0,P|242:313|190:329,1,75,2|0,0:0|0:0,0:0:0:0:
131,341,81641,1,2,0:0:0:0:
56,192,81958,5,4,0:0:0:0:
312,104,82431,1,4,0:0:0:0:
104,272,82905,1,4,0:0:0:0:
272,208,83221,1,4,0:0:0:0:
448,184,83536,6,0,P|464:232|448:288,1,75,4|0,0:0|0:0,0:0:0:0:
400,320,83852,2,0,L|400:360,2,37.5,8|8|8,0:0|0:0|0:0,0:0:0:0:
328,248,84168,2,0,P|304:200|312:160,1,75,0|0,0:0|0:0,0:0:0:0:
368,112,84484,2,0,L|408:80,2,37.5,8|8|8,0:0|0:0|0:0,0:0:0:0:
288,72,84800,2,0,P|256:40|200:32,1,75
208,119,85116,2,0,L|176:167,2,37.5,8|8|8,0:0|0:0|0:0,0:0:0:0:
120,100,85431,2,0,P|56:148|32:244,1,150,0|8,0:0|0:0,0:0:0:0:
216,264,86062,6,0,B|264:280|276:360|288:280|333:261,1,150,4|0,0:0|0:0,0:0:0:0:
334,120,86695,2,0,B|289:102|277:22|265:102|217:118,1,150,4|0,0:0|0:0,0:0:0:0:
334,191,87325,2,0,L|486:191,1,150,4|0,0:0|0:0,0:0:0:0:
216,191,87957,2,0,L|64:191,1,150,4|0,0:0|0:0,0:0:0:0:
256,32,88589,6,4,L|331:70,1,75,4|0,0:0|0:0,0:0:0:0:
254,125,88905,2,0,L|175:151,1,75,4|0,0:0|0:0,0:0:0:0:
257,213,89220,2,4,L|334:252,1,75,4|0,0:0|0:0,0:0:0:0:
254,304,89536,2,0,L|178:332,1,75,4|0,0:0|0:0,0:0:0:0:
256,192,89852,12,0,90958,0:0:0:0:
192,128,91115,5,6,0:0:0:0:
192,128,91273,2,0,P|138:146|117:180,2,75,0|0|0,0:0|0:0|0:0,0:0:0:0:
276,96,91747,2,0,P|280:144|252:180,1,75,2|0,0:0|0:0,0:0:0:0:
196,221,92063,2,0,P|226:247|274:248,1,75
341,211,92379,5,2,0:0:0:0:
359,299,92537,1,0,0:0:0:0:
272,328,92695,2,0,L|272:368,2,37.5,0|0|0,0:0|0:0|0:0,0:0:0:0:
184,320,93010,2,0,P|144:328|96:304,1,75,2|0,0:0|0:0,0:0:0:0:
81,229,93326,2,0,P|118:224|152:240,1,75
72,136,93642,6,0,P|72:80|96:56,1,75,6|0,0:0|0:0,0:0:0:0:
168,88,93958,2,0,P|192:40|224:24,1,75,2|0,0:0|0:0,0:0:0:0:
280,88,94273,2,0,P|320:48|368:48,1,75,2|0,0:0|0:0,0:0:0:0:
376,128,94589,2,0,P|424:104|472:128,1,75,2|0,0:0|0:0,0:0:0:0:
424,192,94905,6,0,P|464:216|488:272,1,75,6|0,0:0|0:0,0:0:0:0:
392,264,95221,2,0,P|416:312|408:352,1,75,2|0,0:0|0:0,0:0:0:0:
328,312,95537,2,0,P|304:368|264:376,1,75,2|0,0:0|0:0,0:0:0:0:
248,296,95852,2,0,P|208:328|152:328,1,75,2|0,0:0|0:0,0:0:0:0:
168,248,96168,6,0,L|136:216,2,37.5,6|0|0,0:0|0:0|0:0,0:0:0:0:
248,208,96484,2,0,P|296:232|336:224,1,75
391,181,96799,2,0,P|427:163|444:129,1,75,2|0,0:0|0:0,0:0:0:0:
448,40,97116,2,0,P|400:47|372:79,1,75
292,64,97431,2,0,P|308:120|348:136,1,75,2|0,0:0|0:0,0:0:0:0:
391,181,97746,2,0,P|427:163|444:129,1,75
472,224,98063,2,0,B|440:304|368:224|336:312,1,150,2|0,0:0|0:0,0:0:0:0:
168,288,98695,5,4,0:0:0:0:
344,80,99168,1,4,0:0:0:0:
456,328,99642,1,4,0:0:0:0:
328,216,100116,1,4,0:0:0:0:
160,88,100589,2,0,P|112:104|96:152,1,75,2|0,0:0|0:0,0:0:0:0:
184,280,100905,2,0,P|232:264|248:216,1,75,2|0,0:0|0:0,0:0:0:0:
256,152,101221,5,4,0:0:0:0:
392,56,101695,1,4,0:0:0:0:
128,56,102168,1,4,0:0:0:0:
256,280,102641,1,4,0:0:0:0:
392,248,103116,2,0,L|344:312,1,75,2|0,0:0|0:0,0:0:0:0:
192,200,103431,2,0,L|248:128,1,75,2|0,0:0|0:0,0:0:0:0:
320,104,103747,6,0,P|352:144|352:192,1,75,6|0,0:0|0:0,0:0:0:0:
448,160,104063,2,0,P|440:208|400:240,1,75
336,240,104379,2,0,P|352:280|408:304,1,75,2|0,0:0|0:0,0:0:0:0:
312,360,104694,2,0,P|280:336|260:292,1,75
188,356,105010,1,2,0:0:0:0:
188,356,105168,2,0,P|176:276|236:220,1,150
288,168,105642,2,0,P|256:140|204:144,1,75,2|0,0:0|0:0,0:0:0:0:
144,176,105958,1,2,0:0:0:0:
256,192,106116,12,0,108168,0:0:0:0:
412,112,108483,5,0,0:0:0:0:
339,281,108800,2,0,P|299:265|275:225,1,75,12|0,0:0|0:0,0:0:0:0:
264,152,109116,2,0,P|256:104|216:80,1,75
176,152,109431,2,0,P|176:200|216:224,1,75,8|0,0:0|0:0,0:0:0:0:
280,240,109747,1,0,0:0:0:0:
216,304,109905,1,0,0:0:0:0:
304,328,110063,6,0,B|336:240|384:328|424:224,1,150,8|0,0:0|0:0,0:0:0:0:
208,56,110695,2,0,B|176:144|128:56|88:160,1,150,8|0,0:0|0:0,0:0:0:0:
272,176,111326,2,0,L|320:160,2,37.5,8|0|0,0:0|0:0|0:0,0:0:0:0:
232,256,111642,1,0,0:0:0:0:
232,256,111800,1,0,0:0:0:0:
272,336,111958,2,0,L|232:360,2,37.5,8|0|0,0:0|0:0|0:0,0:0:0:0:
360,336,112273,5,0,0:0:0:0:
360,336,112431,1,0,0:0:0:0:
424,272,112589,2,0,P|448:240|456:200,1,75,8|0,0:0|0:0,0:0:0:0:
432,120,112905,2,0,P|384:152|376:184,1,75
328,240,113220,2,0,P|296:208|288:168,1,75,8|8,0:0|0:0,0:0:0:0:
312,96,113536,2,0,L|361:75,2,37.5,8|8|8,0:0|0:0|0:0,0:0:0:0:
224,72,113852,5,12,0:0:0:0:
224,72,114010,1,0,0:0:0:0:
224,72,114168,2,0,P|192:112|184:152,1,75
264,176,114484,1,8,0:0:0:0:
264,176,114642,1,0,0:0:0:0:
264,176,114800,2,0,P|256:232|216:264,1,75
152,240,115116,6,0,P|120:208|112:160,1,75,8|0,0:0|0:0,0:0:0:0:
256,112,115431,2,0,P|280:144|288:192,1,75
96,152,115747,2,0,P|72:112|72:64,1,75,8|0,0:0|0:0,0:0:0:0:
200,32,116063,2,0,P|232:64|248:112,1,75,0|0,0:0|0:0,0:0:0:0:
256,184,116378,2,0,L|304:192,2,37.5,8|8|8,0:0|0:0|0:0,0:0:0:0:
216,264,116694,5,0,0:0:0:0:
216,264,116852,1,0,0:0:0:0:
272,336,117010,2,0,P|312:312|320:272,1,75,8|0,0:0|0:0,0:0:0:0:
408,256,117326,2,0,L|385:217,2,37.5,0|0|0,0:0|0:0|0:0,0:0:0:0:
480,312,117642,6,0,P|496:256|480:216,1,75,8|0,0:0|0:0,0:0:0:0:
440,168,117958,2,0,P|416:136|416:96,1,75
319,105,118273,2,0,P|329:69|352:40,1,75,8|8,0:0|0:0,0:0:0:0:
296,184,118589,2,0,L|248:208,2,37.5,8|8|8,0:0|0:0|0:0,0:0:0:0:
381,213,118904,6,0,P|360:267|320:281,1,75,12|0,0:0|0:0,0:0:0:0:
317,360,119221,2,0,P|269:328|261:296,1,75
240,232,119537,2,0,P|192:168|96:168,1,150,8|0,0:0|0:0,0:0:0:0:
56,208,120010,1,0,0:0:0:0:
72,296,120168,2,0,P|95:333|132:349,1,75,8|0,0:0|0:0,0:0:0:0:
211,355,120483,1,0,0:0:0:0:
300,339,120642,1,0,0:0:0:0:
374,287,120800,6,0,L|442:244,1,75,8|8,0:0|0:0,0:0:0:0:
366,190,121115,2,0,L|295:161,1,75,8|8,0:0|0:0,0:0:0:0:
330,77,121431,2,0,L|370:53,2,37.5,12|0|0,0:0|0:0|0:0,0:0:0:0:
244,94,121747,2,0,P|212:126|212:174,1,75
297,161,122063,2,0,P|369:201|385:289,1,150,8|0,0:0|0:0,0:0:0:0:
298,253,122537,1,0,0:0:0:0:
288,342,122694,2,0,P|241:328|225:285,1,75,8|0,0:0|0:0,0:0:0:0:
209,219,123010,1,0,0:0:0:0:
138,163,123168,1,0,0:0:0:0:
215,116,123325,6,0,L|247:44,1,75,8|8,0:0|0:0,0:0:0:0:
325,105,123641,2,0,L|357:193,1,75,8|8,0:0|0:0,0:0:0:0:
256,192,123958,12,4,126168,0:0:0:0:
256,192,126484,5,4,0:0:0:0:
