osu file format v13

[General]
AudioFilename: Pokmon Smaragd Battle Frontier Brain Remix.mp3
AudioLeadIn: 1000
PreviewTime: 108483
Countdown: 0
SampleSet: None
StackLeniency: 0.7
Mode: 0
LetterboxInBreaks: 1
WidescreenStoryboard: 1

[Editor]
DistanceSpacing: 1
BeatDivisor: 4
GridSize: 4
TimelineZoom: 1

[Metadata]
Title:Pokemon Emerald Battle Frontier Brain Remix
TitleUnicode:Pokemon Emerald Battle Frontier Brain Remix
Artist:GlitchxCity
ArtistUnicode:GlitchxCity
Creator:TaikuGx
Version:Easy
Source:Pokemon Emerald
Tags:Rayquaza Hoenn Game Freak Nintendo
BeatmapID:477841
BeatmapSetID:201569

[Difficulty]
HPDrainRate:2
CircleSize:3
OverallDifficulty:2
ApproachRate:3
SliderMultiplier:0.8
SliderTickRate:1

[Events]
//Background and Video events
0,0,"rayquaza.jpg",0,0
//Break Periods
2,58473,66938
//Storyboard Layer 0 (Background)
//Storyboard Layer 1 (Fail)
//Storyboard Layer 2 (Pass)
//Storyboard Layer 3 (Foreground)
//Storyboard Sound Samples
//Background Colour Transformations
3,100,163,162,255

[TimingPoints]
168,315.789473684211,4,2,0,50,1,0
5220,-100,4,2,0,70,0,0
10273,-100,4,2,0,75,0,0
12799,-100,4,2,0,80,0,0
108799,-100,4,2,0,100,0,1
126483,-100,4,2,0,100,0,0

[Colours]
Combo1 : 255,255,0
Combo2 : 0,128,0
Combo3 : 204,0,0
Combo4 : 0,0,0

[HitObjects]
230,183,168,6,0,P|286:127|366:127,1,160
344,284,1431,2,0,P|288:340|208:340,1,160
52,316,2695,2,0,P|60:260|116:220,2,120,0|0|0,0:0|0:0|0:0,0:0:0:0:
132,300,3958,1,0,0:0:0:0:
290,276,4589,1,0,0:0:0:0:
446,242,5221,6,8,P|412:166|336:122,1,160
291,277,6483,2,8,P|224:234|191:163,1,160
310,56,7747,2,0,L|398:56,2,80,8|0|8,0:0|0:0|0:0,0:0:0:0:
400,192,9010,2,0,L|488:192,2,80,8|0|8,0:0|0:0|0:0,0:0:0:0:
294,310,10273,6,4,B|228:355|228:355|152:304,1,160
161,150,11536,2,4,B|227:105|227:105|293:150,1,160
434,227,12800,2,4,L|482:227,2,40,0|0|4,0:0|0:0|0:0,0:0:0:0:
375,281,13431,2,0,L|375:337,2,40,0|0|4,0:0|0:0|0:0,0:0:0:0:
315,227,14062,2,0,L|263:227,2,40,0|0|4,0:0|0:0|0:0,0:0:0:0:
375,173,14695,2,0,L|375:133,2,40,0|0|4,0:0|0:0|0:0,0:0:0:0:
256,192,15326,12,0,17221,0:0:0:0:
212,261,17852,6,0,P|291:257|352:208,1,160,4|0,0:0|0:0,0:0:0:0:
233,102,19115,2,0,P|158:106|90:155,1,160,0|0,0:0|0:0,0:0:0:0:
39,306,20379,2,0,L|91:370,2,80,0|0|0,0:0|0:0|0:0,0:0:0:0:
185,245,21641,2,0,L|265:261,1,80,2|2,0:0|0:0,0:0:0:0:
284,184,22273,2,0,L|204:168,1,80,2|2,0:0|0:0,0:0:0:0:
225,90,22905,5,4,0:0:0:0:
378,43,23537,1,0,0:0:0:0:
487,159,24168,2,0,P|479:239|423:303,1,160
325,177,25431,2,0,P|285:225|277:289,2,120,4|0|0,0:0|0:0|0:0,0:0:0:0:
295,102,26695,2,0,P|223:86|135:118,1,160,2|2,0:0|0:0,0:0:0:0:
44,236,27957,6,0,P|104:276|196:248,1,160,4|0,0:0|0:0,0:0:0:0:
256,112,29221,2,0,P|324:148|340:236,1,160
228,332,30484,2,0,P|212:268|236:220,2,120,4|0|0,0:0|0:0|0:0,0:0:0:0:
292,280,31747,2,0,L|348:240,1,80,2|2,0:0|0:0,0:0:0:0:
416,288,32379,2,0,L|348:336,1,80,2|2,0:0|0:0,0:0:0:0:
276,364,33010,5,4,0:0:0:0:
152,264,33642,1,0,0:0:0:0:
96,114,34273,2,0,P|152:62|237:54,1,160
220,212,35537,2,0,P|288:220|340:184,2,120,4|0|0,0:0|0:0|0:0,0:0:0:0:
200,134,36800,2,0,P|144:190|163:268,1,160
301,339,38063,5,4,0:0:0:0:
301,178,38695,1,0,0:0:0:0:
140,178,39326,1,4,0:0:0:0:
140,339,39958,1,0,0:0:0:0:
140,178,40589,5,4,0:0:0:0:
301,178,41221,1,0,0:0:0:0:
301,339,41852,1,4,0:0:0:0:
140,339,42483,1,0,0:0:0:0:
198,190,43115,6,0,P|166:218|118:222,2,80,4|0|0,0:0|0:0|0:0,0:0:0:0:
133,147,44063,1,0,0:0:0:0:
55,126,44379,2,0,P|105:72|188:90,1,160
296,200,45641,6,0,B|320:240|320:240|312:280|312:280|320:320|320:320|296:360,1,160,2|2,0:0|0:0,0:0:0:0:
143,348,46904,2,0,B|119:308|119:308|127:268|127:268|119:228|119:228|143:188,1,160,2|2,0:0|0:0,0:0:0:0:
232,72,48168,2,0,P|291:26|382:18,1,160,4|0,0:0|0:0,0:0:0:0:
356,175,49431,2,0,L|404:239,2,80,0|0|0,0:0|0:0|0:0,0:0:0:0:
196,164,50695,6,0,P|132:196|100:252,2,120,4|0|0,0:0|0:0|0:0,0:0:0:0:
316,151,52115,1,2,0:0:0:0:
389,247,52589,2,2,P|390:295|421:330,1,80
468,268,53221,2,0,P|460:208|402:166,2,120,6|0|0,0:0|0:0|0:0,0:0:0:0:
348,268,54641,5,2,0:0:0:0:
263,182,55116,2,2,P|274:223|263:262,1,80
193,221,55747,2,0,P|182:177|225:111,2,120,4|0|0,0:0|0:0|0:0,0:0:0:0:
263,182,57010,2,0,P|298:128|288:76,2,120,4|0|0,0:0|0:0|0:0,0:0:0:0:
264,262,58273,1,4,0:0:0:0:
192,208,68378,6,0,B|228:256|228:256|304:256,1,120,2|0,0:0|0:0,0:0:0:0:
286,135,69325,2,0,B|346:135|346:135|382:183,1,120,2|0,0:0|0:0,0:0:0:0:
443,284,70273,2,0,L|371:332,1,80,2|2,0:0|0:0,0:0:0:0:
298,348,70905,2,0,P|236:350|189:315,1,120,2|0,0:0|0:0,0:0:0:0:
277,234,71852,2,0,P|225:199|155:204,1,120,2|0,0:0|0:0,0:0:0:0:
51,171,72800,2,0,L|130:123,1,80,2|2,0:0|0:0,0:0:0:0:
184,83,73431,6,0,B|263:44|263:44|330:44|330:44|406:83,2,240,4|0|4,0:0|0:0|0:0,0:0:0:0:
302,191,75958,2,0,L|382:233,2,80,0|0|0,0:0|0:0|0:0,0:0:0:0:
198,313,77220,2,0,L|278:355,2,80,0|0|0,0:0|0:0|0:0,0:0:0:0:
38,332,78483,6,0,B|104:174|104:174|-24:215|-24:215|40:53,1,480,4|4,0:0|0:0,0:0:0:0:
196,14,81010,2,0,L|278:14,2,80,0|0|0,0:0|0:0|0:0,0:0:0:0:
141,164,82273,2,0,L|225:163,2,80,0|0|0,0:0|0:0|0:0,0:0:0:0:
72,308,83536,6,0,L|236:308,1,160,4|0,0:0|0:0,0:0:0:0:
375,378,84800,2,0,P|403:306|363:222,1,160,4|0,0:0|0:0,0:0:0:0:
296,89,86063,6,0,B|237:50|190:120|144:73,1,160,4|0,0:0|0:0,0:0:0:0:
144,234,87326,2,0,B|203:273|250:203|295:249,1,160,4|0,0:0|0:0,0:0:0:0:
256,192,88589,12,4,91116,0:0:0:0:
404,120,91747,6,0,P|356:69|270:52,1,160
114,87,93010,1,0,0:0:0:0:
77,242,93642,6,0,B|133:210|133:210|182:230|182:230|229:210|229:210|293:241,1,240,2|0,0:0|0:0,0:0:0:0:
295,321,94905,2,0,B|239:353|239:353|190:333|190:333|143:353|143:353|79:322,1,240,2|0,0:0|0:0,0:0:0:0:
137,88,96800,6,0,P|224:87|290:138,1,160
168,240,98063,1,0,0:0:0:0:
324,276,98695,2,0,P|304:343|251:374,2,120,4|0|0,0:0|0:0|0:0,0:0:0:0:
373,167,100114,2,0,P|314:156|249:183,1,120
200,121,100904,1,0,0:0:0:0:
182,198,101221,6,0,P|176:260|215:307,2,120,4|0|0,0:0|0:0|0:0,0:0:0:0:
244,96,102641,2,0,P|292:64|360:64,1,120
430,82,103431,1,0,0:0:0:0:
373,139,103747,6,0,L|399:221,1,80,4|0,0:0|0:0,0:0:0:0:
328,256,104378,2,0,L|303:179,1,80,0|0,0:0|0:0,0:0:0:0:
225,158,105010,2,0,L|200:81,1,80,0|0,0:0|0:0,0:0:0:0:
129,118,105641,2,0,L|155:200,1,80,0|0,0:0|0:0,0:0:0:0:
256,192,106273,12,0,108168,0:0:0:0:
232,107,108799,6,0,P|160:124|114:197,1,160,4|0,0:0|0:0,0:0:0:0:
212,320,110062,2,0,P|253:253|329:234,1,160,0|0,0:0|0:0,0:0:0:0:
448,128,111325,2,0,B|384:56|384:56|320:128|320:128|264:56|264:56|200:128|200:128|128:48,1,480,2|2,0:0|0:0,0:0:0:0:
55,194,113852,6,0,P|103:258|183:266,1,160,4|0,0:0|0:0,0:0:0:0:
204,109,115115,2,0,P|281:119|327:182,1,160,2|0,0:0|0:0,0:0:0:0:
420,312,116378,2,0,B|508:196|376:196|452:88,2,240,2|0|2,0:0|0:0|0:0,0:0:0:0:
235,293,118905,5,4,0:0:0:0:
109,193,119536,1,0,0:0:0:0:
112,32,120168,2,0,L|80:0,2,40,4|0|0,0:0|0:0|0:0,0:0:0:0:
168,88,120799,1,0,0:0:0:0:
272,208,121431,5,4,0:0:0:0:
412,128,122062,1,0,0:0:0:0:
268,56,122694,2,0,L|239:12,2,40,4|0|0,0:0|0:0|0:0,0:0:0:0:
314,121,123325,1,0,0:0:0:0:
256,192,123957,12,4,126484,0:0:0:0:
