osu file format v13

[General]
AudioFilename: Pokmon Smaragd Battle Frontier Brain Remix.mp3
AudioLeadIn: 1000
PreviewTime: 108483
Countdown: 0
SampleSet: None
StackLeniency: 0.7
Mode: 0
LetterboxInBreaks: 1
WidescreenStoryboard: 1

[Editor]
DistanceSpacing: 1.2
BeatDivisor: 4
GridSize: 4
TimelineZoom: 1

[Metadata]
Title:Pokemon Emerald Battle Frontier Brain Remix
TitleUnicode:Pokemon Emerald Battle Frontier Brain Remix
Artist:GlitchxCity
ArtistUnicode:GlitchxCity
Creator:TaikuGx
Version:Advanced
Source:Pokemon Emerald
Tags:Rayquaza Hoenn Game Freak Nintendo
BeatmapID:477215
BeatmapSetID:201569

[Difficulty]
HPDrainRate:5
CircleSize:4
OverallDifficulty:5
ApproachRate:6
SliderMultiplier:1.1
SliderTickRate:1

[Events]
//Background and Video events
0,0,"rayquaza.jpg",0,0
//Break Periods
2,58473,67329
//Storyboard Layer 0 (Background)
//Storyboard Layer 1 (Fail)
//Storyboard Layer 2 (Pass)
//Storyboard Layer 3 (Foreground)
//Storyboard Sound Samples
//Background Colour Transformations
3,100,163,162,255

[TimingPoints]
168,315.789473684211,4,2,0,50,1,0
5220,-100,4,2,0,70,0,0
10273,-100,4,2,0,75,0,0
12799,-100,4,2,0,80,0,0
108799,-100,4,2,0,100,0,1
126483,-100,4,2,0,100,0,0

[Colours]
Combo1 : 255,255,0
Combo2 : 0,128,0
Combo3 : 204,0,0
Combo4 : 0,0,0

[HitObjects]
152,216,168,6,0,P|192:312|312:320,2,220,0|0|0,0:0|0:0|0:0,0:0:0:0:
192,80,1747,1,0,0:0:0:0:
328,32,2063,2,0,P|384:49|424:90,1,110
308,159,2695,2,0,P|226:178|143:149,2,165,0|0|0,0:0|0:0|0:0,0:0:0:0:
432,201,3958,2,0,P|400:257|360:273,1,110
263,362,4589,2,0,P|227:314|239:250,1,110
328,176,5221,5,8,0:0:0:0:
436,104,5537,1,0,0:0:0:0:
312,32,5852,2,0,L|352:92,2,55,8|0|0,0:0|0:0|0:0,0:0:0:0:
168,40,6484,2,0,P|112:48|72:88,1,110,8|0,0:0|0:0,0:0:0:0:
176,168,7116,2,0,L|212:224,2,55,8|0|0,0:0|0:0|0:0,0:0:0:0:
92,268,7747,6,0,P|124:316|196:332,1,110,8|0,0:0|0:0,0:0:0:0:
211,340,8221,1,0,0:0:0:0:
254,334,8379,2,0,P|317:310|353:269,1,110,8|0,0:0|0:0,0:0:0:0:
404,161,9010,2,0,P|397:121|349:73,1,110,8|0,0:0|0:0,0:0:0:0:
226,24,9642,2,0,P|168:24|104:62,1,110,8|0,0:0|0:0,0:0:0:0:
80,171,10273,6,0,L|57:246,2,55,4|0|0,0:0|0:0|0:0,0:0:0:0:
212,170,10905,2,0,L|232:106,2,55,4|0|0,0:0|0:0|0:0,0:0:0:0:
344,167,11537,2,0,L|321:242,2,55,4|0|0,0:0|0:0|0:0,0:0:0:0:
476,166,12168,2,0,L|496:102,2,55,4|0|0,0:0|0:0|0:0,0:0:0:0:
400,272,12799,6,0,L|336:304,1,55,4|0,0:0|0:0,0:0:0:0:
320,304,13115,2,0,L|264:304,1,55
232,296,13431,2,0,L|168:272,1,55,4|0,0:0|0:0,0:0:0:0:
152,256,13746,2,0,L|104:208,1,55
96,192,14062,5,4,0:0:0:0:
80,128,14378,1,4,0:0:0:0:
96,64,14694,1,4,0:0:0:0:
136,16,15010,1,4,0:0:0:0:
256,192,15325,12,0,17536,0:0:0:0:
500,124,17852,5,6,0:0:0:0:
360,264,18325,1,0,0:0:0:0:
331,279,18483,1,2,0:0:0:0:
132,280,18958,1,0,0:0:0:0:
102,272,19116,2,0,P|52:240|36:179,1,110,2|0,0:0|0:0,0:0:0:0:
53,63,19747,6,0,P|106:78|147:130,1,110,2|0,0:0|0:0,0:0:0:0:
232,214,20379,2,0,P|299:269|379:266,2,165,2|0|2,0:0|0:0|0:0,0:0:0:0:
331,127,21641,2,0,P|284:87|231:81,1,110,2|0,0:0|0:0,0:0:0:0:
137,167,22273,2,0,P|124:222|153:283,1,110,2|0,0:0|0:0,0:0:0:0:
263,322,22905,6,0,P|327:318|378:281,1,110,6|0,0:0|0:0,0:0:0:0:
283,190,23537,2,0,P|309:128|291:79,1,110,2|0,0:0|0:0,0:0:0:0:
274,61,24010,1,0,0:0:0:0:
246,42,24168,2,0,P|183:32|132:58,1,110,2|0,0:0|0:0,0:0:0:0:
20,106,24800,6,0,P|5:140|5:181,1,55,2|0,0:0|0:0,0:0:0:0:
0,190,25116,2,0,P|0:226|10:252,1,55,2|0,0:0|0:0,0:0:0:0:
18,271,25431,2,0,P|63:331|152:352,2,165,6|0|2,0:0|0:0|0:0,0:0:0:0:
60,145,26695,1,2,0:0:0:0:
168,70,27010,1,2,0:0:0:0:
300,66,27325,1,2,0:0:0:0:
420,119,27642,1,2,0:0:0:0:
488,231,27958,6,0,P|494:296|452:348,1,110,6|0,0:0|0:0,0:0:0:0:
445,352,28431,2,0,P|413:370|385:373,1,55,0|2,0:0|0:0,0:0:0:0:
331,256,28905,1,0,0:0:0:0:
369,129,29221,2,0,P|312:124|248:152,1,110,2|0,0:0|0:0,0:0:0:0:
147,77,29852,2,0,P|129:129|137:183,1,110,2|0,0:0|0:0,0:0:0:0:
257,238,30483,6,0,B|216:326|108:316,2,165,6|0|2,0:0|0:0|0:0,0:0:0:0:
324,124,31747,1,2,0:0:0:0:
324,124,32063,1,2,0:0:0:0:
324,124,32379,1,2,0:0:0:0:
257,238,32695,2,0,L|294:294,2,55,2|0|6,0:0|0:0|0:0,0:0:0:0:
136,291,33326,5,0,0:0:0:0:
111,161,33642,2,0,P|131:97|176:62,1,110,2|0,0:0|0:0,0:0:0:0:
243,172,34273,2,0,P|297:168|341:199,1,110,2|0,0:0|0:0,0:0:0:0:
408,316,34904,2,0,P|452:288|466:227,1,110,2|0,0:0|0:0,0:0:0:0:
404,116,35537,2,0,L|453:65,2,55,6|0|0,0:0|0:0|0:0,0:0:0:0:
271,110,36168,2,0,L|227:158,2,55,2|0|0,0:0|0:0|0:0,0:0:0:0:
91,133,36800,6,0,P|96:170|113:195,1,55,2|0,0:0|0:0,0:0:0:0:
123,212,37115,2,0,P|141:241|169:255,1,55,2|0,0:0|0:0,0:0:0:0:
187,267,37431,2,0,P|233:279|262:274,1,55,2|0,0:0|0:0,0:0:0:0:
273,276,37747,2,0,P|321:271|344:256,1,55,2|0,0:0|0:0,0:0:0:0:
357,257,38063,1,6,0:0:0:0:
153,88,38695,5,4,0:0:0:0:
357,257,39326,1,4,0:0:0:0:
90,257,39958,1,4,0:0:0:0:
296,93,40589,1,4,0:0:0:0:
400,173,40905,1,4,0:0:0:0:
408,304,41221,1,4,0:0:0:0:
304,384,41537,1,4,0:0:0:0:
176,360,41852,2,0,P|128:328|112:265,1,110,4|4,0:0|0:0,0:0:0:0:
156,156,42484,2,4,P|208:192|224:240,1,110
348,80,43273,6,0,P|396:146|401:230,1,165,2|0,0:0|0:0,0:0:0:0:
276,188,44063,2,0,P|272:248|308:300,1,110,0|2,0:0|0:0,0:0:0:0:
412,352,44695,1,0,0:0:0:0:
504,256,45010,2,0,P|508:196|472:144,1,110,2|0,0:0|0:0,0:0:0:0:
372,84,45642,6,2,P|278:124|244:230,1,220
372,212,46589,1,0,0:0:0:0:
372,343,46904,2,2,P|465:302|500:195,1,220
372,212,47852,1,0,0:0:0:0:
248,164,48168,6,0,L|225:286,2,110,2|0|2,0:0|0:0|0:0,0:0:0:0:
208,48,49116,1,0,0:0:0:0:
116,144,49431,2,0,L|104:204,1,55,2|0,0:0|0:0,0:0:0:0:
248,336,50063,1,2,0:0:0:0:
372,284,50379,1,2,0:0:0:0:
462,187,50695,5,4,0:0:0:0:
264,188,51168,1,4,0:0:0:0:
366,18,51642,1,4,0:0:0:0:
367,216,52116,1,4,0:0:0:0:
200,108,52589,2,4,P|148:140|120:204,1,110
248,232,53221,5,4,0:0:0:0:
412,120,53695,1,4,0:0:0:0:
220,160,54168,1,4,0:0:0:0:
384,48,54642,1,4,0:0:0:0:
484,220,55116,2,4,P|456:279|400:303,1,110
288,308,55746,5,6,0:0:0:0:
172,248,56063,1,0,0:0:0:0:
124,124,56379,1,2,0:0:0:0:
208,24,56695,2,0,L|200:88,2,55,0|0|2,0:0|0:0|0:0,0:0:0:0:
259,145,57326,5,2,0:0:0:0:
292,272,57642,1,2,0:0:0:0:
163,304,57958,1,2,0:0:0:0:
129,176,58273,1,6,0:0:0:0:
351,111,68379,6,0,P|392:158|396:211,1,110,2|0,0:0|0:0,0:0:0:0:
307,303,69010,2,0,P|264:256|268:192,1,110,2|0,0:0|0:0,0:0:0:0:
212,88,69642,2,0,P|156:120|136:168,1,110,2|0,0:0|0:0,0:0:0:0:
144,292,70273,2,0,P|164:312|192:320,1,55,2|0,0:0|0:0,0:0:0:0:
221,324,70589,2,0,P|257:321|289:307,1,55,2|0,0:0|0:0,0:0:0:0:
306,304,70905,2,0,P|345:262|359:202,1,110,2|0,0:0|0:0,0:0:0:0:
298,94,71537,6,0,P|246:106|206:146,1,110,2|0,0:0|0:0,0:0:0:0:
148,263,72168,1,2,0:0:0:0:
148,263,72483,1,0,0:0:0:0:
269,311,72800,2,0,L|317:284,1,55,2|0,0:0|0:0,0:0:0:0:
339,259,73116,2,0,L|366:199,1,55,2|0,0:0|0:0,0:0:0:0:
369,176,73431,6,0,P|360:91|289:27,2,165,6|0|0,0:0|0:0|0:0,0:0:0:0:
305,292,74695,1,2,0:0:0:0:
173,289,75010,1,0,0:0:0:0:
89,186,75326,1,2,0:0:0:0:
151,69,75642,1,0,0:0:0:0:
280,42,75957,2,0,L|344:48,1,55,2|0,0:0|0:0,0:0:0:0:
360,64,76273,2,0,L|416:104,1,55,2|0,0:0|0:0,0:0:0:0:
424,128,76589,1,2,0:0:0:0:
408,256,76905,5,4,0:0:0:0:
224,320,77379,1,4,0:0:0:0:
56,216,77852,1,4,0:0:0:0:
112,96,78168,1,4,0:0:0:0:
237,51,78483,6,0,L|296:35,1,55,6|0,0:0|0:0,0:0:0:0:
390,132,78958,2,0,L|297:196,1,110,2|0,0:0|0:0,0:0:0:0:
256,196,79431,2,0,L|156:124,1,110,2|0,0:0|0:0,0:0:0:0:
100,20,80062,2,0,P|48:56|40:112,2,110,0|2|0,0:0|0:0|0:0,0:0:0:0:
224,80,81010,6,0,L|280:120,1,55,2|0,0:0|0:0,0:0:0:0:
300,144,81326,2,0,L|332:192,1,55,2|0,0:0|0:0,0:0:0:0:
348,228,81642,2,0,P|368:288|361:343,2,110,2|0|2,0:0|0:0|0:0,0:0:0:0:
384,100,82589,1,0,0:0:0:0:
272,28,82905,2,0,P|205:29|159:70,1,110,2|0,0:0|0:0,0:0:0:0:
124,176,83537,6,0,L|124:231,1,55,6|0,0:0|0:0,0:0:0:0:
240,292,84010,1,2,0:0:0:0:
357,231,84326,1,2,0:0:0:0:
357,98,84642,1,2,0:0:0:0:
240,35,84958,1,2,0:0:0:0:
139,120,85273,1,2,0:0:0:0:
138,153,85431,2,0,P|143:215|192:260,1,110,2|0,0:0|0:0,0:0:0:0:
286,317,86063,6,4,B|332:206|397:258|417:141,1,220
184,20,87325,2,4,B|165:130|100:78|54:189,1,220
289,310,88589,1,4,0:0:0:0:
362,200,88905,1,4,0:0:0:0:
334,70,89221,2,4,P|291:31|221:22,1,110
256,192,89852,12,6,91116,0:0:0:0:
296,113,91431,6,0,P|350:151|363:208,2,110,0|2|0,0:0|0:0|0:0,0:0:0:0:
164,128,92379,2,0,L|119:166,1,55,2|0,0:0|0:0,0:0:0:0:
243,319,93010,2,0,P|306:308|351:261,1,110,2|0,0:0|0:0,0:0:0:0:
414,169,93642,2,0,P|359:78|244:96,1,220,2|2,0:0|0:0,0:0:0:0:
7,173,94904,2,0,P|62:82|172:92,1,220,2|2,0:0|0:0,0:0:0:0:
176,352,96168,5,6,0:0:0:0:
176,220,96484,1,0,0:0:0:0:
296,276,96800,1,2,0:0:0:0:
292,144,97116,1,0,0:0:0:0:
296,276,97431,2,0,P|378:304|447:270,2,165,2|0|2,0:0|0:0|0:0,0:0:0:0:
176,220,98695,5,4,0:0:0:0:
368,180,99168,1,4,0:0:0:0:
220,312,99642,1,4,0:0:0:0:
284,124,100116,1,4,0:0:0:0:
312,320,100589,2,4,P|360:308|384:256,1,110
480,164,101221,5,4,0:0:0:0:
284,124,101695,1,4,0:0:0:0:
476,76,102168,1,4,0:0:0:0:
324,204,102642,1,4,0:0:0:0:
400,24,103115,1,4,0:0:0:0:
400,24,103431,1,4,0:0:0:0:
268,40,103747,5,4,0:0:0:0:
128,180,104221,1,4,0:0:0:0:
324,204,104695,2,4,L|324:264,1,55
128,288,105326,1,4,0:0:0:0:
128,288,105641,1,4,0:0:0:0:
128,288,105957,1,4,0:0:0:0:
256,192,106273,12,0,108484,0:0:0:0:
339,142,108800,6,0,L|385:192,2,55,12|0|0,0:0|0:0|0:0,0:0:0:0:
239,55,109431,2,0,L|188:96,2,55,8|0|0,0:0|0:0|0:0,0:0:0:0:
145,148,110063,2,0,L|122:216,1,55,8|0,0:0|0:0,0:0:0:0:
130,233,110379,2,0,L|145:290,1,55
167,309,110695,2,0,L|216:343,1,55,8|0,0:0|0:0,0:0:0:0:
244,344,111010,2,0,L|306:346,1,55
331,337,111325,2,0,P|391:303|405:253,2,110,8|0|8,0:0|0:0|0:0,0:0:0:0:
292,212,112273,5,0,0:0:0:0:
396,128,112589,2,0,P|352:88|284:84,1,110,8|0,0:0|0:0,0:0:0:0:
208,172,113221,2,0,P|152:160|120:108,1,110,8|0,0:0|0:0,0:0:0:0:
232,48,113852,2,0,L|265:3,2,55,12|0|0,0:0|0:0|0:0,0:0:0:0:
320,148,114483,2,0,L|287:193,2,55,8|0|0,0:0|0:0|0:0,0:0:0:0:
376,268,115116,6,0,L|323:282,1,55,8|0,0:0|0:0,0:0:0:0:
292,288,115431,2,0,L|233:281,1,55
208,268,115747,2,0,L|163:224,1,55,8|0,0:0|0:0,0:0:0:0:
152,200,116063,2,0,L|140:140,1,55
148,112,116379,2,0,P|176:56|226:29,2,110,8|0|8,0:0|0:0|0:0,0:0:0:0:
272,152,117326,5,0,0:0:0:0:
316,276,117642,1,8,0:0:0:0:
192,324,117958,1,0,0:0:0:0:
152,200,118273,1,8,0:0:0:0:
164,168,118431,1,8,0:0:0:0:
184,140,118589,1,8,0:0:0:0:
208,120,118747,1,8,0:0:0:0:
236,104,118905,2,0,P|302:84|352:93,1,110,12|0,0:0|0:0,0:0:0:0:
416,200,119536,2,0,P|350:220|300:211,1,110,8|0,0:0|0:0,0:0:0:0:
221,331,120168,6,0,L|176:284,1,55,8|0,0:0|0:0,0:0:0:0:
164,264,120483,2,0,L|152:208,1,55,8|0,0:0|0:0,0:0:0:0:
156,176,120800,2,0,L|176:112,1,55,8|0,0:0|0:0,0:0:0:0:
192,96,121116,2,0,L|244:60,1,55,8|0,0:0|0:0,0:0:0:0:
268,56,121431,2,0,P|332:56|388:96,1,110,12|0,0:0|0:0,0:0:0:0:
395,207,122062,2,0,P|331:207|275:167,1,110,8|0,0:0|0:0,0:0:0:0:
192,96,122695,6,0,L|136:92,1,55,8|0,0:0|0:0,0:0:0:0:
107,105,123010,2,0,L|47:141,1,55,8|0,0:0|0:0,0:0:0:0:
41,161,123326,2,0,L|17:229,1,55,8|0,0:0|0:0,0:0:0:0:
23,245,123641,2,0,L|31:317,1,55,8|0,0:0|0:0,0:0:0:0:
256,192,123957,12,0,125851,0:0:0:0:
257,191,126484,5,4,0:0:0:0:
