osu file format v14

[General]
AudioFilename: Glee Cast - Jingle Bell Rock (Glee Cast Version).mp3
AudioLeadIn: 0
PreviewTime: 8921
Countdown: 0
SampleSet: Soft
StackLeniency: 0.3
Mode: 0
LetterboxInBreaks: 0
WidescreenStoryboard: 0

[Editor]
Bookmarks: 7629,59472,72103,151643
DistanceSpacing: 1.4
BeatDivisor: 6
GridSize: 4
TimelineZoom: 1.1

[Metadata]
Title:Jingle Bell Rock (Glee Cast Version)
TitleUnicode:Jingle Bell Rock (Glee Cast Version)
Artist:Glee Cast
ArtistUnicode:Glee Cast
Creator:Gero
Version:Tough
Source:Glee
Tags:Natsu Euny Collab Collaboration Sam Evans Chord Overstreet TV Show Glee: The Music, The Christmas Album Volume 3 Columbia Records X-mas Merry Christmas Xmas White Snow Santa Claus
BeatmapID:817931
BeatmapSetID:373351

[Difficulty]
HPDrainRate:7
CircleSize:4
OverallDifficulty:7
ApproachRate:8
SliderMultiplier:1.6
SliderTickRate:1

[Events]
//Background and Video events
0,0,"BG.jpg",0,0
//Break Periods
2,59672,71353
//Storyboard Layer 0 (Background)
//Storyboard Layer 1 (Fail)
//Storyboard Layer 2 (Pass)
//Storyboard Layer 3 (Foreground)
//Storyboard Sound Samples

[TimingPoints]
2630,394.736842105263,4,2,1,60,1,0
43682,-125,4,2,1,60,0,0
45261,-100,4,2,1,60,0,0
84735,-125,4,2,1,60,0,0
96051,-100,4,2,1,60,0,0
97366,-100,4,2,1,60,0,1
109866,-100,4,2,1,60,0,0
109998,-100,4,2,1,60,0,1
119472,-125,4,2,1,60,0,0
121051,-100,4,2,1,60,0,0
122629,-100,4,2,1,60,0,1
128814,-100,4,2,1,60,0,0
128945,-100,4,2,1,60,0,1
136708,-100,4,2,1,60,0,0
136840,-100,4,2,1,60,0,1
136972,-100,4,2,1,60,0,0

[Colours]
Combo1 : 180,145,71
Combo2 : 98,198,55
Combo3 : 57,148,196
Combo4 : 241,37,68
SliderBorder : 0,0,0
SliderTrackOverride : 193,193,193

[HitObjects]
496,192,7629,5,0,1:0:0:0:
444,252,7761,2,0,B|412:236|394:192|394:192|412:148|444:132,2,160,2|2|2,1:2|1:2|1:2,0:0:0:0:
444,252,8945,6,0,B|412:252|412:252|376:252|345:282,1,106.666666666667,4|0,3:2|0:0,0:0:0:0:
282,330,9340,2,0,P|266:280|282:230,1,106.666666666667,8|0,0:0|0:0,0:0:0:0:
337,72,9735,2,0,P|353:122|337:172,1,106.666666666667,2|0,3:2|0:0,0:0:0:0:
281,16,10130,2,0,L|389:16,1,106.666666666667,8|0,0:0|0:0,0:0:0:0:
272,124,10524,6,0,L|164:124,1,106.666666666667,2|0,3:2|0:0,0:0:0:0:
116,60,10919,1,8,0:0:0:0:
24,192,11182,1,0,0:0:0:0:
88,240,11314,2,0,B|88:212|108:192|108:192|88:172|88:144,1,106.666666666667,2|2,3:2|0:3,0:0:0:0:
188,192,11708,2,0,B|188:220|168:240|168:240|188:260|188:288,1,106.666666666667,8|0,0:0|0:0,0:0:0:0:
240,352,12103,6,0,P|189:335|139:351,1,106.666666666667,2|0,3:2|0:0,0:0:0:0:
256,244,12498,2,0,P|306:260|356:244,1,106.666666666667,8|0,0:0|3:0,0:0:0:0:
416,192,12893,2,0,L|348:340,1,160,2|8,3:2|0:0,0:0:0:0:
305,183,13551,1,0,0:0:0:0:
305,183,13682,5,2,3:2:0:0:
256,32,13945,1,0,0:0:0:0:
256,32,14076,1,8,0:0:0:0:
207,183,14340,1,0,0:3:0:0:
207,183,14472,2,0,P|190:233|206:283,1,106.666666666667,2|2,3:2|0:3,0:0:0:0:
305,283,14866,2,0,P|321:233|305:183,1,106.666666666667,8|0,0:0|0:0,0:0:0:0:
361,126,15261,5,2,3:2:0:0:
485,21,15524,1,0,0:0:0:0:
485,21,15656,2,0,L|507:133,1,106.666666666667,8|0,0:0|0:0,0:0:0:0:
412,266,16051,2,0,L|432:161,1,106.666666666667,2|2,3:2|0:3,0:0:0:0:
361,126,16445,1,8,0:0:0:0:
207,183,16708,1,0,0:0:0:0:
207,183,16840,6,0,P|156:199|106:183,1,106.666666666667,2|0,3:2|0:0,0:0:0:0:
44,136,17235,2,0,L|60:248,1,106.666666666667,8|0,0:0|0:0,0:0:0:0:
16,308,17629,2,0,L|121:292,1,106.666666666667,2|2,3:2|0:3,0:0:0:0:
196,320,18024,1,8,0:0:0:0:
348,364,18287,1,0,0:0:0:0:
348,364,18419,6,0,B|368:380|396:386|396:386|424:380|444:364,1,106.666666666667,2|0,3:2|0:0,0:0:0:0:
396,204,18814,2,0,B|380:224|374:252|374:252|380:280|396:300,1,106.666666666667,8|0,0:0|0:0,0:0:0:0:
472,192,19208,2,0,B|488:172|494:144|494:144|488:116|472:96,1,106.666666666667,2|0,3:2|0:0,0:0:0:0:
396,56,19603,2,0,L|496:16,1,106.666666666667,8|0,0:0|0:0,0:0:0:0:
340,132,19998,6,0,L|240:92,1,106.666666666667,2|2,3:2|0:3,0:0:0:0:
184,35,20393,1,8,0:0:0:0:
268,192,20656,1,0,1:0:0:0:
268,192,20787,2,0,B|274:218|274:218|268:244,2,53.3333333333333,2|0|0,0:0|1:0|1:0,0:0:0:0:
192,252,21182,2,0,L|276:324,1,106.666666666667,8|0,0:0|1:0,0:0:0:0:
392,368,21577,5,4,3:2:0:0:
488,192,21840,1,0,0:0:0:0:
424,144,21972,2,0,B|424:172|404:192|404:192|424:212|424:240,1,106.666666666667,10|0,1:2|0:0,0:0:0:0:
348,140,22366,2,0,B|428:60,1,106.666666666667,2|0,3:2|0:0,0:0:0:0:
304,56,22761,2,0,B|228:131,1,106.666666666667,10|0,1:2|0:0,0:0:0:0:
176,192,23156,5,2,3:2:0:0:
40,108,23419,1,0,0:0:0:0:
40,108,23551,2,0,P|24:58|40:8,1,106.666666666667,10|2,1:2|0:3,0:0:0:0:
117,142,23945,2,0,P|133:192|117:242,1,106.666666666667,2|2,3:2|0:3,0:0:0:0:
60,298,24340,1,10,1:2:0:0:
216,268,24603,1,0,0:0:0:0:
216,268,24735,6,0,B|248:248|288:260|288:260|324:272,1,106.666666666667,2|0,3:2|0:0,0:0:0:0:
392,316,25129,2,0,L|380:209,1,106.666666666667,10|0,1:2|0:0,0:0:0:0:
476,256,25524,2,0,L|487:149,1,106.666666666667,2|0,3:2|0:0,0:0:0:0:
431,93,25919,1,10,1:2:0:0:
306,192,26182,1,0,3:0:0:0:
306,192,26314,6,0,P|256:208|206:192,1,106.666666666667,2|0,3:2|0:0,0:0:0:0:
143,142,26708,2,0,P|159:192|143:242,1,106.666666666667,8|2,1:2|0:3,0:0:0:0:
93,304,27103,2,0,P|143:288|193:304,1,106.666666666667,2|2,3:2|0:3,0:0:0:0:
256,354,27497,2,0,P|240:304|256:254,1,106.666666666667,10|0,1:2|3:0,0:0:0:0:
306,192,27893,5,2,3:2:0:0:
431,93,28156,1,0,0:0:0:0:
431,93,28287,2,0,B|394:56|394:56|340:56,1,106.666666666667,10|0,1:2|0:0,0:0:0:0:
452,172,28682,2,0,L|512:84,1,106.666666666667,2|0,3:0|0:0,0:0:0:0:
376,160,29077,2,0,L|436:248,1,106.666666666667,10|0,1:2|0:0,0:0:0:0:
488,308,29472,5,2,3:2:0:0:
340,244,29735,1,0,0:0:0:0:
340,244,29866,2,0,P|290:228|240:244,1,106.666666666667,10|2,1:2|0:3,0:0:0:0:
387,308,30261,2,0,P|437:324|487:308,1,106.666666666667,2|2,3:2|0:3,0:0:0:0:
436,248,30656,1,10,1:2:0:0:
291,304,30919,1,0,0:0:0:0:
291,304,30985,1,0,0:0:0:0:
291,304,31051,6,0,L|176:296,1,106.666666666667,2|0,3:2|0:0,0:0:0:0:
105,212,31445,2,0,L|212:220,1,106.666666666667,10|0,1:2|3:0,0:0:0:0:
44,260,31840,2,0,P|28:210|44:160,1,106.666666666667,2|0,3:2|0:0,0:0:0:0:
115,23,32235,2,0,P|132:73|116:124,1,106.666666666667,10|2,1:2|0:3,0:0:0:0:
52,76,32629,5,2,3:2:0:0:
212,56,32893,1,0,0:0:0:0:
212,56,33024,2,0,L|327:48,1,106.666666666667,10|0,1:2|0:0,0:0:0:0:
375,105,33419,2,0,L|428:101,2,53.3333333333333,0|0|0,1:0|1:0|1:0,0:0:0:0:
318,161,33814,2,0,L|264:157,2,53.3333333333333,0|0|0,1:0|1:0|1:0,0:0:0:0:
374,217,34208,6,0,P|390:267|374:317,1,106.666666666667,4|0,3:2|0:0,0:0:0:0:
324,380,34603,2,0,L|439:372,1,106.666666666667,10|2,1:2|0:3,0:0:0:0:
311,267,34998,2,0,L|204:274,1,106.666666666667,2|0,3:2|0:0,0:0:0:0:
151,331,35393,1,10,1:2:0:0:
201,117,35656,1,0,0:0:0:0:
138,167,35787,6,0,P|122:117|138:67,1,106.666666666667,2|0,3:2|0:0,0:0:0:0:
188,4,36182,2,0,L|73:12,1,106.666666666667,10|2,1:2|0:3,0:0:0:0:
201,117,36577,2,0,L|307:109,1,106.666666666667,2|0,3:2|0:0,0:0:0:0:
361,53,36972,1,10,1:2:0:0:
311,267,37235,1,0,0:0:0:0:
374,217,37366,6,0,P|390:267|374:317,1,106.666666666667,2|2,3:2|0:3,0:0:0:0:
138,317,37761,2,0,P|122:267|138:217,1,106.666666666667,10|0,1:2|0:0,0:0:0:0:
311,167,38156,2,0,B|329:217|329:217|311:267,1,106.666666666667,2|0,3:2|0:0,0:0:0:0:
201,267,38551,2,0,B|183:217|183:217|201:167,1,106.666666666667,10|2,1:2|0:0,0:0:0:0:
208,159,38879,1,2,0:0:0:0:
215,151,38945,1,2,3:2:0:0:
284,52,39143,2,0,L|267:32,2,26.6666666666667,2|2|2,0:0|0:0|0:0,0:0:0:0:
256,20,39340,6,0,L|362:31,1,106.666666666667,0|0,1:0|1:0,0:0:0:0:
452,88,39735,2,0,L|459:35,2,53.3333333333333,0|0|0,1:0|1:0|1:0,0:0:0:0:
376,192,40129,2,0,L|368:139,2,53.3333333333333,0|0|0,1:0|1:0|1:0,0:0:0:0:
448,236,40524,6,0,P|376:206|304:236,1,160,4|10,3:2|1:2,0:0:0:0:
376,376,41182,1,2,0:3:0:0:
376,376,41314,2,0,B|396:360|405:332|405:332|396:304|376:288,1,106.666666666667,2|0,3:2|0:0,0:0:0:0:
304,148,41708,2,0,B|284:164|275:192|275:192|284:220|304:236,1,106.666666666667,10|0,1:2|0:0,0:0:0:0:
376,192,42103,5,2,3:2:0:0:
256,84,42366,1,0,0:0:0:0:
256,84,42498,1,10,1:2:0:0:
136,192,42761,1,0,1:0:0:0:
136,192,42893,1,2,1:2:0:0:
256,300,43156,1,0,1:0:0:0:
256,300,43288,1,10,1:2:0:0:
376,192,43551,1,0,1:0:0:0:
376,192,43682,6,0,P|398:133|376:74,1,128,4|8,3:2|0:0,0:0:0:0:
135,74,44472,2,0,P|114:133|136:192,1,128,0|8,0:0|0:0,0:0:0:0:
256,300,45261,5,0,0:0:0:0:
328,134,45524,1,0,1:0:0:0:
328,134,45656,2,0,B|288:134|256:104|256:104|224:134|184:134,2,160,0|0|0,1:0|1:0|1:0,0:0:0:0:
328,134,46840,6,0,P|343:83|328:34,1,106.666666666667,4|0,3:2|0:0,0:0:0:0:
423,142,47235,2,0,P|407:192|423:242,1,106.666666666667,10|0,1:2|0:0,0:0:0:0:
479,298,47629,1,2,3:2:0:0:
328,250,47893,1,0,0:0:0:0:
328,250,48024,2,0,B|278:250|278:250|238:290,1,106.666666666667,10|0,1:2|0:0,0:0:0:0:
308,328,48419,6,0,L|404:276,1,106.666666666667,2|0,3:2|0:0,0:0:0:0:
238,290,48814,2,0,L|144:340,1,106.666666666667,10|2,1:2|0:3,0:0:0:0:
96,276,49208,1,2,3:2:0:0:
16,136,49472,1,2,0:3:0:0:
79,86,49603,2,0,P|95:136|79:186,1,106.666666666667,10|0,1:2|1:0,0:0:0:0:
194,136,49998,6,0,P|177:85|193:35,1,106.666666666667,2|0,3:2|0:0,0:0:0:0:
318,35,50393,2,0,P|334:85|318:136,1,106.666666666667,10|0,1:2|0:0,0:0:0:0:
194,248,50787,2,0,P|177:298|193:348,1,106.666666666667,2|0,3:2|0:0,0:0:0:0:
318,348,51182,2,0,P|334:298|318:248,1,106.666666666667,10|0,1:2|0:0,0:0:0:0:
256,298,51577,6,0,L|392:384,1,160,2|10,3:2|1:2,0:0:0:0:
504,270,52235,1,0,0:0:0:0:
441,219,52366,2,0,P|425:269|441:319,1,106.666666666667,2|0,3:2|0:0,0:0:0:0:
326,269,52761,2,0,P|343:218|327:168,1,106.666666666667,10|0,1:2|1:0,0:0:0:0:
272,112,53156,6,0,L|380:112,1,106.666666666667,4|0,3:2|0:0,0:0:0:0:
208,172,53551,2,0,L|101:172,1,106.666666666667,10|0,1:2|0:0,0:0:0:0:
260,92,53945,6,0,L|368:92,1,106.666666666667,4|0,3:2|0:0,0:0:0:0:
196,152,54340,2,0,L|89:152,1,106.666666666667,10|0,1:2|0:0,0:0:0:0:
24,108,54735,5,4,3:2:0:0:
120,228,54998,1,0,0:0:0:0:
120,228,55129,2,0,B|120:256|140:276|140:276|120:296|120:324,1,106.666666666667,10|0,1:2|0:0,0:0:0:0:
24,203,55524,2,0,B|24:175|4:155|4:155|24:135|24:107,1,106.666666666667,4|2,3:2|0:3,0:0:0:0:
80,52,55919,2,0,P|24:52|-12:16,1,106.666666666667,10|2,1:2|0:3,0:0:0:0:
152,16,56314,6,0,P|208:16|244:52,1,106.666666666667,2|0,3:2|0:0,0:0:0:0:
296,116,56708,2,0,L|312:8,1,106.666666666667,10|0,1:2|0:0,0:0:0:0:
172,88,57103,2,0,L|156:193,1,106.666666666667,4|0,3:2|0:0,0:0:0:0:
308,136,57498,6,0,L|324:28,1,106.666666666667,10|0,1:2|0:0,0:0:0:0:
184,108,57893,2,0,L|168:213,1,106.666666666667,2|0,3:2|1:0,0:0:0:0:
224,269,58287,5,10,1:2:0:0:
337,382,58551,1,0,1:0:0:0:
337,382,58682,2,0,L|348:317,2,53.3333333333333,0|0|0,1:0|1:0|1:0,0:0:0:0:
424,296,59077,2,0,L|412:228,2,53.3333333333333,10|0|0,1:2|1:0|1:0,0:0:0:0:
511,210,59472,5,4,3:2:0:0:
399,305,72103,6,0,P|349:321|299:305,1,106.666666666667,4|0,3:2|0:0,0:0:0:0:
163,242,72498,2,0,P|147:192|163:142,1,106.666666666667,10|0,1:2|0:0,0:0:0:0:
348,141,72893,2,0,P|365:191|349:242,1,106.666666666667,2|0,3:2|0:0,0:0:0:0:
213,304,73287,2,0,P|163:321|113:305,1,106.666666666667,10|0,1:2|0:0,0:0:0:0:
48,260,73682,6,0,L|63:365,1,106.666666666667,2|0,3:2|0:0,0:0:0:0:
163,242,74077,2,0,L|147:136,1,106.666666666667,10|0,1:2|0:0,0:0:0:0:
90,79,74472,1,2,3:2:0:0:
256,192,74735,1,2,0:3:0:0:
256,192,74866,2,0,P|306:208|356:192,1,106.666666666667,10|0,1:2|3:0,0:0:0:0:
420,144,75261,6,0,B|436:164|442:192|442:192|436:220|420:240,1,106.666666666667,2|0,3:2|0:0,0:0:0:0:
304,124,75656,2,0,B|288:104|282:76|282:76|288:48|304:28,1,106.666666666667,10|0,1:2|0:0,0:0:0:0:
408,156,76051,6,0,B|424:176|430:204|430:204|424:232|408:252,1,106.666666666667,2|2,3:2|0:3,0:0:0:0:
292,136,76446,2,0,B|276:116|270:88|270:88|276:60|292:40,1,106.666666666667,10|0,1:2|0:0,0:0:0:0:
356,88,76840,5,2,3:2:0:0:
204,132,77103,1,0,0:0:0:0:
204,132,77235,2,0,B|172:152|132:140|132:140|96:128,1,106.666666666667,10|0,1:2|0:0,0:0:0:0:
60,60,77629,2,0,B|92:40|132:52|132:52|168:64,1,106.666666666667,2|2,3:2|0:3,0:0:0:0:
204,132,78024,1,10,1:2:0:0:
256,284,78287,1,0,0:0:0:0:
256,284,78353,1,0,0:0:0:0:
256,284,78419,6,0,L|361:266,1,106.666666666667,2|0,3:2|0:0,0:0:0:0:
412,204,78814,2,0,L|429:309,1,106.666666666667,10|0,1:2|0:0,0:0:0:0:
338,193,79208,2,0,L|356:88,1,106.666666666667,2|0,3:2|0:0,0:0:0:0:
416,36,79603,1,10,1:2:0:0:
276,100,79866,1,0,0:0:0:0:
276,100,79998,6,0,P|226:117|175:101,1,106.666666666667,2|0,3:2|0:0,0:0:0:0:
108,144,80393,2,0,P|57:128|8:145,1,106.666666666667,10|2,1:2|0:3,0:0:0:0:
8,238,80787,2,0,P|57:255|108:240,1,106.666666666667,2|2,3:2|0:3,0:0:0:0:
176,282,81182,2,0,P|226:267|276:284,1,106.666666666667,10|0,1:2|3:0,0:0:0:0:
332,340,81577,5,2,3:2:0:0:
388,192,81840,1,0,0:0:0:0:
464,220,81972,2,0,L|429:119,1,106.666666666667,10|0,1:2|0:0,0:0:0:0:
355,78,82366,2,0,L|456:44,1,106.666666666667,2|0,3:2|0:0,0:0:0:0:
304,148,82761,2,0,L|203:113,1,106.666666666667,10|0,1:2|0:0,0:0:0:0:
173,42,83156,6,0,P|203:114|173:186,1,160,2|10,3:2|1:2,0:0:0:0:
66,306,83814,1,0,0:0:0:0:
66,306,83945,2,0,L|16:287,2,53.3333333333333,0|0|0,1:0|1:0|1:0,0:0:0:0:
122,249,84340,2,0,L|172:268,2,53.3333333333333,10|0|0,1:2|1:0|1:0,0:0:0:0:
65,192,84735,5,4,3:2:0:0:
173,42,85129,2,0,B|232:62|256:133|256:133|280:62|339:42,1,256,8|8,0:0|0:0,0:0:0:0:
447,192,86314,1,0,0:0:0:0:
339,342,86708,2,0,B|280:322|256:251|256:251|232:322|173:342,1,256,8|8,0:0|0:0,0:0:0:0:
65,192,87893,6,0,P|46:132|65:72,1,128,0|8,0:0|0:0,0:0:0:0:
256,132,88682,2,0,P|275:192|256:252,1,128,0|8,0:0|0:0,0:0:0:0:
65,313,89472,2,0,L|2:250,1,85.3333333333333
65,192,89866,2,0,L|2:129,1,85.3333333333333,8|0,0:0|0:0,0:0:0:0:
68,76,90261,2,0,B|100:36|144:36|144:36|184:36,1,128,0|8,0:0|0:0,0:0:0:0:
364,136,91051,6,0,P|324:176|324:252,1,128,0|8,0:0|0:0,0:0:0:0:
148,136,91840,2,0,P|188:176|188:252,1,128,0|8,0:0|0:0,0:0:0:0:
368,316,92629,1,0,0:0:0:0:
256,180,93024,1,8,0:0:0:0:
144,316,93419,1,0,0:0:0:0:
320,244,93814,6,0,P|256:155|192:244,1,256,8|8,0:0|0:0,0:0:0:0:
318,89,94998,2,0,P|256:75|194:89,1,128,0|8,0:0|0:0,0:0:0:0:
256,272,95787,1,0,0:0:0:0:
256,272,96051,6,0,L|256:208,1,53.3333333333333,0|0,1:0|1:0,0:0:0:0:
340,356,96445,2,0,P|356:332|380:320,1,53.3333333333333,0|0,1:0|1:0,0:0:0:0:
172,356,96840,2,0,P|156:332|132:320,1,53.3333333333333,0|0,1:0|1:0,0:0:0:0:
40,192,97235,1,0,1:0:0:0:
40,192,97366,6,0,B|10:161|10:125|10:125|10:93,1,106.666666666667,4|0,3:2|0:0,0:0:0:0:
128,64,97761,2,0,B|158:95|158:131|158:131|158:163,1,106.666666666667,10|0,1:2|0:0,0:0:0:0:
84,128,98156,2,0,L|60:16,1,106.666666666667,2|0,3:2|0:0,0:0:0:0:
225,124,98551,2,0,L|201:236,1,106.666666666667,10|0,1:2|0:0,0:0:0:0:
156,295,98945,5,2,3:2:0:0:
296,192,99208,1,0,0:0:0:0:
296,192,99340,2,0,P|347:175|397:191,1,106.666666666667,10|2,1:2|0:3,0:0:0:0:
256,293,99735,2,0,P|206:310|156:295,1,106.666666666667,2|2,3:2|0:3,0:0:0:0:
81,248,100129,2,0,B|81:276|61:296|61:296|81:316|81:344,1,106.666666666667,10|0,1:2|0:0,0:0:0:0:
4,240,100524,6,0,B|4:212|24:192|24:192|4:172|4:144,1,106.666666666667,2|2,3:2|0:3,0:0:0:0:
84,40,100919,2,0,B|84:68|64:88|64:88|84:108|84:136,1,106.666666666667,10|0,1:2|0:0,0:0:0:0:
156,88,101314,2,0,P|206:73|256:90,1,106.666666666667,2|0,3:2|0:0,0:0:0:0:
308,156,101708,1,10,1:2:0:0:
256,308,101972,1,0,0:0:0:0:
256,308,102103,5,2,3:2:0:0:
204,156,102366,1,0,0:0:0:0:
204,156,102497,1,10,1:2:0:0:
328,260,102761,1,2,0:3:0:0:
328,260,102893,2,0,P|345:310|329:360,1,106.666666666667,2|2,3:2|0:3,0:0:0:0:
182,359,103287,2,0,P|167:309|184:260,1,106.666666666667,10|10,1:2|1:2,0:0:0:0:
256,220,103682,5,2,3:2:0:0:
306,68,103945,1,2,0:3:0:0:
306,68,104077,2,0,B|256:50|256:50|206:68,1,106.666666666667,10|0,1:2|0:0,0:0:0:0:
144,120,104472,2,0,B|162:70|162:70|144:20,1,106.666666666667,2|0,3:2|0:0,0:0:0:0:
80,68,104866,2,0,B|62:118|62:118|80:168,1,106.666666666667,10|0,1:2|0:0,0:0:0:0:
23,225,105261,5,2,3:2:0:0:
108,360,105524,1,0,0:0:0:0:
108,360,105656,2,0,P|158:375|207:358,1,106.666666666667,10|2,1:2|0:3,0:0:0:0:
300,280,106051,2,0,B|272:269|256:251|256:251|240:269|212:280,1,106.666666666667,2|2,3:2|0:3,0:0:0:0:
304,358,106445,2,0,P|353:375|404:360,1,106.666666666667,10|0,1:2|0:0,0:0:0:0:
460,303,106840,5,2,3:2:0:0:
304,192,107103,1,0,0:0:0:0:
304,192,107235,2,0,B|284:176|256:170|256:170|228:176|208:192,1,106.666666666667,10|0,1:2|0:0,0:0:0:0:
148,240,107629,2,0,B|132:220|126:192|126:192|132:164|148:144,1,106.666666666667,2|0,3:2|0:0,0:0:0:0:
364,144,108024,2,0,B|380:164|386:192|386:192|380:220|364:240,1,106.666666666667,10|0,1:2|0:0,0:0:0:0:
256,352,108419,5,0,1:0:0:0:
148,240,108682,1,0,1:0:0:0:
148,240,108814,2,0,L|104:196,2,53.3333333333333,10|0|0,1:2|1:0|1:0,0:0:0:0:
256,192,109208,2,0,L|256:136,2,53.3333333333333,0|0|0,1:0|1:0|1:0,0:0:0:0:
364,240,109603,2,0,L|408:196,2,53.3333333333333,10|0|0,1:2|2:0|1:0,0:0:0:0:
256,352,109998,5,4,3:2:0:0:
148,240,110261,1,0,0:0:0:0:
91,183,110393,2,0,B|91:155|71:135|71:135|91:115|91:87,1,106.666666666667,10|0,1:2|1:0,0:0:0:0:
96,8,110787,2,0,B|172:84,1,106.666666666667,2|0,3:2|0:0,0:0:0:0:
228,27,111182,2,0,B|304:102,1,106.666666666667,10|0,1:2|0:0,0:0:0:0:
368,152,111578,6,0,P|352:102|368:52,1,106.666666666667,2|0,3:2|0:0,0:0:0:0:
481,164,111972,2,0,P|497:214|480:264,1,106.666666666667,10|0,1:2|0:0,0:0:0:0:
360,140,112366,6,0,P|344:90|360:40,1,106.666666666667,2|0,3:2|0:0,0:0:0:0:
473,152,112760,2,0,P|489:202|472:252,1,106.666666666667,10|0,1:2|0:0,0:0:0:0:
415,309,113156,6,0,B|383:309|383:309|347:309|316:279,1,106.666666666667,2|2,3:2|0:3,0:0:0:0:
212,368,113551,2,0,P|256:342|300:368,1,106.666666666667,10|0,1:2|0:0,0:0:0:0:
196,279,113945,2,0,B|165:309|129:309|129:309|97:309,1,106.666666666667,2|0,3:2|0:0,0:0:0:0:
39,252,114340,2,0,P|22:202|39:152,1,106.666666666667,10|2,1:2|0:3,0:0:0:0:
108,112,114735,6,0,B|56:112|56:112|17:73,1,106.666666666667,2|0,3:2|0:0,0:0:0:0:
176,68,115129,2,0,B|196:84|204:112|204:112|196:140|176:156,1,106.666666666667,10|0,1:2|1:0,0:0:0:0:
256,292,115524,2,0,B|236:276|228:248|228:248|236:220|256:204,1,106.666666666667,2|0,3:2|0:0,0:0:0:0:
324,248,115919,1,10,1:2:0:0:
448,348,116182,1,0,1:0:0:0:
448,348,116314,6,0,L|344:380,1,106.666666666667,4|0,3:2|0:0,0:0:0:0:
289,323,116708,2,0,L|187:354,1,106.666666666667,14|2,1:2|0:3,0:0:0:0:
136,292,117103,2,0,P|119:241|136:191,1,106.666666666667,2|0,3:2|0:0,0:0:0:0:
198,141,117498,2,0,P|214:91|198:41,1,106.666666666667,10|0,1:2|0:0,0:0:0:0:
136,92,117893,5,2,1:2:0:0:
12,192,118156,1,0,1:0:0:0:
12,192,118287,1,10,1:2:0:0:
136,292,118551,1,0,1:0:0:0:
136,292,118682,1,2,1:2:0:0:
256,188,118945,1,2,1:2:0:0:
256,188,119077,2,0,L|280:164,5,26.6666666666667,2|2|2|2|2|2,0:0|0:0|0:0|0:0|0:0|0:0,0:0:0:0:
296,144,119472,6,0,B|336:144|336:144|384:144|408:96,1,128,4|8,3:2|0:0,0:0:0:0:
406,284,120261,2,0,B|384:240|336:240|336:240|296:240,1,128,0|8,0:0|0:0,0:0:0:0:
60,192,121051,5,2,0:0:0:0:
226,120,121314,1,0,1:0:0:0:
226,120,121446,2,0,B|226:160|256:192|256:192|226:224|226:264,2,160,0|0|0,1:0|1:0|1:0,0:0:0:0:
226,120,122629,6,0,P|277:105|326:120,1,106.666666666667,4|0,3:2|0:0,0:0:0:0:
387,172,123024,2,0,P|403:121|387:71,1,106.666666666667,10|0,1:2|0:0,0:0:0:0:
444,227,123419,2,0,P|428:278|444:328,1,106.666666666667,2|0,3:2|0:0,0:0:0:0:
508,376,123814,1,10,1:2:0:0:
356,328,124077,1,0,0:0:0:0:
356,328,124208,6,0,L|256:364,1,106.666666666667,2|0,3:2|0:0,0:0:0:0:
198,307,124603,2,0,L|98:343,1,106.666666666667,10|2,1:2|0:3,0:0:0:0:
40,286,124998,1,2,3:2:0:0:
168,192,125261,1,0,0:0:0:0:
168,192,125393,2,0,B|188:160|176:120|176:120|165:89,1,106.666666666667,10|0,1:2|3:0,0:0:0:0:
114,28,125787,6,0,P|164:12|215:28,1,106.666666666667,2|2,3:2|0:3,0:0:0:0:
297,27,126182,2,0,P|347:11|398:28,1,106.666666666667,10|0,1:2|0:0,0:0:0:0:
346,89,126577,2,0,B|336:120|336:120|324:160|344:192,1,106.666666666667,2|0,3:2|0:0,0:0:0:0:
400,248,126972,1,10,1:2:0:0:
256,298,127235,1,0,3:0:0:0:
256,298,127366,6,0,L|92:348,1,160,2|10,3:2|1:2,0:0:0:0:
60,192,128024,1,0,0:0:0:0:
60,192,128156,2,0,L|47:140,2,53.3333333333333,0|0|0,1:0|1:0|1:0,0:0:0:0:
140,140,128551,2,0,L|152:88,2,53.3333333333333,10|0|10,1:2|1:0|1:2,0:0:0:0:
236,84,128945,6,0,P|286:68|336:84,1,106.666666666667,4|2,3:2|0:3,0:0:0:0:
400,131,129340,2,0,P|450:147|500:131,1,106.666666666667,10|0,1:2|0:0,0:0:0:0:
500,252,129735,2,0,P|450:236|400:252,1,106.666666666667,4|0,3:2|0:0,0:0:0:0:
336,299,130129,2,0,P|286:315|236:300,1,106.666666666667,10|0,1:2|0:0,0:0:0:0:
179,356,130524,5,4,3:2:0:0:
68,240,130787,1,0,0:0:0:0:
68,240,130918,2,0,B|68:212|48:192|48:192|68:172|68:144,1,106.666666666667,10|2,1:2|0:3,0:0:0:0:
20,80,131313,2,0,B|48:80|68:100|68:100|88:80|116:80,1,106.666666666667,4|0,3:2|0:0,0:0:0:0:
256,192,131708,2,0,B|228:192|208:172|208:172|188:192|160:192,1,106.666666666667,10|2,1:2|0:3,0:0:0:0:
320,148,132103,6,0,L|304:253,1,106.666666666667,2|0,3:2|0:0,0:0:0:0:
444,176,132498,2,0,L|459:70,1,106.666666666667,10|0,1:2|0:0,0:0:0:0:
332,168,132893,6,0,L|316:273,1,106.666666666667,2|0,3:2|0:0,0:0:0:0:
456,196,133288,2,0,L|471:90,1,106.666666666667,10|2,1:2|0:3,0:0:0:0:
415,34,133682,5,2,3:2:0:0:
256,96,133945,1,0,0:0:0:0:
256,96,134077,2,0,P|205:113|155:97,1,106.666666666667,10|0,1:2|0:0,0:0:0:0:
88,140,134472,2,0,B|68:124|60:96|60:96|68:68|88:52,1,106.666666666667,2|0,3:2|0:0,0:0:0:0:
156,184,134866,2,0,B|176:200|184:228|184:228|176:256|156:272,1,106.666666666667,10|2,1:2|0:3,0:0:0:0:
98,329,135261,5,2,3:2:0:0:
256,360,135524,1,0,0:0:0:0:
256,360,135656,2,0,L|368:380,1,106.666666666667,10|0,1:2|0:0,0:0:0:0:
425,314,136051,2,0,L|477:327,2,53.3333333333333,0|0|0,1:0|1:0|1:0,0:0:0:0:
361,250,136445,2,0,L|309:237,2,53.3333333333333,10|0|0,1:2|1:0|1:0,0:0:0:0:
425,185,136840,6,0,B|425:157|445:137|445:137|425:117|425:89,1,106.666666666667,4|0,3:2|0:0,0:0:0:0:
371,37,137235,2,0,L|477:37,1,106.666666666667,10|0,1:2|0:0,0:0:0:0:
360,136,137629,2,0,L|253:136,1,106.666666666667,2|0,3:2|0:0,0:0:0:0:
200,83,138024,1,10,1:2:0:0:
96,192,138287,1,0,0:0:0:0:
96,192,138419,6,0,P|80:242|96:292,1,106.666666666667,2|2,3:2|0:3,0:0:0:0:
146,347,138814,2,0,P|96:331|46:347,1,106.666666666667,10|0,1:2|0:0,0:0:0:0:
206,303,139208,2,0,P|256:319|306:303,1,106.666666666667,2|2,3:2|0:3,0:0:0:0:
368,264,139603,1,10,1:2:0:0:
496,192,139866,1,0,0:0:0:0:
496,192,139998,6,0,L|508:76,1,106.666666666667,4|0,3:2|0:0,0:0:0:0:
378,157,140393,2,0,L|368:264,1,106.666666666667,10|0,1:2|0:0,0:0:0:0:
488,176,140787,6,0,L|500:60,1,106.666666666667,4|0,3:2|0:0,0:0:0:0:
370,141,141182,2,0,L|359:247,1,106.666666666667,10|0,1:2|0:0,0:0:0:0:
480,160,141577,6,0,L|492:44,1,106.666666666667,4|0,3:2|0:0,0:0:0:0:
362,125,141972,2,0,L|351:231,1,106.666666666667,10|2,1:2|0:3,0:0:0:0:
403,283,142366,1,2,3:2:0:0:
256,143,142629,1,0,0:0:0:0:
256,143,142761,2,0,B|228:143|208:123|208:123|188:143|160:143,1,106.666666666667,10|10,1:2|1:2,0:0:0:0:
100,192,143156,6,0,P|116:142|100:92,1,106.666666666667,4|0,3:2|0:0,0:0:0:0:
40,248,143551,2,0,P|24:298|40:348,1,106.666666666667,10|0,1:2|0:0,0:0:0:0:
112,208,143945,6,0,P|128:158|112:108,1,106.666666666667,4|0,3:2|0:0,0:0:0:0:
52,264,144340,2,0,P|36:314|52:364,1,106.666666666667,10|0,1:2|0:0,0:0:0:0:
124,224,144735,6,0,P|140:174|124:124,1,106.666666666667,0|0,1:0|1:0,0:0:0:0:
64,280,145130,2,0,P|48:330|64:380,1,106.666666666667,10|0,1:2|1:0,0:0:0:0:
448,4,146182,5,4,3:2:0:0:
256,192,146314,12,4,151643,0:0:0:0:
