osu file format v14

[General]
AudioFilename: Glee Cast - Jingle Bell Rock (Glee Cast Version).mp3
AudioLeadIn: 0
PreviewTime: 8921
Countdown: 0
SampleSet: Soft
StackLeniency: 0.3
Mode: 0
LetterboxInBreaks: 0
WidescreenStoryboard: 0

[Editor]
Bookmarks: 8945,43682,46840,59472,72103,84735,97366,119472,122629,151643
DistanceSpacing: 1.2
BeatDivisor: 6
GridSize: 4
TimelineZoom: 1.1

[Metadata]
Title:Jingle Bell Rock (Glee Cast Version)
TitleUnicode:Jingle Bell Rock (Glee Cast Version)
Artist:Glee Cast
ArtistUnicode:Glee Cast
Creator:Gero
Version:Relaxing
Source:Glee
Tags:Natsu Euny Collab Collaboration Sam Evans Chord Overstreet TV Show Glee: The Music, The Christmas Album Volume 3 Columbia Records X-mas Merry Christmas Xmas White Snow Santa Claus
BeatmapID:837688
BeatmapSetID:373351

[Difficulty]
HPDrainRate:2
CircleSize:2.5
OverallDifficulty:2
ApproachRate:3
SliderMultiplier:0.8
SliderTickRate:1

[Events]
//Background and Video events
0,0,"BG.jpg",0,0
//Break Periods
2,43882,45400
2,59672,70663
2,84935,95926
2,119671,121189
//Storyboard Layer 0 (Background)
//Storyboard Layer 1 (Fail)
//Storyboard Layer 2 (Pass)
//Storyboard Layer 3 (Foreground)
//Storyboard Sound Samples

[TimingPoints]
2630,394.736842105263,4,2,1,60,1,0
97366,-100,4,2,1,60,0,1
109866,-100,4,2,1,60,0,0
109998,-100,4,2,1,60,0,1
119472,-100,4,2,1,60,0,0
122629,-100,4,2,1,60,0,1
128814,-100,4,2,1,60,0,0
128945,-100,4,2,1,60,0,1
136708,-100,4,2,1,60,0,0
136840,-100,4,2,1,60,0,1
136972,-100,4,2,1,60,0,0

[Colours]
Combo1 : 180,145,71
Combo2 : 98,198,55
Combo3 : 57,148,196
Combo4 : 241,37,68
SliderBorder : 0,0,0
SliderTrackOverride : 193,193,193

[HitObjects]
293,64,8945,6,0,B|245:64|245:64|209:64|169:76|145:128|169:180|207:191,1,240,4|8,3:2|0:0,0:0:0:0:
304,192,10524,2,0,B|342:203|366:255|342:307|302:319|266:319|266:319|218:319,1,240,2|8,3:2|0:0,0:0:0:0:
128,356,12103,2,0,P|117:318|128:280,1,80,2|8,3:2|0:0,0:0:0:0:
168,192,12893,2,0,P|179:154|168:116,1,80,2|8,3:2|0:0,0:0:0:0:
104,44,13682,2,0,B|256:92,1,160,2|2,3:2|3:2,0:0:0:0:
324,24,14866,1,8,0:0:0:0:
391,91,15261,6,0,P|446:192|391:293,1,240,2|8,3:2|0:0,0:0:0:0:
458,361,16840,2,0,L|288:192,1,240,2|8,3:2|0:0,0:0:0:0:
355,123,18419,1,2,3:2:0:0:
287,55,18814,2,0,B|216:55|216:55|200:64|200:64|124:64,2,160,8|8|8,0:0|0:0|0:0,0:0:0:0:
355,123,20787,2,0,L|436:123,1,80,2|8,0:0|0:0,0:0:0:0:
504,192,21577,6,0,B|504:272|504:272|448:328,1,160,4|2,3:2|3:2,0:0:0:0:
380,260,22761,1,10,1:2:0:0:
312,328,23156,2,0,B|256:272|256:272|256:192,1,160,2|2,3:2|3:2,0:0:0:0:
323,123,24340,1,10,1:2:0:0:
256,52,24735,6,0,P|217:44|178:52,1,80,2|10,3:2|1:2,0:0:0:0:
110,119,25524,2,0,P|71:127|32:119,1,80,2|10,3:2|1:2,0:0:0:0:
68,32,26314,2,0,L|172:248,1,240,2|10,3:2|1:2,0:0:0:0:
256,296,27893,5,2,3:2:0:0:
416,192,28682,1,2,3:0:0:0:
256,88,29472,1,2,3:2:0:0:
96,192,30261,1,2,3:2:0:0:
256,296,31051,2,0,P|458:192|256:88,1,560,2|0,3:2|1:0,0:0:0:0:
164,116,34208,6,0,B|139:192|139:192|164:268,1,160,4|2,3:2|3:2,0:0:0:0:
95,336,35393,1,10,1:2:0:0:
27,268,35787,2,0,P|6:192|27:116,1,160,2|2,3:2|3:2,0:0:0:0:
95,48,36972,1,10,1:2:0:0:
164,116,37366,6,0,L|208:184,1,80,2|10,3:2|1:2,0:0:0:0:
304,184,38156,2,0,L|348:116,1,80,2|10,3:2|1:2,0:0:0:0:
417,48,38945,1,2,3:2:0:0:
484,115,39340,2,0,P|505:191|485:268,1,160,0|0,1:0|1:0,0:0:0:0:
417,336,40524,5,4,3:2:0:0:
328,296,40919,2,0,B|288:296|256:266|256:266|224:296|184:296,2,160,10|10|10,1:2|1:2|1:2,0:0:0:0:
256,360,42893,2,0,L|256:200,1,160,2|4,1:2|3:2,0:0:0:0:
256,200,46840,5,4,3:2:0:0:
188,136,47235,2,0,B|256:94|256:94|324:136,1,160,10|10,1:2|1:2,0:0:0:0:
392,68,48419,1,2,3:2:0:0:
459,135,48814,2,0,B|459:175|459:175|487:203,1,80,10|2,1:2|3:2,0:0:0:0:
419,271,49603,1,10,1:2:0:0:
351,203,49998,6,0,B|313:183|281:199|273:203|265:207|233:219|195:203,1,160,2|2,3:2|3:2,0:0:0:0:
127,135,51182,1,10,1:2:0:0:
59,202,51577,2,0,L|112:352,1,160,2|2,3:2|3:2,0:0:0:0:
180,284,52761,1,10,1:2:0:0:
247,216,53156,6,0,L|194:66,2,160,4|4|4,3:2|3:2|3:2,0:0:0:0:
180,284,55129,1,10,1:2:0:0:
247,351,55524,2,0,B|287:351|287:351|316:380,1,80,4|10,3:2|1:2,0:0:0:0:
383,311,56314,5,2,3:2:0:0:
450,378,56708,2,0,B|463:335|491:311|491:311|463:287|450:244,1,160,10|10,1:2|1:2,0:0:0:0:
368,192,57893,1,2,3:2:0:0:
256,192,58156,12,4,59472,3:2:0:0:
196,264,72103,6,0,P|166:192|196:120,1,160,4|2,3:2|3:2,0:0:0:0:
256,44,73287,1,10,1:2:0:0:
316,120,73682,2,0,P|346:192|316:264,1,160,2|2,3:2|3:2,0:0:0:0:
256,340,74866,1,10,1:2:0:0:
196,264,75261,6,0,B|157:255|157:255|118:264,1,80,2|10,3:2|1:2,0:0:0:0:
118,167,76051,2,0,B|79:176|79:176|40:167,1,80,2|10,3:2|1:2,0:0:0:0:
80,80,76840,2,0,B|128:60|172:88|172:88|236:88,1,160,2|2,3:2|3:2,0:0:0:0:
303,20,78024,1,10,1:2:0:0:
370,87,78419,6,0,P|316:141|316:220,1,160,2|2,3:2|3:2,0:0:0:0:
256,296,79603,1,10,1:2:0:0:
195,220,79998,2,0,P|196:142|142:87,2,160,2|2|2,3:2|3:2|3:2,0:0:0:0:
128,288,81972,2,0,B|172:352|256:379|256:379|340:352|384:287,1,320,10|10,1:2|1:2,0:0:0:0:
317,220,83945,5,0,1:0:0:0:
256,144,84340,1,10,1:2:0:0:
195,220,84735,1,4,3:2:0:0:
8,192,97366,6,0,B|8:272|8:272|64:328,1,160,4|2,3:2|3:2,0:0:0:0:
132,260,98550,1,10,1:2:0:0:
200,328,98945,2,0,B|256:272|256:272|256:192,1,160,2|2,3:2|3:2,0:0:0:0:
189,123,100129,1,10,1:2:0:0:
256,52,100524,6,0,P|295:44|334:52,1,80,2|10,3:2|1:2,0:0:0:0:
402,119,101313,2,0,P|441:127|480:119,1,80,2|10,3:2|1:2,0:0:0:0:
444,32,102103,2,0,L|340:248,1,240,2|10,3:2|1:2,0:0:0:0:
256,296,103682,5,2,3:2:0:0:
96,192,104471,1,2,3:2:0:0:
256,88,105261,1,2,3:2:0:0:
416,192,106050,1,2,3:2:0:0:
256,296,106840,2,0,P|54:192|256:88,1,560,2|10,3:2|1:2,0:0:0:0:
348,116,109997,6,0,B|373:192|373:192|348:268,1,160,4|2,3:2|3:2,0:0:0:0:
417,336,111182,1,10,1:2:0:0:
485,268,111576,2,0,P|506:192|485:116,1,160,0|2,0:0|3:2,0:0:0:0:
417,48,112761,1,10,1:2:0:0:
348,116,113156,6,0,L|304:184,1,80,2|10,3:2|1:2,0:0:0:0:
208,184,113945,2,0,L|164:116,1,80,2|10,3:2|1:2,0:0:0:0:
95,48,114734,1,2,3:2:0:0:
28,115,115129,2,0,P|7:191|27:268,1,160,10|10,1:2|1:2,0:0:0:0:
95,336,116313,5,4,3:2:0:0:
184,296,116708,2,0,B|224:296|256:266|256:266|288:296|328:296,2,160,14|10|10,1:2|1:2|1:2,0:0:0:0:
256,360,118682,2,0,L|256:200,1,160,2|4,1:2|3:2,0:0:0:0:
256,200,122629,5,4,3:2:0:0:
324,136,123024,2,0,B|256:94|256:94|188:136,1,160,10|10,1:2|1:2,0:0:0:0:
120,68,124208,1,2,3:2:0:0:
53,135,124603,2,0,B|53:175|53:175|25:203,1,80,10|2,1:2|3:2,0:0:0:0:
93,271,125392,1,10,1:2:0:0:
161,203,125787,6,0,B|199:183|231:199|239:203|247:207|279:219|317:203,1,160,2|2,3:2|3:2,0:0:0:0:
385,135,126971,1,10,1:2:0:0:
453,202,127366,2,0,L|400:352,1,160,2|0,3:2|1:0,0:0:0:0:
332,284,128550,1,10,1:2:0:0:
265,216,128945,6,0,L|318:66,2,160,4|4|4,3:2|3:2|3:2,0:0:0:0:
332,284,130918,1,10,1:2:0:0:
265,351,131313,2,0,B|225:351|225:351|196:380,1,80,4|10,3:2|1:2,0:0:0:0:
129,311,132103,5,2,3:2:0:0:
62,378,132497,2,0,B|49:335|21:311|21:311|49:287|62:244,1,160,10|10,1:2|1:2,0:0:0:0:
144,192,133682,1,2,3:2:0:0:
62,140,134077,2,0,B|49:97|21:73|21:73|49:49|62:6,1,160,10|10,1:2|1:2,0:0:0:0:
129,73,135261,1,2,3:2:0:0:
196,4,135656,2,0,B|225:33|225:33|265:33,1,80,10|0,1:2|1:0,0:0:0:0:
332,100,136445,1,10,1:2:0:0:
265,168,136840,6,0,L|318:318,1,160,4|2,3:2|3:2,0:0:0:0:
386,384,138024,1,10,1:2:0:0:
453,316,138419,2,0,B|453:292|460:277|460:277|453:262|453:238,1,80,2|10,3:2|1:2,0:0:0:0:
385,169,139208,2,0,B|385:145|378:130|378:130|385:115|385:91,1,80,2|10,3:2|1:2,0:0:0:0:
473,129,139998,6,0,L|313:129,1,160,4|4,3:2|3:2,0:0:0:0:
256,204,141182,1,10,1:2:0:0:
196,280,141577,2,0,B|231:293|256:331|256:331|281:293|316:280,1,160,4|2,3:2|3:2,0:0:0:0:
256,204,142761,1,10,1:2:0:0:
199,129,143156,6,0,L|39:129,2,160,4|4|0,3:2|3:2|1:0,0:0:0:0:
256,204,145129,2,0,L|309:204,1,53.3333333333333,10|0,1:2|1:0,0:0:0:0:
256,192,146182,12,4,151643,0:0:0:0:
