osu file format v14

[General]
AudioFilename: Glee Cast - Jingle Bell Rock (Glee Cast Version).mp3
AudioLeadIn: 0
PreviewTime: 8921
Countdown: 0
SampleSet: Soft
StackLeniency: 0.3
Mode: 0
LetterboxInBreaks: 0
WidescreenStoryboard: 0

[Editor]
Bookmarks: 8945,59472,72103,151643
DistanceSpacing: 1
BeatDivisor: 6
GridSize: 4
TimelineZoom: 1.1

[Metadata]
Title:Jingle Bell Rock (Glee Cast Version)
TitleUnicode:Jingle Bell Rock (Glee Cast Version)
Artist:Glee Cast
ArtistUnicode:Glee Cast
Creator:Gero
Version:Average
Source:Glee
Tags:Natsu Euny Collab Collaboration Sam Evans Chord Overstreet TV Show Glee: The Music, The Christmas Album Volume 3 Columbia Records X-mas Merry Christmas Xmas White Snow Santa Claus
BeatmapID:821354
BeatmapSetID:373351

[Difficulty]
HPDrainRate:4
CircleSize:3
OverallDifficulty:4
ApproachRate:6
SliderMultiplier:1.2
SliderTickRate:1

[Events]
//Background and Video events
0,0,"BG.jpg",0,0
//Break Periods
2,59672,71053
//Storyboard Layer 0 (Background)
//Storyboard Layer 1 (Fail)
//Storyboard Layer 2 (Pass)
//Storyboard Layer 3 (Foreground)
//Storyboard Sound Samples

[TimingPoints]
2630,394.736842105263,4,2,1,60,1,0
97366,-100,4,2,1,60,0,1
109866,-100,4,2,1,60,0,0
109998,-100,4,2,1,60,0,1
119472,-100,4,2,1,60,0,0
122629,-100,4,2,1,60,0,1
128814,-100,4,2,1,60,0,0
128945,-100,4,2,1,60,0,1
136708,-100,4,2,1,60,0,0
136840,-100,4,2,1,60,0,1
136972,-100,4,2,1,60,0,0

[Colours]
Combo1 : 180,145,71
Combo2 : 98,198,55
Combo3 : 57,148,196
Combo4 : 241,37,68
SliderBorder : 0,0,0
SliderTrackOverride : 193,193,193

[HitObjects]
196,260,8945,6,0,P|178:316|196:372,1,120,4|8,3:2|0:0,0:0:0:0:
316,372,9735,2,0,P|334:316|316:260,1,120,2|8,3:2|0:0,0:0:0:0:
312,140,10524,2,0,B|255:119|255:119|200:140,1,120,2|8,3:2|0:0,0:0:0:0:
140,84,11182,2,0,B|136:116|156:140|156:140|136:164|140:196,1,120,0|2,0:0|0:3,0:0:0:0:
112,225,11708,1,8,0:0:0:0:
218,280,12103,6,0,P|256:290|294:280,1,80,2|0,3:2|0:0,0:0:0:0:
322,251,12498,2,0,L|353:367,2,120,8|2|8,0:0|3:2|0:0,0:0:0:0:
428,196,13682,2,0,L|408:119,1,80,2|0,3:2|0:0,0:0:0:0:
437,90,14076,1,8,0:0:0:0:
508,48,14340,2,0,B|484:8|436:8|436:8|400:8,1,120,0|2,0:3|0:3,0:0:0:0:
364,24,14866,1,8,0:0:0:0:
256,76,15261,5,2,3:2:0:0:
204,136,15524,2,0,B|256:166|256:166|308:136,1,120,0|0,0:0|0:0,0:0:0:0:
348,128,16051,1,2,3:2:0:0:
396,192,16314,2,0,P|414:248|396:304,1,120,2|0,0:3|0:0,0:0:0:0:
368,332,16840,2,0,B|332:312|332:312|292:312,1,80,2|0,3:2|0:0,0:0:0:0:
256,328,17235,1,8,0:0:0:0:
184,364,17498,2,0,B|165:320|188:284|188:284|188:244,1,120,0|2,0:0|0:3,0:0:0:0:
159,219,18024,1,8,0:0:0:0:
256,148,18419,5,2,3:2:0:0:
310,90,18682,2,0,P|256:68|202:90,1,120
164,108,19208,2,0,P|174:69|164:31,1,80,2|0,3:2|0:0,0:0:0:0:
132,8,19603,1,8,0:0:0:0:
32,76,19998,6,0,L|64:192,1,120,2|8,3:2|0:0,0:0:0:0:
0,240,20656,2,0,L|160:276,1,160,0|8,1:0|0:0,0:0:0:0:
155,357,21445,1,0,1:0:0:0:
155,357,21577,6,0,L|256:292,1,120,4|10,0:0|1:2,0:0:0:0:
340,376,22366,1,2,3:2:0:0:
424,291,22761,1,10,1:2:0:0:
339,206,23156,2,0,P|321:150|339:94,1,120,2|10,3:2|1:2,0:0:0:0:
396,36,23814,2,0,P|340:54|284:36,1,120,2|2,0:3|0:3,0:0:0:0:
256,4,24340,1,10,1:2:0:0:
172,88,24735,6,0,P|162:126|172:164,1,80,2|0,3:2|0:0,0:0:0:0:
201,192,25129,2,0,L|73:159,2,120,10|2|10,1:2|3:2|1:2,0:0:0:0:
256,300,26314,6,0,L|333:281,1,80,2|0,3:2|0:0,0:0:0:0:
368,300,26708,1,8,1:2:0:0:
432,248,26972,2,0,B|428:216|448:192|448:192|428:168|432:136,1,120,2|2,0:3|0:3,0:0:0:0:
403,107,27498,1,10,1:2:0:0:
318,22,27893,5,2,3:2:0:0:
256,72,28156,2,0,L|140:44,1,120,0|0,0:0|0:0,0:0:0:0:
108,68,28683,1,2,3:0:0:0:
152,136,28945,2,0,P|171:192|152:248,1,120
112,260,29472,2,0,L|193:281,1,80,2|0,3:2|0:0,0:0:0:0:
228,296,29867,1,10,1:2:0:0:
328,352,30261,2,0,P|436:352|436:244,1,240,2|2,3:2|3:2,0:0:0:0:
489,183,31314,6,0,P|435:161|381:183,1,120,0|0,0:0|3:0,0:0:0:0:
351,212,31840,2,0,P|296:233|242:211,1,120,2|10,3:2|1:2,0:0:0:0:
187,160,32498,2,0,P|237:246|127:212,1,280,2|0,0:3|1:0,0:0:0:0:
108,136,33682,2,0,L|100:88,1,40,0|0,1:0|1:0,0:0:0:0:
48,36,34077,1,0,1:0:0:0:
48,36,34208,6,0,P|102:58|156:36,1,120,4|10,0:0|1:2,0:0:0:0:
220,88,34866,2,0,P|274:65|328:87,1,120,2|0,0:3|0:0,0:0:0:0:
356,59,35393,2,0,B|380:136,1,80,10|0,1:2|0:0,0:0:0:0:
414,159,35787,2,0,L|387:276,1,120,2|10,3:2|1:2,0:0:0:0:
440,334,36445,2,0,P|386:356|332:334,1,120,2|0,0:3|0:0,0:0:0:0:
293,317,36972,1,10,1:2:0:0:
196,248,37366,6,0,B|174:192|174:192|196:136,3,120,2|10|2|10,3:2|1:2|3:2|1:2,0:0:0:0:
316,136,38945,2,0,B|338:192|338:192|316:248,3,120,2|0|0|0,3:2|1:0|1:0|1:0,0:0:0:0:
312,368,40524,6,0,B|280:372|256:352|256:352|232:372|200:368,1,120,4|10,3:2|1:2,0:0:0:0:
204,288,41182,2,0,B|172:284|148:304|148:304|124:284|92:288,1,120,2|0,0:3|0:0,0:0:0:0:
64,260,41708,1,10,1:2:0:0:
20,192,41972,1,0,0:0:0:0:
20,192,42103,6,0,P|10:154|20:116,1,80,2|0,3:2|0:0,0:0:0:0:
36,80,42498,1,10,1:2:0:0:
80,12,42761,2,0,L|168:100,1,120,0|0,1:0|1:0,0:0:0:0:
128,112,43287,2,0,L|184:168,1,80,10|0,1:2|1:0,0:0:0:0:
216,192,43682,5,4,3:2:0:0:
304,108,44077,2,0,B|360:128|384:192|384:192|360:256|304:276,2,240,8|8|0,0:0|0:0|1:0,0:0:0:0:
216,192,46051,1,0,1:0:0:0:
304,276,46445,1,0,1:0:0:0:
216,360,46840,6,0,B|192:320|144:320|144:320|108:320,1,120,4|10,3:2|1:2,0:0:0:0:
16,248,47629,2,0,B|20:216|0:192|0:192|20:168|16:136,1,120,2|10,3:2|1:2,0:0:0:0:
110,64,48419,2,0,B|144:64|144:64|192:64|216:24,1,120,2|10,3:2|1:2,0:0:0:0:
296,24,49077,2,0,B|320:64|368:64|368:64|401:64,1,120,2|2,0:3|0:3,0:0:0:0:
429,92,49603,1,10,1:2:0:0:
360,192,49998,6,0,B|351:231|351:231|360:270,1,80,2|0,3:2|0:0,0:0:0:0:
388,298,50392,2,0,L|272:332,1,120,10|2,1:2|3:2,0:0:0:0:
186,245,51182,1,10,1:2:0:0:
120,291,51445,2,0,P|265:244|121:197,1,400,0|10,0:0|1:2,0:0:0:0:
56,244,53024,1,0,1:0:0:0:
56,244,53156,6,0,L|44:112,1,120,4|10,3:2|1:2,0:0:0:0:
164,132,53945,2,0,L|200:12,1,120,4|10,3:2|1:2,0:0:0:0:
288,100,54735,2,0,L|364:44,1,80,4|0,3:2|0:0,0:0:0:0:
384,28,55130,1,10,1:2:0:0:
444,80,55393,2,0,P|462:136|444:192,1,120,0|2,0:0|0:3,0:0:0:0:
415,220,55919,1,10,1:2:0:0:
499,304,56314,5,2,3:2:0:0:
442,360,56577,2,0,B|385:381|385:381|330:360,1,120,0|0,0:0|0:0,0:0:0:0:
301,331,57103,2,0,L|224:356,1,80,4|0,3:2|0:0,0:0:0:0:
196,327,57498,2,0,P|163:235|196:143,1,200,10|0,1:2|1:0,0:0:0:0:
281,57,58551,2,0,L|121:41,1,160,0|10,1:0|1:2,0:0:0:0:
36,125,59472,5,4,3:2:0:0:
36,125,72103,6,0,B|63:113|63:113|107:93|151:109,1,120,4|10,3:2|1:2,0:0:0:0:
256,164,72893,2,0,B|300:180|344:160|344:160|371:148,1,120,2|10,3:2|1:2,0:0:0:0:
455,232,73682,2,0,P|465:270|455:308,1,80,2|0,3:2|0:0,0:0:0:0:
426,336,74077,1,10,1:2:0:0:
380,272,74340,2,0,L|220:296,1,160,0|10,0:0|1:2,0:0:0:0:
116,352,75261,6,0,P|98:296|116:240,1,120,2|10,3:2|1:2,0:0:0:0:
216,172,76051,2,0,P|234:115|216:59,1,120,2|10,3:2|1:2,0:0:0:0:
111,115,76840,2,0,B|70:115|70:115|42:143,1,80,2|0,3:2|0:0,0:0:0:0:
14,170,77235,1,10,1:2:0:0:
28,248,77498,2,0,L|188:272,1,160,0|10,0:0|1:2,0:0:0:0:
276,192,78419,5,2,3:2:0:0:
336,140,78682,2,0,B|366:192|366:192|336:244,1,120,0|0,0:0|0:0,0:0:0:0:
307,272,79208,2,0,L|377:311,1,80,2|0,3:2|0:0,0:0:0:0:
405,339,79603,1,10,1:2:0:0:
459,231,79998,2,0,B|468:192|468:192|459:153,1,80,2|0,3:2|0:0,0:0:0:0:
448,116,80393,2,0,B|439:77|439:77|448:38,1,80,10|2,1:2|0:3,0:0:0:0:
476,12,80787,2,0,L|360:48,1,120,2|10,3:2|1:2,0:0:0:0:
256,104,81577,5,2,3:2:0:0:
199,160,81840,2,0,P|199:212|235:268,1,120,0|0,0:0|0:0,0:0:0:0:
277,267,82366,2,0,P|310:219|313:160,1,120,2|10,3:2|1:2,0:0:0:0:
368,100,83024,2,0,P|256:29|144:100,1,280,0|0,0:0|1:0,0:0:0:0:
40,164,84340,2,0,L|4:128,2,40,10|0|0,1:2|1:0|1:0,0:0:0:0:
68,192,84735,5,4,3:2:0:0:
144,284,85129,2,0,B|172:256|224:256|256:276|256:276|288:256|340:256|368:284,1,240,8|8,0:0|0:0,0:0:0:0:
444,192,86314,2,0,P|462:136|444:80,1,120,0|8,0:0|0:0,0:0:0:0:
500,22,86972,2,0,L|344:64,1,160,0|8,0:0|0:0,0:0:0:0:
252,136,87893,6,0,B|252:172|235:192|235:192|252:212|252:248,2,120,0|8|0,0:0|0:0|0:0,0:0:0:0:
360,192,89077,1,8,0:0:0:0:
464,252,89472,2,0,L|408:308,1,80,0|0,0:0|0:0,0:0:0:0:
379,336,89866,1,8,0:0:0:0:
319,279,90129,2,0,P|256:239|192:279,1,160,0|8,0:0|0:0,0:0:0:0:
114,192,91051,5,0,0:0:0:0:
34,104,91445,2,0,B|66:72|114:60|162:72|194:104|194:104|256:104,1,240,8|8,0:0|0:0,0:0:0:0:
340,192,92629,1,0,0:0:0:0:
256,280,93024,2,0,B|194:280|194:280|162:312|114:324|66:312|34:280,1,240,8|8,0:0|0:0,0:0:0:0:
114,192,94208,5,0,0:0:0:0:
200,108,94603,2,0,B|232:112|256:92|256:92|280:112|312:108,1,120,8|0,0:0|0:0,0:0:0:0:
398,192,95393,1,8,0:0:0:0:
312,276,95787,2,0,B|280:272|256:292|256:292|232:272|200:276,1,120,0|0,0:0|1:0,0:0:0:0:
143,219,96445,6,0,L|175:187,1,40,0|0,1:0|1:0,0:0:0:0:
114,133,96840,2,0,L|146:101,1,40,0|0,1:0|1:0,0:0:0:0:
200,48,97235,1,0,1:0:0:0:
200,48,97366,6,0,P|256:29|312:48,1,120,4|10,0:0|1:2,0:0:0:0:
392,136,98156,2,0,B|413:192|413:192|392:248,1,120,2|10,3:2|1:2,0:0:0:0:
311,336,98945,2,0,P|255:354|200:336,1,120,2|10,3:2|1:2,0:0:0:0:
120,340,99603,2,0,L|208:252,1,120,2|2,0:3|0:3,0:0:0:0:
176,226,100130,1,10,1:2:0:0:
119,169,100393,6,0,P|101:113|119:57,1,120,0|0,0:2|0:0,0:0:0:0:
152,36,100919,1,10,1:2:0:0:
256,92,101314,1,2,3:2:0:0:
152,36,101708,1,10,1:2:0:0:
256,92,102104,2,0,B|284:92|284:92|292:88|292:88|292:96|292:96|300:92|300:92|328:92,1,80,2|0,3:2|0:0,0:0:0:0:
360,72,102498,1,10,1:2:0:0:
418,18,102761,2,0,P|440:72|418:126,1,120,2|2,0:3|0:3,0:0:0:0:
382,149,103287,2,0,P|420:139|458:149,1,80,10|10,1:2|1:2,0:0:0:0:
486,177,103682,5,2,3:2:0:0:
420,220,103946,2,0,L|305:178,1,120,2|0,0:3|0:0,0:0:0:0:
278,207,104473,1,2,3:2:0:0:
221,263,104735,2,0,L|106:221,1,120,0|0,0:0|0:0,0:0:0:0:
79,250,105261,2,0,B|88:211|88:211|79:172,1,80,2|0,3:2|0:0,0:0:0:0:
50,143,105657,1,10,1:2:0:0:
152,80,106051,2,0,P|256:131|360:80,1,240,2|2,3:2|3:2,0:0:0:0:
416,24,107103,6,0,P|398:80|416:136,1,120,0|0,0:0|0:0,0:0:0:0:
444,164,107629,2,0,P|462:220|444:276,1,120,2|10,3:2|1:2,0:0:0:0:
508,324,108288,2,0,B|400:240|400:240|256:240,1,280,0|0,0:0|1:0,0:0:0:0:
188,196,109472,2,0,L|220:312,1,120,0|0,1:0|1:0,0:0:0:0:
191,340,109998,6,0,B|167:300|119:300|119:300|83:300,1,120,4|10,3:2|1:2,0:0:0:0:
13,265,110656,2,0,P|-15:192|13:119,1,160,0|10,1:0|1:2,0:0:0:0:
85,84,111445,1,0,0:0:0:0:
85,84,111577,2,0,B|119:84|119:84|167:84|191:44,1,120,2|10,3:2|1:2,0:0:0:0:
264,12,112235,2,0,L|184:152,1,160,0|10,0:0|1:2,0:0:0:0:
256,252,113156,6,0,P|312:270|368:252,3,120,2|10|2|10,3:2|1:2|3:2|1:2,0:0:0:0:
368,131,114735,2,0,P|312:113|256:132,3,120,2|10|2|10,3:2|1:2|3:2|1:2,0:0:0:0:
136,136,116314,6,0,B|115:192|115:192|136:248,1,120,4|14,3:2|1:2,0:0:0:0:
192,305,116972,2,0,L|72:305,1,120,2|0,0:3|0:0,0:0:0:0:
36,324,117498,1,10,1:2:0:0:
12,248,117762,2,0,P|-6:192|12:136,1,120,0|0,0:0|1:0,0:0:0:0:
119,79,118551,2,0,P|137:135|120:192,1,120,0|2,1:0|1:2,0:0:0:0:
91,220,119077,2,0,L|171:204,1,80,2|2,0:0|0:0,0:0:0:0:
208,192,119472,5,4,3:2:0:0:
288,104,119867,2,0,B|304:168|363:192|363:192|304:216|288:280,2,240,8|8|0,0:0|0:0|1:0,0:0:0:0:
208,192,121840,1,0,1:0:0:0:
288,279,122235,1,0,1:0:0:0:
368,368,122629,6,0,L|476:316,1,120,4|10,3:2|1:2,0:0:0:0:
396,224,123419,2,0,L|504:172,1,120,2|10,3:2|1:2,0:0:0:0:
419,87,124208,2,0,B|391:59|391:59|351:59,1,80,2|0,3:2|0:0,0:0:0:0:
322,87,124603,1,10,1:2:0:0:
256,136,124866,2,0,P|200:154|144:136,1,120,2|0,0:3|0:0,0:0:0:0:
111,109,125392,1,10,1:2:0:0:
54,52,125656,6,0,L|60:172,1,120,0|2,3:0|0:3,0:0:0:0:
31,200,126182,2,0,L|37:320,1,120,10|2,1:2|3:2,0:0:0:0:
121,234,126971,1,10,1:2:0:0:
184,284,127234,2,0,B|240:308|300:272|308:216|256:186|204:216|212:272|272:308|328:284,1,280,0|0,3:0|1:0,0:0:0:0:
391,234,128419,2,0,L|420:199,1,40,0|10,1:0|1:2,0:0:0:0:
359,147,128814,1,10,1:2:0:0:
384,116,128945,6,0,B|357:104|357:104|313:84|269:100,1,120,4|10,3:2|1:2,0:0:0:0:
164,156,129735,2,0,B|120:172|76:152|76:152|49:140,1,120,4|10,3:2|1:2,0:0:0:0:
92,252,130524,2,0,L|68:332,1,80,4|0,3:2|0:0,0:0:0:0:
100,356,130919,1,10,1:2:0:0:
164,308,131182,2,0,B|197:308|197:308|245:308|269:348,1,120,2|0,0:3|0:0,0:0:0:0:
299,375,131708,2,0,L|323:295,1,80,10|2,1:2|0:3,0:0:0:0:
340,264,132103,1,2,3:2:0:0:
376,192,132366,6,0,B|372:160|392:136|392:136|372:112|376:80,1,120,0|0,0:0|0:0,0:0:0:0:
404,51,132893,2,0,L|328:84,1,80,2|0,3:2|0:0,0:0:0:0:
292,72,133287,2,0,L|216:105,1,80,10|2,1:2|0:3,0:0:0:0:
190,132,133682,1,2,3:2:0:0:
136,192,133945,6,0,B|140:224|120:248|120:248|140:272|136:304,1,120,0|0,0:0|0:0,0:0:0:0:
108,333,134472,2,0,L|184:300,1,80,2|0,3:2|0:0,0:0:0:0:
220,312,134866,2,0,L|296:279,1,80,10|2,1:2|0:3,0:0:0:0:
322,252,135261,1,2,3:2:0:0:
376,192,135524,6,0,B|372:160|392:136|392:136|372:112|376:80,1,120,0|0,0:0|0:0,0:0:0:0:
404,51,136051,2,0,L|328:84,1,80,0|0,1:0|1:0,0:0:0:0:
292,72,136445,2,0,L|216:105,1,80,10|0,1:2|1:0,0:0:0:0:
190,132,136840,5,4,3:2:0:0:
124,178,137103,2,0,P|269:131|125:84,1,400,0|2,0:0|3:2,0:0:0:0:
16,132,138814,2,0,L|180:308,1,240,10|10,1:2|1:2,0:0:0:0:
256,328,139866,6,0,P|220:260|256:192,1,160,0|10,0:0|1:2,0:0:0:0:
360,132,140787,2,0,B|415:111|415:111|472:132,1,120,4|10,3:2|1:2,0:0:0:0:
472,252,141577,2,0,B|415:273|415:273|360:252,1,120,4|10,3:2|1:2,0:0:0:0:
304,192,142235,2,0,P|339:259|303:327,1,160,2|10,0:3|1:2,0:0:0:0:
260,260,143024,6,0,B|180:260|180:260|124:316,1,160,10|10,1:2|1:2,0:0:0:0:
24,248,143945,2,0,P|6:192|24:136,1,120,4|10,3:2|1:2,0:0:0:0:
124,68,144735,2,0,L|184:128,1,80,0|0,1:0|1:0,0:0:0:0:
208,96,145129,2,0,L|268:156,1,80,10|0,1:2|1:0,0:0:0:0:
434,322,146182,5,4,3:2:0:0:
256,192,146314,12,4,151643,0:0:0:0:
