osu file format v9

[General]
AudioFilename: f.mp3
AudioLeadIn: 2000
PreviewTime: 35584
Countdown: 0
SampleSet: Soft
StackLeniency: 0.7
Mode: 0
LetterboxInBreaks: 1

[Editor]
DistanceSpacing: 1.2
BeatDivisor: 2
GridSize: 4

[Metadata]
Title:Friday (Nightcore Mix)
Artist:Glee Cast
Creator:-Bakari-
Version:Fun! Fun!
Source:
Tags:Kotek- rebecca black j4yj4ys3z

[Difficulty]
HPDrainRate:3
CircleSize:3
OverallDifficulty:4
ApproachRate:4
SliderMultiplier:1.1
SliderTickRate:2

[Events]
//Background and Video events
0,0,"mikubg.jpg"
//Break Periods
//Storyboard Layer 0 (Background)
//Storyboard Layer 1 (Fail)
//Storyboard Layer 2 (Pass)
//Storyboard Layer 3 (Foreground)
//Storyboard Sound Samples
//Background Colour Transformations
3,100,163,162,255

[TimingPoints]
580,416.666666666667,4,2,0,25,1,0
35580,-100,4,1,0,37,0,1
55580,-100,4,1,0,28,0,0

[Colours]
Combo1 : 13,198,96
Combo2 : 44,230,34
Combo3 : 175,137,73
Combo4 : 112,225,250

[HitObjects]
256,192,1621,12,0,4746
264,188,5580,6,0,B|312:128|380:120,1,110,0|2
428,48,6413,2,0,B|472:92|456:160,1,110,0|8
400,244,7246,5,4
312,312,7663,2,0,B|188:312,2,110,2|0|8
400,244,8913,5,4
444,144,9330,1,2
336,160,9746,2,0,B|328:95|256:88|184:96|176:160,2,220,0|4|0
392,160,11621,1,0
444,144,11830,1,8
368,64,12246,6,0,B|420:28,2,55,4|0|2
316,44,12871,1,0
264,32,13080,1,2
168,80,13496,1,8
136,184,13913,6,0,B|96:232|96:288|124:348|184:368,1,220,4|2
212,264,15163,2,0,B|276:272|312:228,1,110,8|4
368,232,15788,2,0,B|440:280,2,55,0|8|0
384,180,16413,1,0
296,112,16830,1,8
188,108,17246,6,0,B|128:136|72:88,1,110,4|2
32,112,17871,1,0
24,168,18080,2,0,B|77:192|75:258,1,110,0|8
172,308,18913,5,4
276,276,19330,1,2
176,228,19746,1,0
228,212,19955,1,0
280,196,20163,1,8
352,112,20580,6,0,B|388:60,2,55,4|0|2
416,200,21413,2,0,B|432:264|504:280,1,110,0|8
408,348,22246,2,0,B|304:288|184:324,2,220,4|0|4
408,236,24329,5,0
392,184,24538,2,0,B|428:128,2,55,0|0|0
332,192,25163,1,8
256,112,25579,1,4
180,192,25996,1,8
256,268,26413,6,0,B|256:380,2,110,0|8|4
296,232,27454,1,0
320,184,27663,1,2
404,256,28079,1,0
404,144,28496,2,0,B|380:84|304:76,2,110,2|4|2
404,256,29746,1,0
300,296,30163,1,8
320,184,30579,5,4
212,200,30996,2,0,B|80:180,2,110,2|0|2
132,276,32246,2,0,B|24:260,2,110,4|0|0
188,288,33288,1,0
244,300,33496,1,2
256,192,33704,12,2,35163
176,232,35579,6,0,B|198:296|155:333,1,110,4|8
264,308,36413,2,0,B|376:248,1,110,0|8
364,144,37246,2,0,B|428:148|456:200,2,110,4|8|0
412,44,38496,1,8
412,44,38913,1,4
364,144,39330,6,0,B|320:264|168:224,1,220,8|8
132,208,40371,1,0
76,204,40580,2,0,B|16:228|16:300,2,110,4|8|0
60,152,41621,1,0
56,96,41830,1,8
156,52,42246,6,0,B|272:64,1,110,4|8
232,168,43080,2,0,B|356:180,1,110,0|8
304,280,43913,2,0,B|424:292,2,110,4|8|0
196,264,45163,1,8
88,240,45580,6,0,B|72:304|124:352,2,110,4|8|0
56,196,46621,1,0
88,144,46830,2,0,B|72:80|124:32,2,110,8|4|8
188,192,48080,2,0,B|420:192,1,220,0|4
396,84,49330,5,8
288,64,49746,1,0
188,112,50163,2,0,B|84:152,1,110,8|4
176,216,50996,5,8
284,240,51413,1,0
208,320,51830,2,0,B|312:360,1,110,8|4
408,312,52663,5,8
448,208,53080,1,0
360,144,53496,1,8
300,52,53913,6,0,B|268:112|188:104,1,110,4|8
108,144,54746,1,0
152,244,55163,2,0,B|200:352,1,110,8|4
