osu file format v9

[General]
AudioFilename: f.mp3
AudioLeadIn: 2000
PreviewTime: 35584
Countdown: 0
SampleSet: Normal
StackLeniency: 0.7
Mode: 0
LetterboxInBreaks: 1

[Editor]
Bookmarks: 44714
DistanceSpacing: 1
BeatDivisor: 4
GridSize: 4

[Metadata]
Title:Friday (Nightcore Mix)
Artist:Glee Cast
Creator:-Bakari-
Version:Fun! Fun! Fun!
Source:
Tags:Kotek- rebecca black j4yj4ys3z

[Difficulty]
HPDrainRate:7
CircleSize:4
OverallDifficulty:7
ApproachRate:8
SliderMultiplier:1.9
SliderTickRate:2

[Events]
//Background and Video events
0,0,"mikubg.jpg"
//Break Periods
//Storyboard Layer 0 (Background)
//Storyboard Layer 1 (Fail)
//Storyboard Layer 2 (Pass)
//Storyboard Layer 3 (Foreground)
//Storyboard Sound Samples
//Background Colour Transformations
3,100,163,162,255

[TimingPoints]
580,416.666666666667,4,2,0,25,1,0
35580,-100,4,1,0,37,0,1
55580,-100,4,1,0,28,0,0

[Colours]
Combo1 : 13,198,96
Combo2 : 44,230,34
Combo3 : 175,137,73
Combo4 : 112,225,250

[HitObjects]
76,188,580,38,0,B|48:232|72:280,1,95,4|0
154,320,996,1,2
221,252,1205,1,0
288,184,1413,1,0
452,76,1830,5,8
480,264,2246,2,0,B|448:296|384:304|344:252|344:252|296:256,2,190,4|8|0
348,124,3496,1,8
204,255,3913,2,0,B|168:252|168:252|120:304|64:296|32:264,2,190,4|8|0
256,72,5163,1,8
92,168,5580,5,4
96,356,5996,1,8
256,260,6413,1,0
416,356,6830,1,8
284,216,7246,5,4
208,272,7455,1,0
136,328,7663,1,8
60,272,7871,1,0
136,216,8080,1,0
136,121,8288,2,0,B|128:26,1,95,0|8
208,80,8705,1,0
256,160,8913,5,4
304,80,9121,1,0
383,26,9330,2,0,B|376:121,1,95,2|0
376,215,9746,1,0
452,272,9955,1,0
376,328,10163,1,8
304,272,10371,1,0
256,188,10580,6,0,B|256:80,1,95,4|0
180,148,10996,1,8
256,324,11413,1,0
328,148,11830,1,8
256,324,12246,5,4
256,324,12455,1,0
104,190,12871,1,0
104,286,13080,1,2
104,98,13496,1,8
284,192,13913,5,4
284,192,14017,1,0
284,192,14121,1,0
316,280,14330,2,0,B|364:304|408:280,1,95,2|0
364,192,14746,1,0
416,112,14955,1,0
400,96,15059,1,0
380,88,15163,1,8
364,192,15371,1,0
296,128,15580,6,0,B|192:128,1,95,4|0
128,192,15996,1,2
201,256,16205,2,0,B|296:256,1,95,0|0
364,192,16621,1,0
388,192,16725,1,0
412,192,16830,1,8
512,192,17038,1,0
464,112,17246,5,4
442,102,17350,1,0
421,97,17455,1,0
397,97,17559,1,0
372,96,17663,1,2
364,192,17871,1,0
376,288,18080,1,0
464,272,18288,1,0
464,296,18392,1,0
464,320,18496,1,8
376,288,18705,1,0
288,248,18913,6,0,B|244:276|244:276|244:328,1,95,4|0
148,332,19330,1,2
56,348,19538,1,0
56,348,19642,1,0
56,348,19746,2,0,B|56:292|80:240|144:228|192:248,1,190,0|8
256,192,20371,1,0
333,140,20580,6,0,B|368:156|432:144|456:92|456:36,1,190,4|2
360,52,21205,1,0
360,52,21413,1,0
332,140,21621,1,0
332,187,21726,1,0
332,234,21830,1,8
257,294,22038,1,0
179,236,22246,6,0,B|179:141,1,95,4|0
257,86,22663,1,2
257,86,22871,1,0
178,140,23080,2,0,B|144:156|80:144|56:92|56:36,2,190,0|8|4
406,311,24538,5,0
389,294,24642,1,0
372,277,24746,1,0
416,192,24955,1,0
348,124,25163,1,8
184,208,25580,6,0,B|192:256|256:280|320:256|328:208,2,190,4|2|0
184,108,26621,2,0,B|192:60|256:36|320:60|328:108,1,190,0|0
368,192,27246,5,4
392,192,27351,1,0
416,192,27455,1,4
328,224,27663,2,0,B|232:224,1,95,2|0
136,220,28080,2,0,B|124:176|124:176|136:120,1,95,0|0
228,116,28496,2,0,B|323:116,1,95,8|0
400,32,28913,5,4
352,32,29017,1,0
304,32,29121,1,2
208,36,29330,2,0,B|113:36,1,95,2|0
156,112,29746,1,0
260,112,29955,1,0
356,112,30163,1,8
256,276,30580,5,4
256,252,30684,1,0
256,228,30788,1,2
256,132,30996,1,2
256,36,31205,1,0
256,132,31413,1,0
256,324,31830,1,8
100,216,32246,6,0,B|164:216|164:216|192:176,1,95,4|2
256,240,32663,1,2
256,132,32871,1,0
330,190,33080,2,0,B|348:216|348:216|412:216,2,95,0|0|8
256,192,33705,12,0,35163
393,194,35580,6,0,B|441:186|465:122|441:58|393:50,2,190,4|2|0
460,261,36621,1,0
392,328,36830,1,8
324,260,37038,1,0
256,192,37246,5,4
224,224,37351,1,0
188,260,37455,1,0
120,328,37663,1,2
52,261,37871,1,0
119,194,38080,2,0,B|71:186|47:122|71:58|119:50,2,190,0|8|4
188,124,39121,5,0
220,92,39226,1,0
256,60,39330,1,2
324,124,39538,1,0
388,50,39746,1,0
388,50,39851,1,0
388,50,39955,1,0
448,120,40163,6,0,B|444:188|416:224|368:252|308:244,1,190,8|0
324,124,40788,1,0
256,188,40996,1,2
184,124,41205,1,0
256,188,41413,2,0,B|256:324,2,95,0|0|2
256,92,42038,1,0
180,36,42246,6,0,B|124:36|124:36|68:72|68:72|-4:72,2,190,4|2|0
256,92,43288,1,0
332,36,43496,2,0,B|388:36|388:36|444:72|444:72|516:72,2,190,8|4|2
336,124,44538,5,0
256,168,44746,1,0
216,140,44850,1,0
172,132,44955,1,0
188,220,45163,2,0,B|196:268|260:292|324:268|332:220,1,190,2|4
412,268,45788,5,0
420,292,45892,1,0
424,316,45996,1,2
332,340,46205,1,0
258,282,46413,1,0
184,340,46621,1,0
88,316,46830,1,8
92,292,46934,1,0
100,268,47038,1,0
184,224,47246,6,0,B|184:160|184:160|140:112|140:112|140:44,1,190,4|2
40,40,47871,1,0
140,52,48080,1,0
228,84,48288,1,0
312,128,48496,2,0,B|336:128|336:128|400:176|464:128|464:128|508:128,1,190,2|4
452,216,49121,5,0
360,232,49330,1,0
272,196,49538,1,0
184,160,49746,2,0,B|184:224|184:224|140:272|140:272|140:340,1,190,0|2
40,344,50371,1,0
140,332,50580,5,4
228,300,50788,1,0
300,240,50996,2,0,B|324:240|324:240|388:192|452:240|452:240|496:240,2,190,2|0|2
132,192,52246,5,4
256,48,52663,1,2
376,192,53080,1,4
256,336,53496,1,8
212,152,53913,5,4
208,248,54121,1,0
302,248,54330,1,2
302,152,54538,2,0,B|334:112|334:112|382:112,2,95,0|0|0
212,152,55163,2,0,B|180:112|180:112|132:112,2,95,0|0|4
