osu file format v10

[General]
AudioFilename: Love Me Cheerilee.mp3
AudioLeadIn: 0
PreviewTime: 64037
Countdown: 1
SampleSet: None
StackLeniency: 0.7
Mode: 0
LetterboxInBreaks: 1

[Editor]
DistanceSpacing: 0.8
BeatDivisor: 1
GridSize: 32

[Metadata]
Title:Love me Cheerilee
TitleUnicode:Love me Cheerilee
Artist:Glaze And The Living Tombstone
ArtistUnicode:Glaze And The Living Tombstone
Creator:Someoneman
Version:Filly
Source:My Little Pony: Friendship is Magic
Tags:My Little Pony MLP Living Tombstone Glaze Wooden Toaster
BeatmapID:182577
BeatmapSetID:61186

[Difficulty]
HPDrainRate:6
CircleSize:6
OverallDifficulty:6
ApproachRate:7
SliderMultiplier:1.4
SliderTickRate:1

[Events]
//Background and Video events
0,0,"love_me_cheerilee_by_sosweetntasty-d4rynn0.jpg"
//Break Periods
2,72527,90867
2,136850,154475
//Storyboard Layer 0 (Background)
//Storyboard Layer 1 (Fail)
//Storyboard Layer 2 (Pass)
//Storyboard Layer 3 (Foreground)
//Storyboard Sound Samples
//Background Colour Transformations
3,100,163,162,255

[TimingPoints]
0,571.760809909481,4,1,0,100,1,0
36839,-100,4,1,0,100,0,0

[Colours]
Combo1 : 255,0,128
Combo2 : 128,0,128
Combo3 : 0,255,255
Combo4 : 81,81,255

[HitObjects]
64,128,18296,2,0,B|192:128|192:128,3,140
96,64,20511,1,0,0:0:0
96,192,21155,1,0,0:0:0
96,288,21726,1,0,0:0:0
192,288,22298,1,0,0:0:0
192,192,22870,6,0,B|192:64|192:64,3,140
288,64,25157,1,0,0:0:0
288,160,25729,1,0,0:0:0
288,256,26229,1,0,0:0:0
288,352,26872,1,0,0:0:0
384,352,27444,6,0,B|384:224|384:224,3,140
384,96,29731,1,0,0:0:0
288,96,30303,1,0,0:0:0
192,96,30875,1,0,0:0:0
96,96,31446,1,0,0:0:0
96,192,32018,6,0,B|224:192,3,140
256,192,34305,12,0,36020,0:0:0
256,64,36878,5,0,0:0:0
256,64,37164,1,0,0:0:0
256,128,37450,1,0,0:0:0
256,128,37736,1,0,0:0:0
256,128,38022,1,0,0:0:0
256,224,38593,1,0,0:0:0
256,224,38879,2,0,B|352:224,3,140
384,64,41452,5,0,0:0:0
384,64,41738,1,0,0:0:0
320,64,42024,1,0,0:0:0
320,64,42310,1,0,0:0:0
320,64,42596,1,0,0:0:0
320,160,43167,1,0,0:0:0
320,160,43453,2,0,B|448:160|448:160,3,140
448,64,46026,5,0,0:0:0
448,64,46312,1,0,0:0:0
448,64,46598,1,0,0:0:0
384,64,46884,1,0,0:0:0
384,64,47170,1,0,0:0:0
384,64,47456,1,0,0:0:0
384,128,47742,1,0,0:0:0
448,128,48027,1,0,0:0:0
448,192,48313,1,0,0:0:0
384,192,48599,1,0,0:0:0
384,256,48885,1,0,0:0:0
448,256,49171,2,0,B|320:256,1,140
320,96,50600,5,0,0:0:0
384,96,50886,1,0,0:0:0
384,160,51172,1,0,0:0:0
320,160,51458,1,0,0:0:0
320,224,51744,1,0,0:0:0
224,224,52316,1,0,0:0:0
224,224,52601,2,0,B|64:224,3,140
224,64,55460,6,0,B|224:224,3,140
320,192,57747,2,0,B|320:32,3,140
416,64,60034,2,0,B|416:224,3,140
320,192,62321,1,0,0:0:0
224,192,62893,1,0,0:0:0
128,192,63465,1,0,0:0:0
128,64,64037,2,0,B|288:64,3,140
256,160,66324,2,0,B|96:160,3,140
160,256,68611,2,0,B|320:256,5,140
288,192,72041,1,0,0:0:0
288,192,72327,1,0,0:0:0
64,64,91767,5,0,0:0:0
64,64,92053,1,0,0:0:0
128,64,92339,1,0,0:0:0
128,128,92625,1,0,0:0:0
64,128,92911,1,0,0:0:0
64,224,93482,1,0,0:0:0
128,224,93768,2,0,B|288:224,3,140
256,128,96341,5,0,0:0:0
256,128,96627,1,0,0:0:0
320,128,96913,1,0,0:0:0
320,128,97199,1,0,0:0:0
320,128,97485,1,0,0:0:0
320,224,98056,1,0,0:0:0
256,224,98342,1,0,0:0:0
192,192,98628,1,0,0:0:0
128,160,98914,1,0,0:0:0
64,128,99200,1,0,0:0:0
64,64,99486,2,0,B|224:64,1,140
192,64,100915,1,0,0:0:0
256,64,101201,1,0,0:0:0
320,64,101487,1,0,0:0:0
320,128,101773,1,0,0:0:0
256,128,102059,1,0,0:0:0
192,128,102345,1,0,0:0:0
192,192,102631,1,0,0:0:0
256,192,102916,2,0,B|416:192,3,140
384,32,105489,5,0,0:0:0
384,32,105775,1,0,0:0:0
320,32,106061,1,0,0:0:0
320,32,106347,1,0,0:0:0
320,32,106633,1,0,0:0:0
320,96,106919,1,0,0:0:0
384,96,107205,1,0,0:0:0
384,160,107491,1,0,0:0:0
320,160,107776,1,0,0:0:0
320,224,108062,1,0,0:0:0
384,224,108348,1,0,0:0:0
384,288,108634,2,0,B|224:288,1,140
288,64,110349,6,0,B|288:224,3,140
352,96,112636,2,0,B|352:256,3,140
416,160,114923,2,0,B|416:320,2,140
320,160,116639,1,0,0:0:0
224,160,117210,1,0,0:0:0
128,160,117782,1,0,0:0:0
32,160,118354,1,0,0:0:0
32,32,118926,6,0,B|192:32,3,140
160,128,121213,2,0,B|0:128,3,140
128,192,123500,2,0,B|288:192,2,140
224,128,125215,1,0,0:0:0
320,128,125787,1,0,0:0:0
416,128,126359,1,0,0:0:0
416,224,126930,2,0,B|256:224,1,140
256,128,128074,2,0,B|416:128,3,140
384,32,130361,1,0,0:0:0
288,32,130933,1,0,0:0:0
192,32,131504,1,0,0:0:0
96,32,132076,1,0,0:0:0
96,128,132648,2,0,B|256:128,3,140
224,224,134935,1,0,0:0:0
320,224,135507,1,0,0:0:0
416,224,136079,1,0,0:0:0
512,224,136650,1,0,0:0:0
256,32,155375,6,0,B|416:32,3,140
352,128,157662,1,0,0:0:0
256,128,158234,1,0,0:0:0
160,128,158806,1,0,0:0:0
64,128,159378,1,0,0:0:0
64,224,159985,6,0,B|224:224,3,140
192,128,162272,1,0,0:0:0
288,128,162843,1,0,0:0:0
384,128,163415,2,0,B|384:288,1,140
288,128,164559,2,0,B|288:288,3,140
192,256,166846,1,0,0:0:0
192,160,167417,1,0,0:0:0
192,64,167989,1,0,0:0:0
288,64,168561,1,0,0:0:0
288,160,169098,6,0,B|288:320,3,140
256,192,171385,12,0,173672,0:0:0
256,32,174244,6,0,B|256:192,3,140
352,160,176531,1,0,0:0:0
352,64,177102,1,0,0:0:0
256,64,177674,1,0,0:0:0
256,160,178246,1,0,0:0:0
352,160,178818,6,0,B|352:320,3,140
256,288,181105,1,0,0:0:0
256,192,181676,1,0,0:0:0
256,96,182248,1,0,0:0:0
160,96,182820,1,0,0:0:0
160,224,183392,6,0,B|320:224,3,140
288,128,185679,1,0,0:0:0
192,128,186251,1,0,0:0:0
192,224,186822,1,0,0:0:0
288,224,187394,1,0,0:0:0
288,128,187966,6,0,B|128:128,3,140
160,224,190253,1,0,0:0:0
256,224,190825,1,0,0:0:0
352,224,191396,1,0,0:0:0
448,224,191968,1,0,0:0:0
