osu file format v4

[General]
AudioFilename: Glay - Way Of Difference.mp3
AudioLeadIn: 0
AudioHash: bd2ec9e818ce7b42183b94a5d7525fdb
PreviewTime: 46829
SampleSet: Soft
EditorBookmarks: 67541,77074,138758,146608

[Metadata]
Title:Way Of Difference
Artist:Glay
Creator:Echo49
Version:Normal

[Difficulty]
HPDrainRate:4
CircleSize:5
OverallDifficulty:3
SliderMultiplier: 2
SliderTickRate: 0.1

[Events]
0,0,"glay-wod.jpg"
2,67741,75634
2,138958,145168
3,0,0,213,0

[TimingPoints]
9784,560.7570538,4,2,1
157333,560.757053800003,4,2,1

[HitObjects]
80,64,9784,5,0,
152,64,10344,1,0,
224,64,10905,1,0,
296,64,11466,1,0,
368,64,12027,1,0,
368,64,12307,1,0,
440,64,12868,1,2,
432,320,14270,5,0,
360,320,14830,1,0,
288,320,15391,1,0,
216,320,15952,1,0,
144,320,16513,2,0,B|144:320|88:312|44:248|56:192,1,150
96,72,18756,5,0,
152,112,19316,1,0,
208,152,19877,1,0,
264,192,20438,1,0,
320,232,20999,1,0,
320,232,21279,1,0,
376,272,21840,1,2,
416,72,23242,5,0,
360,112,23802,1,0,
304,152,24363,1,0,
256,192,24924,2,0,B|256:192|177:240|152:328,1,150
88,72,27728,5,0,
88,136,28288,1,0,
88,200,28849,1,0,
88,264,29410,1,0,
152,264,29971,1,2,
152,264,30251,1,0,
216,264,30812,1,2,
256,48,32214,5,0,
224,104,32775,1,0,
288,104,33335,1,0,
256,160,33896,1,2,
256,224,34457,2,0,B|256:224|204:287|310:292|251:363,1,150
252,357,35578,2,0,B|252:357|197:290|303:285|251:222,1,150
424,72,36700,5,0,
424,136,37260,1,0,
424,200,37821,1,0,
424,264,38382,1,0,
360,264,38943,1,2,
360,264,39223,1,0,
296,264,39784,1,2,
256,192,40625,12,4,45952
216,56,47635,5,0,
216,120,47915,1,0,
216,184,48195,1,2,
216,184,48336,1,2,
296,184,48756,5,0,
296,248,49036,1,0,
296,312,49316,1,2,
296,312,49457,1,2,
136,248,50158,5,0,
216,248,50719,1,2,
296,248,51280,1,0,
376,248,51840,1,2,
376,96,52681,5,2,
296,96,53242,1,2,
216,96,53803,1,2,
136,96,54363,1,2,
136,160,54644,6,4,B|136:160|288:160,1,150
296,56,56607,5,0,
296,120,56887,1,0,
296,184,57167,1,2,
296,184,57308,1,2,
216,184,57728,5,0,
216,248,58008,1,0,
216,312,58288,1,2,
216,312,58429,1,2,
376,248,59130,5,0,
296,248,59691,1,2,
216,248,60252,1,0,
136,248,60812,1,2,
136,96,61653,5,2,
216,96,62214,1,2,
296,96,62775,1,2,
376,96,63335,1,2,
376,160,63616,6,4,B|376:160|152:160,1,200
136,224,64738,2,4,B|136:224|360:224,1,200
376,288,65859,2,4,B|376:288|152:288,1,200
136,352,66981,2,4,B|136:352|360:352,1,200
104,264,77074,5,0,
104,192,77635,1,2,
128,128,78196,1,0,
192,104,78757,1,0,
256,128,79317,1,0,
256,128,79598,1,0,
280,192,80159,1,2,
192,192,81560,5,2,
192,264,82121,1,0,
240,320,82682,1,0,
312,296,83243,1,2,
360,240,83803,2,0,B|360:240|384:160|360:72,1,150
408,264,86046,5,0,
408,192,86607,1,2,
384,128,87168,1,0,
320,104,87729,1,0,
256,128,88289,1,0,
256,128,88570,1,0,
232,192,89131,1,2,
320,192,90533,5,0,
320,264,91094,1,0,
272,320,91655,1,2,
192,304,92075,2,0,B|192:304|155:297|152:248,1,50
152,232,92495,1,2,
152,232,92635,1,2,
416,64,95299,5,2,
416,128,95579,1,0,
304,128,96140,5,2,
304,192,96420,1,0,
192,192,96981,5,2,
192,256,97262,1,0,
56,256,98103,1,2,
80,104,99505,5,0,
152,104,100065,1,0,
152,176,100626,1,0,
224,176,101187,1,0,
224,240,101607,2,0,B|224:240|345:230|384:312,1,150
456,312,103991,5,0,
456,240,104551,1,0,
384,240,105112,1,0,
384,168,105673,1,0,
312,168,106234,1,0,
312,168,106514,1,0,
240,168,107075,1,0,
256,192,107916,12,4,113243
200,136,114925,5,0,
256,184,115206,1,0,
312,232,115486,1,2,
312,232,115626,1,2,
312,136,116047,5,0,
256,184,116328,1,0,
200,232,116608,1,2,
200,232,116748,1,2,
256,80,117449,5,0,
256,152,118010,1,2,
256,224,118570,1,0,
256,296,119131,1,2,
288,256,119972,5,2,
224,208,120533,1,2,
288,160,121094,1,2,
224,112,121655,1,2,
256,56,121935,6,4,B|256:56|256:208,1,150
184,120,123898,5,0,
184,192,124178,1,0,
184,264,124458,1,0,
184,264,124599,1,0,
328,264,125019,5,0,
328,192,125299,1,0,
328,120,125579,1,0,
328,120,125720,1,0,
424,112,126421,5,0,
408,184,126982,1,2,
368,248,127542,1,0,
312,296,128103,1,2,
88,112,128944,5,2,
104,184,129505,1,2,
144,248,130065,1,2,
200,296,130626,1,2,
256,240,130907,6,4,B|256:240|256:88,1,150
256,72,133430,5,2,
256,152,133991,1,2,
256,232,134552,1,2,
256,304,135113,1,2,
256,192,135393,12,0,138758
72,40,146608,6,2,B|72:40|72:352,1,300
144,344,147730,1,2,
216,344,148010,1,2,
288,344,148290,1,2,
360,344,148571,1,2,
440,344,148851,6,2,B|440:344|440:32,1,300
368,40,149973,1,2,
296,40,150253,1,2,
224,40,150533,1,2,
152,40,150814,1,2,
184,136,151094,6,4,B|184:136|184:256,3,100
200,264,152216,6,4,B|200:264|320:264,3,100
328,248,153337,6,4,B|328:248|328:128,3,100
312,120,154459,6,4,B|312:120|192:120,3,100
232,192,155580,6,4,B|232:192|280:192,8,50
216,328,157613,5,0,
216,264,157893,1,0,
216,200,158173,1,2,
216,200,158314,1,2,
296,200,158734,5,0,
296,136,159014,1,0,
296,72,159294,1,2,
296,72,159435,1,2,
136,136,160136,5,0,
216,136,160697,1,2,
296,136,161258,1,0,
376,136,161818,1,2,
376,288,162659,5,2,
296,288,163220,1,2,
216,288,163781,1,2,
136,288,164341,1,2,
136,224,164622,6,4,B|136:224|288:224,1,150
296,328,166585,5,0,
296,264,166865,1,0,
296,200,167145,1,2,
296,200,167286,1,2,
216,200,167706,5,0,
216,136,167986,1,0,
216,72,168266,1,2,
216,72,168407,1,2,
376,136,169108,5,0,
296,136,169669,1,2,
216,136,170230,1,0,
136,136,170790,1,2,
136,288,171631,5,2,
216,288,172192,1,2,
296,288,172753,1,2,
376,288,173313,1,2,
376,224,173594,6,4,B|376:224|152:224,1,200
152,56,175557,5,0,
104,104,175837,1,0,
56,152,176118,1,2,
56,152,176258,1,2,
56,232,176679,5,0,
104,280,176959,1,0,
152,328,177240,1,2,
152,328,177380,1,2,
208,88,178081,6,0,B|208:88|328:88,1,100
208,160,178641,2,0,B|208:160|328:160,1,100
208,224,179202,2,0,B|208:224|328:224,1,100
208,288,179763,2,0,B|208:288|328:288,1,100
432,312,180604,5,2,
432,232,181165,1,2,
432,144,181725,1,2,
432,64,182286,1,2,
368,64,182567,6,4,B|368:64|368:216,1,150
360,56,184529,5,0,
408,104,184809,1,0,
456,152,185090,1,2,
456,152,185230,1,2,
456,232,185651,5,0,
408,280,185931,1,0,
360,328,186212,1,4,
360,328,186352,1,4,
304,88,187053,6,0,B|304:88|184:88,1,100
304,160,187613,2,0,B|304:160|184:160,1,100
304,224,188174,2,0,B|304:224|184:224,1,100
304,288,188735,2,0,B|304:288|184:288,1,100
80,312,189576,5,2,
80,232,190137,1,2,
80,144,190697,1,2,
80,64,191258,1,2,
144,64,191539,6,4,B|144:64|144:216,1,150
208,320,192660,2,0,B|208:320|320:320,2,100
288,256,194062,5,2,
224,208,194623,1,2,
288,160,195184,1,2,
224,112,195745,1,2,
256,56,196025,6,4,B|256:56|256:208,1,150
304,320,197146,2,0,B|304:320|192:320,2,100
224,256,198548,5,2,
288,208,199109,1,2,
224,160,199670,1,2,
288,112,200231,1,2,
256,56,200511,6,4,B|256:56|256:208,1,150
208,320,201632,2,0,B|208:320|320:320,2,100
256,192,202754,12,0,205558
