osu file format v12

[General]
AudioFilename: [271] Separated Union.mp3
AudioLeadIn: 0
PreviewTime: 27815
Countdown: 0
SampleSet: Soft
StackLeniency: 0.7
Mode: 0
LetterboxInBreaks: 0

[Editor]
DistanceSpacing: 1
BeatDivisor: 2
GridSize: 4

[Metadata]
Title:Separated Union
TitleUnicode:Separated Union
Artist:Glasslake
ArtistUnicode:Glasslake
Creator:mercury2004
Version:Insane5957
Source:O2Jam
Tags:haha5957
BeatmapID:227112
BeatmapSetID:80720

[Difficulty]
HPDrainRate:6
CircleSize:4
OverallDifficulty:7
ApproachRate:9
SliderMultiplier:1.5
SliderTickRate:1

[Events]
//Background and Video events
0,0,"bgjpg.jpg",1,1
//Break Periods
2,102148,104571
//Storyboard Layer 0 (Background)
//Storyboard Layer 1 (Fail)
//Storyboard Layer 2 (Pass)
//Storyboard Layer 3 (Foreground)
//Storyboard Sound Samples
//Background Colour Transformations
3,100,163,162,255

[TimingPoints]
10956.3830469201,247.933884297521,4,2,1,60,1,0
18890,-100,4,1,1,40,0,0
19882,-100,4,1,1,40,0,1
27815,-100,4,1,1,40,0,0
34758,-100,4,1,1,15,0,0
35005,-100,4,1,1,30,0,0
35253,-100,4,1,1,45,0,0
35501,-100,4,1,1,60,0,0
35749,-100,4,1,1,40,0,0
40708,-100,4,1,1,10,0,0
41700,-100,4,1,1,40,0,0
51617,-83.3333333333333,4,1,1,40,0,0
55584,-83.3333333333333,4,1,1,40,0,1
58063,-71.4285714285714,4,1,1,40,0,1
58559,-62.5,4,1,1,40,0,1
59055,-55.5555555555556,4,1,1,40,0,1
59551,-100,4,2,1,10,0,0
62526,-100,4,1,1,40,0,0
78394,-100,4,1,1,40,0,0
98229,-83.3333333333333,4,1,1,40,0,1
99220,-71.4285714285714,4,1,1,40,0,1
100212,-62.5,4,1,1,40,0,1
101204,-100,4,1,1,40,0,1
102196,495.867768595041,4,2,1,5,1,0
102196,-200,4,2,1,5,0,0

[Colours]
Combo1 : 135,184,33
Combo2 : 245,255,72
Combo3 : 234,164,113
Combo4 : 243,58,63

[HitObjects]
60,128,10956,2,0,P|44:88|52:52,2,75
124,84,11328,1,0,0:0:0:0:
188,44,11452,2,0,L|264:44,1,75
240,116,11700,2,0,L|344:116,1,75
380,156,11948,6,0,P|424:156|464:120,2,75
384,80,12320,1,0,0:0:0:0:
316,116,12443,2,0,L|284:204,1,75
264,256,12691,2,0,L|232:344,1,75
164,328,12939,6,0,P|128:340|68:332,2,75
164,252,13311,1,0,0:0:0:0:
136,184,13435,2,0,L|96:112,1,75
32,152,13683,2,0,P|28:96|48:52,1,75
96,36,13931,5,0,0:0:0:0:
172,28,14055,1,0,0:0:0:0:
244,52,14179,1,0,0:0:0:0:
288,112,14303,1,0,0:0:0:0:
236,164,14427,5,0,0:0:0:0:
264,232,14551,1,0,0:0:0:0:
320,280,14675,1,0,0:0:0:0:
392,292,14799,1,0,0:0:0:0:
460,264,14923,6,0,P|467:225|460:168,1,75
460,116,15171,2,0,P|454:76|460:28,1,75
380,36,15419,2,0,P|332:36|296:24,2,75
388,112,15791,1,0,0:0:0:0:
380,188,15915,6,0,P|368:236|332:272,1,75
296,304,16162,2,0,P|260:324|220:320,1,75
156,300,16410,2,0,P|116:312|88:344,2,75
212,252,16782,1,0,0:0:0:0:
296,232,16906,6,0,P|336:240|376:224,1,75
296,152,17154,2,0,P|304:112|288:72,1,75
216,152,17402,2,0,P|176:144|136:160,1,75
216,232,17650,2,0,P|208:272|224:312,1,75
340,328,17898,6,0,P|388:300|392:264,1,75,0|0,0:0|0:0,0:0:0:0:
392,108,18146,2,0,P|364:60|328:56,1,75,0|0,0:0|0:0,0:0:0:0:
172,56,18394,2,0,P|124:84|120:120,1,75,0|0,0:0|0:0,0:0:0:0:
120,276,18642,2,0,P|148:324|184:328,1,75,0|0,0:0|0:0,0:0:0:0:
340,328,18890,6,0,L|396:328|440:328,2,75,8|0|0,0:0|0:0|0:0,0:0:0:0:
376,252,19262,2,0,L|432:252|476:252,2,75,8|0|0,0:0|0:0|0:0,0:0:0:0:
408,176,19634,1,8,0:0:0:0:
272,240,19882,6,0,P|216:288|112:272,1,150,0|8,0:0|0:0,0:0:0:0:
0,236,20377,1,0,0:0:0:0:
12,164,20501,1,0,0:0:0:0:
72,116,20625,1,8,0:0:0:0:
220,132,20873,6,0,P|288:100|344:144,1,150,0|8,0:0|0:0,0:0:0:0:
380,204,21245,1,0,0:0:0:0:
364,276,21369,2,0,P|376:320|404:344,1,75
440,280,21617,1,8,0:0:0:0:
412,132,21865,6,0,P|336:136|304:216,1,150,0|8,0:0|0:0,0:0:0:0:
284,268,22237,1,0,0:0:0:0:
228,320,22361,2,0,P|168:344|132:336,1,75
104,292,22609,2,0,P|164:268|200:276,1,75,8|0,0:0|0:0,0:0:0:0:
228,216,22857,6,0,P|232:168|248:120,2,75,0|0|8,0:0|0:0|0:0,0:0:0:0:
156,196,23229,2,0,P|164:140|176:104,2,75
172,268,23601,2,0,P|168:324|144:360,1,75
88,360,23848,6,0,P|36:308|56:236,1,150,0|8,0:0|0:0,0:0:0:0:
148,124,24344,1,0,0:0:0:0:
104,64,24468,1,0,0:0:0:0:
28,56,24592,1,8,0:0:0:0:
104,184,24840,6,0,P|136:208|184:216,1,75
244,216,25088,2,0,P|277:207|309:183,1,75,8|0,0:0|0:0,0:0:0:0:
360,128,25336,2,0,P|392:104|425:95,2,75,0|0|8,0:0|0:0|0:0,0:0:0:0:
456,244,25832,6,0,L|424:176,2,75,0|0|8,0:0|0:0|0:0,0:0:0:0:
344,344,26328,2,0,L|252:344,2,75,0|0|8,0:0|0:0|0:0,0:0:0:0:
304,200,26824,5,0,0:0:0:0:
248,148,26948,1,0,0:0:0:0:
196,96,27072,1,8,0:0:0:0:
140,48,27196,1,8,0:0:0:0:
72,80,27320,5,8,0:0:0:0:
120,148,27443,1,8,0:0:0:0:
172,212,27567,1,8,0:0:0:0:
224,276,27691,1,8,0:0:0:0:
276,340,27815,6,0,B|332:360|332:360|384:352|416:284,1,150,0|8,0:0|0:0,0:0:0:0:
376,68,28311,1,0,0:0:0:0:
396,140,28435,1,0,0:0:0:0:
464,168,28559,1,8,0:0:0:0:
228,60,28807,6,0,P|172:104|64:100,1,150,0|8,0:0|0:0,0:0:0:0:
31,327,29303,2,0,P|36:292|52:256,2,75,0|0|8,0:0|0:0|0:0,0:0:0:0:
188,196,29799,5,0,0:0:0:0:
336,192,30047,1,8,0:0:0:0:
420,316,30295,2,0,P|456:340|500:340,2,75,0|0|8,0:0|0:0|0:0,0:0:0:0:
320,48,30791,6,0,P|232:36|160:52,1,150,0|8,0:0|0:0,0:0:0:0:
60,152,31162,2,0,P|96:164|136:152,1,75
204,136,31410,1,0,0:0:0:0:
276,160,31534,1,8,0:0:0:0:
420,316,31782,6,0,P|440:248|416:164,1,150,0|8,0:0|0:0,0:0:0:0:
92,68,32278,2,0,P|72:136|96:220,1,150,0|8,0:0|0:0,0:0:0:0:
160,240,32650,1,0,0:0:0:0:
228,212,32774,6,0,P|244:176|232:128,1,75
180,96,33022,2,0,P|164:132|176:180,1,75,8|0,0:0|0:0,0:0:0:0:
160,240,33270,2,0,P|156:288|108:320,2,75,0|0|8,0:0|0:0|0:0,0:0:0:0:
40,332,33766,5,0,0:0:0:0:
256,48,34262,1,0,0:0:0:0:
472,332,34758,5,0,0:0:0:0:
404,332,34882,1,0,0:0:0:0:
348,280,35005,1,8,0:0:0:0:
328,208,35129,1,8,0:0:0:0:
276,144,35253,1,8,0:0:0:0:
204,104,35377,1,8,0:0:0:0:
116,96,35501,1,8,0:0:0:0:
44,148,35625,1,8,0:0:0:0:
20,236,35749,6,0,P|32:304|108:348,1,150,4|8,0:0|0:0,0:0:0:0:
224,292,36121,2,0,P|188:276|140:284,1,75
176,352,36369,1,0,0:0:0:0:
248,364,36493,2,0,P|288:364|328:336,1,75,8|0,0:0|0:0,0:0:0:0:
368,292,36741,6,0,P|404:224|384:124,1,150,12|0,0:0|0:0,0:0:0:0:
144,92,37113,2,0,P|108:160|128:260,1,150,8|0,0:0|0:0,0:0:0:0:
256,192,37485,1,12,0:0:0:0:
440,52,37733,5,0,0:0:0:0:
256,340,38105,1,0,0:0:0:0:
72,52,38477,1,0,0:0:0:0:
132,240,38724,6,0,P|200:224|288:260,1,150,0|8,0:0|0:0,0:0:0:0:
424,336,39220,2,0,P|384:340|324:300,2,75,0|0|8,0:0|0:0|0:0,0:0:0:0:
404,88,39716,6,0,B|424:152|424:152|452:184|440:236,1,150,4|8,0:0|0:0,0:0:0:0:
352,204,40088,2,0,B|332:140|332:140|304:108|316:56,1,150,4|0,0:0|0:0,0:0:0:0:
224,40,40460,1,8,0:0:0:0:
144,64,40708,5,0,0:0:0:0:
64,136,41080,1,0,0:0:0:0:
56,240,41452,1,0,0:0:0:0:
84,316,41700,5,0,0:0:0:0:
152,348,41824,1,0,0:0:0:0:
228,344,41948,1,0,0:0:0:0:
296,308,42072,1,0,0:0:0:0:
328,240,42196,1,0,0:0:0:0:
364,176,42320,1,0,0:0:0:0:
428,140,42443,1,0,0:0:0:0:
504,148,42567,1,0,0:0:0:0:
504,148,42815,5,4,0:0:0:0:
384,40,43187,1,4,0:0:0:0:
236,52,43435,1,4,0:0:0:0:
88,36,43683,6,0,P|64:96|84:196,1,150,4|8,0:0|0:0,0:0:0:0:
424,348,44179,2,0,P|448:288|428:188,1,150,0|8,0:0|0:0,0:0:0:0:
92,328,44675,6,0,P|160:336|240:284,1,150,0|8,0:0|0:0,0:0:0:0:
420,56,45171,2,0,P|352:48|272:100,1,150,0|8,0:0|0:0,0:0:0:0:
272,160,45543,1,0,0:0:0:0:
272,160,45667,6,0,P|216:220|124:224,1,150
80,208,46039,1,0,0:0:0:0:
64,60,46286,1,8,0:0:0:0:
64,60,46410,1,0,0:0:0:0:
64,60,46534,1,0,0:0:0:0:
256,324,46782,5,4,0:0:0:0:
448,60,47154,1,0,0:0:0:0:
468,272,47402,1,4,0:0:0:0:
328,284,47650,6,0,P|248:244|184:280,1,150,0|8,0:0|0:0,0:0:0:0:
60,144,48146,2,0,P|68:224|136:256,1,150,0|8,0:0|0:0,0:0:0:0:
256,92,48642,6,0,L|128:180,1,150,0|8,0:0|0:0,0:0:0:0:
396,196,49138,2,0,P|388:116|320:84,1,150,0|8,0:0|0:0,0:0:0:0:
332,244,49634,2,0,B|328:316|376:352|376:352|419:328|500:336,2,225,4|4|4,0:0|0:0|0:0,0:0:0:0:
100,340,50625,5,0,0:0:0:0:
112,264,50749,1,0,0:0:0:0:
168,216,50873,1,8,0:0:0:0:
240,192,50997,1,8,0:0:0:0:
312,204,51121,1,8,0:0:0:0:
388,192,51245,1,8,0:0:0:0:
436,136,51369,1,8,0:0:0:0:
456,64,51493,1,8,0:0:0:0:
396,16,51617,6,0,P|348:16|300:44,1,89.9999972534181,4|0,0:0|0:0,0:0:0:0:
196,108,51865,2,0,P|144:92|112:32,1,89.9999972534181,8|0,0:0|0:0,0:0:0:0:
64,188,52113,2,0,P|56:232|76:288,1,89.9999972534181
192,332,52361,2,0,P|200:288|180:232,1,89.9999972534181,12|0,0:0|0:0,0:0:0:0:
320,216,52609,6,0,P|324:328|332:372,1,89.9999972534181,0|0,0:0|0:0,0:0:0:0:
428,292,52857,2,0,L|444:336,2,44.999998626709,8|0|0,0:0|0:0|0:0,0:0:0:0:
428,156,53105,2,0,P|420:96|436:60,1,89.9999972534181
296,48,53353,2,0,P|280:100|232:144,1,89.9999972534181,8|0,0:0|0:0,0:0:0:0:
124,112,53601,6,0,P|136:60|160:28,1,89.9999972534181
96,244,53848,2,0,P|68:296|4:316,1,89.9999972534181,8|0,0:0|0:0,0:0:0:0:
248,352,54096,2,0,L|240:240,1,89.9999972534181
376,276,54344,2,0,P|400:316|456:340,1,89.9999972534181,8|0,0:0|0:0,0:0:0:0:
472,156,54592,6,0,P|452:104|427:81,1,89.9999972534181,0|0,0:0|0:0,0:0:0:0:
292,92,54840,2,0,L|304:160,2,44.999998626709,8|0|0,0:0|0:0|0:0,0:0:0:0:
180,164,55088,2,0,P|136:188|64:184,1,89.9999972534181
112,56,55336,2,0,P|156:40|224:44,1,89.9999972534181,12|0,0:0|0:0,0:0:0:0:
388,84,55584,6,0,P|384:136|348:184,1,89.9999972534181,4|0,0:0|0:0,0:0:0:0:
252,348,55832,2,0,P|256:296|292:248,1,89.9999972534181,8|0,0:0|0:0,0:0:0:0:
248,88,56080,2,0,P|252:140|288:188,1,89.9999972534181,0|0,0:0|0:0,0:0:0:0:
388,336,56328,2,0,P|384:284|348:236,1,89.9999972534181,12|0,0:0|0:0,0:0:0:0:
196,176,56576,6,0,P|152:160|84:164,1,89.9999972534181
108,296,56824,2,0,P|152:312|220:308,1,89.9999972534181,8|0,0:0|0:0,0:0:0:0:
389,337,57072,2,0,P|346:335|302:319,1,89.9999972534181,0|0,0:0|0:0,0:0:0:0:
369,201,57320,2,0,P|411:202|455:218,1,89.9999972534181
370,113,57567,6,0,P|327:114|283:130,1,89.9999972534181,0|0,0:0|0:0,0:0:0:0:
142,271,57815,2,0,P|184:269|228:253,1,89.9999972534181,12|0,0:0|0:0,0:0:0:0:
323,52,58063,6,0,P|277:91|259:160,1,104.999996795654,8|0,0:0|0:0,0:0:0:0:
189,332,58311,2,0,P|235:293|253:224,1,104.999996795654,12|0,0:0|0:0,0:0:0:0:
251,27,58559,6,0,P|224:80|243:161,1,120,12|0,0:0|0:0,0:0:0:0:
261,357,58807,2,0,P|288:304|269:223,1,120,8|0,0:0|0:0,0:0:0:0:
176,28,59055,6,0,P|168:100|220:176,1,134.999995880127,12|0,0:0|0:0,0:0:0:0:
336,356,59303,2,0,P|344:284|292:208,1,134.999995880127,12|0,0:0|0:0,0:0:0:0:
112,60,59551,5,4,0:0:0:0:
256,192,59675,12,0,61534,0:0:0:0:
256,192,61782,1,0,0:0:0:0:
256,192,62030,1,0,0:0:0:0:
256,192,62278,1,0,0:0:0:0:
64,304,62526,6,0,P|128:328|224:332,1,150,4|8,0:0|0:0,0:0:0:0:
360,348,63022,1,0,0:0:0:0:
432,324,63146,1,0,0:0:0:0:
468,256,63270,1,8,0:0:0:0:
392,128,63518,6,0,P|368:204|392:280,1,150,0|8,0:0|0:0,0:0:0:0:
468,144,64014,2,0,P|456:88|432:60,1,75
372,56,64262,1,8,0:0:0:0:
232,108,64510,6,0,P|208:68|200:28,2,75,4|0|8,0:0|0:0|0:0,0:0:0:0:
100,180,65005,2,0,P|56:168|32:128,2,75,0|0|8,0:0|0:0|0:0,0:0:0:0:
172,312,65501,6,0,P|136:288|120:248,1,75,4|0,0:0|0:0,0:0:0:0:
176,204,65749,1,8,0:0:0:0:
228,144,65873,1,0,0:0:0:0:
300,112,65997,2,0,P|336:104|373:109,2,75,4|0|8,0:0|0:0|0:0,0:0:0:0:
356,20,66493,6,0,P|436:60|460:120,1,150,4|8,0:0|0:0,0:0:0:0:
460,264,66989,2,0,P|420:344|360:368,1,150,0|8,0:0|0:0,0:0:0:0:
216,368,67485,2,0,P|136:328|112:268,2,150,0|8|0,0:0|0:0|0:0,0:0:0:0:
252,220,68229,1,8,0:0:0:0:
300,76,68477,6,0,P|332:52|380:36,2,75,4|0|8,0:0|0:0|0:0,0:0:0:0:
184,172,68972,2,0,P|152:196|104:212,2,75,0|0|8,0:0|0:0|0:0,0:0:0:0:
332,144,69468,6,0,P|384:124|416:124,1,75
476,132,69716,1,8,0:0:0:0:
476,132,69840,1,0,0:0:0:0:
456,204,69964,2,0,P|432:284|460:356,1,150,4|12,0:0|0:0,0:0:0:0:
456,204,70460,6,0,P|380:228|328:300,1,150,0|8,0:0|0:0,0:0:0:0:
196,332,70956,1,0,0:0:0:0:
196,332,71204,1,8,0:0:0:0:
28,160,71452,6,0,P|100:148|156:232,1,150,4|8,0:0|0:0,0:0:0:0:
208,248,71824,1,0,0:0:0:0:
208,248,71948,2,0,P|288:264|332:212,1,150,0|8,0:0|0:0,0:0:0:0:
448,40,72443,6,0,P|368:40|312:100,1,150,0|8,0:0|0:0,0:0:0:0:
424,196,72939,1,0,0:0:0:0:
424,196,73187,1,8,0:0:0:0:
344,324,73435,6,0,P|268:300|196:336,1,150,4|8,0:0|0:0,0:0:0:0:
132,340,73807,1,0,0:0:0:0:
132,340,73931,2,0,P|60:316|36:248,1,150,4|8,0:0|0:0,0:0:0:0:
96,112,74427,5,4,0:0:0:0:
232,52,74675,1,8,0:0:0:0:
216,200,74923,1,0,0:0:0:0:
164,60,75171,1,8,0:0:0:0:
312,92,75419,5,0,0:0:0:0:
276,236,75667,1,8,0:0:0:0:
168,132,75915,1,0,0:0:0:0:
312,92,76162,1,8,0:0:0:0:
420,196,76410,6,0,P|412:292|356:332,1,150,4|8,0:0|0:0,0:0:0:0:
224,308,76906,1,0,0:0:0:0:
148,304,77030,1,0,0:0:0:0:
84,344,77154,1,8,0:0:0:0:
36,200,77402,6,0,L|68:296,1,75,4|0,0:0|0:0,0:0:0:0:
80,88,77650,2,0,L|112:184,1,75,12|0,0:0|0:0,0:0:0:0:
208,232,77898,2,0,L|172:132,1,75,4|0,0:0|0:0,0:0:0:0:
284,260,78146,1,8,0:0:0:0:
400,356,78394,6,0,B|463:335|463:335|476:296|440:228,1,150,4|8,0:0|0:0,0:0:0:0:
348,144,78890,1,0,0:0:0:0:
368,72,79014,1,0,0:0:0:0:
436,36,79138,1,8,0:0:0:0:
236,124,79386,6,0,B|208:64|208:64|164:40|108:60,1,150,0|8,0:0|0:0,0:0:0:0:
60,192,79882,1,0,0:0:0:0:
72,264,80005,1,0,0:0:0:0:
36,328,80129,1,8,0:0:0:0:
216,344,80377,6,0,B|232:320|232:320|252:304|296:296,2,75,4|0|8,0:0|0:0|0:0,0:0:0:0:
284,216,80873,2,0,B|300:192|300:192|320:176|364:168,2,75,0|0|8,0:0|0:0|0:0,0:0:0:0:
348,80,81369,2,0,B|364:56|364:56|384:40|428:32,1,75,4|0,0:0|0:0,0:0:0:0:
480,28,81617,1,8,0:0:0:0:
480,28,81741,1,0,0:0:0:0:
472,104,81865,2,0,B|460:136|460:136|456:168|472:208,1,75,4|0,0:0|0:0,0:0:0:0:
484,248,82113,1,8,0:0:0:0:
364,336,82361,6,0,B|312:368|276:356|276:356|208:320,1,150,12|8,0:0|0:0,0:0:0:0:
184,264,82733,1,8,0:0:0:0:
112,236,82857,1,8,0:0:0:0:
40,260,82981,1,8,0:0:0:0:
4,324,83105,1,8,0:0:0:0:
16,96,83353,6,0,P|68:92|104:64,1,75,8|0,0:0|0:0,0:0:0:0:
240,48,83601,2,0,P|188:52|152:80,1,75,8|8,0:0|0:0,0:0:0:0:
232,172,83848,2,0,P|284:168|320:140,1,75,8|8,0:0|0:0,0:0:0:0:
456,52,84096,2,0,P|404:56|368:84,1,75,8|0,0:0|0:0,0:0:0:0:
400,196,84344,6,0,P|408:284|468:332,1,150,12|8,0:0|0:0,0:0:0:0:
480,256,84716,1,8,0:0:0:0:
408,272,84840,1,8,0:0:0:0:
340,304,84964,1,8,0:0:0:0:
272,336,85088,2,0,P|236:348|168:340,1,75,8|0,0:0|0:0,0:0:0:0:
128,320,85336,6,8,P|88:320|40:352,2,75
200,348,85708,1,8,0:0:0:0:
272,336,85832,2,0,B|316:324|336:284|336:284|304:184,1,150,4|8,0:0|0:0,0:0:0:0:
180,156,86328,6,0,B|204:200|204:200|252:224|312:184,1,150,0|8,0:0|0:0,0:0:0:0:
392,72,86824,2,0,P|356:60|296:72,2,75,0|0|8,0:0|0:0|0:0,0:0:0:0:
444,212,87320,2,0,B|456:272|456:272|424:316|352:304,1,150,0|8,0:0|0:0,0:0:0:0:
304,300,87691,1,0,0:0:0:0:
228,300,87815,2,0,P|184:312|148:352,2,75,4|0|12,0:0|0:0|0:0,0:0:0:0:
80,332,88311,6,0,P|124:256|208:228,1,150,0|8,0:0|0:0,0:0:0:0:
324,192,88807,1,0,0:0:0:0:
396,172,88931,1,0,0:0:0:0:
440,112,89055,1,8,0:0:0:0:
224,36,89303,6,0,B|260:64|276:96|276:96|280:124|248:176,1,150,4|8,0:0|0:0,0:0:0:0:
196,208,89675,1,0,0:0:0:0:
160,272,89799,2,0,B|144:296|144:316|144:316|160:360,2,75,0|0|8,0:0|0:0|0:0,0:0:0:0:
48,96,90295,6,0,P|88:148|188:160,1,150,0|8,0:0|0:0,0:0:0:0:
312,120,90791,1,0,0:0:0:0:
376,80,90915,1,0,0:0:0:0:
452,84,91039,1,8,0:0:0:0:
468,288,91286,6,0,P|440:320|392:324,1,75
336,304,91534,2,0,P|296:296|248:328,1,75,8|0,0:0|0:0,0:0:0:0:
196,336,91782,2,0,P|152:336|112:312,2,75,0|0|8,0:0|0:0|0:0,0:0:0:0:
112,212,92278,6,0,P|76:196|28:200,2,75,4|0|8,0:0|0:0|0:0,0:0:0:0:
212,100,92774,2,0,P|176:84|128:88,2,75,0|0|8,0:0|0:0|0:0,0:0:0:0:
364,92,93270,2,0,P|328:76|280:80,2,75,0|0|8,0:0|0:0|0:0,0:0:0:0:
392,164,93642,1,0,0:0:0:0:
372,236,93766,2,0,P|364:280|388:324,1,75,4|0,0:0|0:0,0:0:0:0:
440,344,94014,1,8,0:0:0:0:
448,112,94262,6,0,P|360:96|320:152,1,150,0|8,0:0|0:0,0:0:0:0:
180,272,94758,2,0,P|216:304|260:304,2,75,0|0|8,0:0|0:0|0:0,0:0:0:0:
192,104,95253,6,0,P|124:48|72:120,1,150,0|8,0:0|0:0,0:0:0:0:
60,148,95625,1,0,0:0:0:0:
68,224,95749,2,0,P|56:272|20:292,2,75,4|0|12,0:0|0:0|0:0,0:0:0:0:
192,104,96245,6,0,P|252:64|352:72,1,150,0|8,0:0|0:0,0:0:0:0:
432,192,96741,2,0,P|444:244|488:268,2,75,0|0|8,0:0|0:0|0:0,0:0:0:0:
472,32,97237,6,0,P|400:52|360:132,1,150,0|8,0:0|0:0,0:0:0:0:
348,188,97609,1,0,0:0:0:0:
328,260,97733,2,0,P|312:296|248:328,1,75
208,328,97981,1,8,0:0:0:0:
48,148,98229,6,0,P|40:100|48:48,1,89.9999972534181,12|0,0:0|0:0,0:0:0:0:
124,100,98477,2,0,P|132:148|124:200,1,89.9999972534181,8|8,0:0|0:0,0:0:0:0:
64,328,98724,2,8,P|56:280|64:228,1,89.9999972534181
144,280,98972,1,8,0:0:0:0:
332,160,99220,6,0,P|272:144|224:176,1,104.999996795654,12|0,0:0|0:0,0:0:0:0:
368,272,99468,2,8,P|424:280|472:248,1,104.999996795654
296,232,99716,2,8,P|280:292|312:340,1,104.999996795654
404,196,99964,2,0,P|412:140|380:92,1,104.999996795654,8|0,0:0|0:0,0:0:0:0:
284,52,100212,6,0,P|224:32|136:68,1,120,12|0,0:0|0:0,0:0:0:0:
116,164,100460,2,0,P|96:224|132:312,1,120,8|8,0:0|0:0,0:0:0:0:
228,332,100708,2,0,P|288:352|376:316,1,120,12|8,0:0|0:0,0:0:0:0:
396,220,100956,2,0,P|416:160|380:72,1,120,8|8,0:0|0:0,0:0:0:0:
284,52,101204,5,4,0:0:0:0:
116,164,101452,1,4,0:0:0:0:
228,332,101700,1,4,0:0:0:0:
396,220,101948,1,4,0:0:0:0:
256,192,105171,12,0,106162,0:0:0:0:
256,192,107154,12,0,108146,0:0:0:0:
256,192,109634,12,0,112113,0:0:0:0:
