osu file format v7

[General]
AudioFilename: [271] Separated Union.mp3
AudioLeadIn: 0
PreviewTime: -1
Countdown: 1
SampleSet: Normal
StackLeniency: 0.7
Mode: 0
LetterboxInBreaks: 1

[Editor]
DistanceSpacing: 0.100000001490116
BeatDivisor: 2
GridSize: 32

[Metadata]
Title:Separated Union
Artist:Glasslake
Creator:DaRRi MIx
Version:Hard
Source:O2Jam
Tags:

[Difficulty]
HPDrainRate:6
CircleSize:5
OverallDifficulty:8
SliderMultiplier:1.3
SliderTickRate:0.5

[Events]
//Background and Video events
0,0,"SU.jpg"
//Break Periods
//Storyboard Layer 0 (Background)
//Storyboard Layer 1 (Fail)
//Storyboard Layer 2 (Pass)
//Storyboard Layer 3 (Foreground)
//Storyboard Sound Samples
//Background Colour Transformations
3,100,0,0,0

[TimingPoints]
10966,247.933884297521,4,2,1,100,1,0
19767,-100,4,1,1,90,0,0
40718,991.735537190083,4,1,1,90,1,0
41709,247.933884297521,4,1,1,90,1,0
42576,-200,4,1,1,90,0,0
42824,-100,4,1,1,90,0,0
46047,-200,4,1,1,90,0,0
46295,-100,4,1,1,90,0,0
49642,-200,4,1,1,90,0,0
50510,-100,4,2,1,100,0,0
51626,-100,4,1,1,90,0,0
59560,991.735537190083,4,1,1,90,1,0
61543,247.933884297521,4,2,1,100,1,0
62410,-100,4,1,1,90,0,0
102204,-200,4,2,1,100,0,0
108650,-200,4,2,1,0,0,0

[Colours]
Combo1 : 128,0,255
Combo2 : 255,255,255
Combo3 : 0,128,255
Combo4 : 128,255,255

[HitObjects]
32,320,10965,5,6
480,320,12949,5,6
32,64,14932,5,6
480,64,16916,5,6
256,192,17908,5,6
256,192,18404,1,6
96,32,18899,6,0,B|192:32,2,65,8|0|0
96,96,19271,2,0,B|192:96,2,65,8|0|0
32,64,19643,1,6
224,64,19891,5,4
352,0,20139,1,8
480,64,20387,1,0
416,96,20511,1,0
480,128,20635,1,8
480,288,20883,5,0
448,352,21007,1,0
416,288,21131,1,8
384,352,21255,1,0
224,352,21503,1,0
192,288,21627,1,8
32,288,21875,5,0
32,128,22123,1,8
192,128,22370,1,0
256,96,22494,1,0
192,64,22618,1,8
32,64,22866,5,0
96,96,22990,1,0
32,128,23114,1,8
96,160,23238,1,0
96,320,23486,1,0
160,352,23610,1,8
320,352,23858,5,0
320,192,24106,1,8
384,320,24354,1,0
448,288,24478,1,0
512,256,24602,1,8
512,96,24850,5,0
448,128,24974,1,0
512,160,25098,1,8
448,192,25222,1,0
384,64,25470,1,0
320,32,25594,1,8
160,32,25842,6,0,B|0:32,1,130,0|8
32,192,26337,1,0
32,256,26461,1,0
32,320,26585,1,8
160,256,26833,5,0
192,192,26957,1,0
256,224,27081,1,0
288,160,27205,1,0
352,192,27329,1,0
416,160,27453,5,8
416,160,27577,1,8
416,160,27701,1,8
480,192,27825,6,0,B|480:352,1,130,0|8
320,352,28321,2,0,B|320:256,1,65
320,224,28569,1,8
160,192,28817,1,0
160,320,29065,1,8
0,288,29313,2,0,B|0:192,1,65
0,160,29561,1,8
64,32,29808,6,0,B|224:32,3,130,0|8|0|8
256,64,30676,1,0
320,32,30800,2,0,B|480:32,1,130,0|8
480,192,31296,2,0,B|480:288,2,65,0|0|8
384,320,31792,5,0
384,160,32040,1,8
128,288,32288,5,0
128,128,32536,1,8
384,256,32784,5,0
384,96,33032,1,8
128,224,33280,5,0
128,64,33528,1,8
192,32,33651,1,8
192,96,33775,2,0,B|192:288,1,130,4|0
320,288,34271,2,0,B|320:96,1,130,4|0
416,32,34767,5,8
416,32,34891,1,8
416,32,35015,1,8
416,32,35139,1,8
416,32,35263,1,8
416,32,35387,1,8
416,32,35511,1,8
416,32,35635,1,8
480,64,35759,6,0,B|480:224,1,130,4|8
416,352,36255,2,0,B|320:352,1,65
288,352,36503,1,8
96,352,36751,6,0,B|16:336|32:256,1,130,12|0
96,224,37123,2,0,B|96:160|64:96,1,130,12|0
32,32,37494,1,12
224,32,37742,6,0,B|320:32|320:96,1,130,4|8
384,96,38114,2,0,B|383:32|479:32,1,130,4|8
512,96,38486,1,4
448,224,38734,6,0,B|480:288|448:352,1,130,4|8
288,352,39230,2,0,B|192:352,1,65
160,352,39478,1,8
32,288,39726,6,0,B|32:128,1,130,4|8
96,256,40098,2,0,B|96:96,1,130,0|8
32,96,40470,1,4
160,32,40718,6,0,B|320:32,1,130,8|0
256,96,41833,5,0
288,160,41957,1,0
256,224,42081,1,0
288,288,42205,1,0
256,352,42329,5,8
256,352,42453,1,8
256,352,42576,2,0,B|352:352,1,65,8|4
480,320,43196,1,4
480,320,43444,1,4
480,160,43692,6,0,B|480:64,1,65,4|0
416,64,43940,2,0,B|416:160,1,65,8|0
352,160,44188,2,0,B|352:64,1,65
288,64,44436,2,0,B|288:160,1,65,8|0
224,96,44684,6,0,B|224:0,1,65
160,64,44932,2,0,B|160:160,1,65,8|0
96,96,45180,2,0,B|96:0,1,65
32,64,45428,2,0,B|32:160,1,65,8|0
32,192,45675,5,0
64,352,45923,1,8
96,288,46047,2,0,B|192:288,1,65
192,352,46419,1,8
224,288,46543,1,0
384,320,46791,6,0,B|416:336|480:336|512:320|512:320,1,130,4|0
512,256,47163,2,0,B|512:160,1,65,12|0
512,128,47411,2,0,B|512:32,1,65,12|0
448,32,47659,6,0,B|352:32,1,65
288,96,47907,2,0,B|384:96,1,65,8|0
448,160,48155,2,0,B|352:160,1,65
288,224,48403,2,0,B|384:224,1,65,8|0
448,288,48651,6,0,B|352:288,1,65
352,352,48899,2,0,B|256:352,1,65,8|0
256,288,49147,2,0,B|160:288,1,65
160,352,49394,2,0,B|64:352,1,65,8|0
32,320,49642,6,0,B|16:304|16:272|32:256|32:256,1,65,4|8
32,192,50014,2,0,B|48:176|48:144|32:128|32:128,1,65,4|0
32,64,50386,1,12
192,32,50634,5,2
256,64,50758,1,0
320,96,50882,1,0
384,64,51006,1,0
448,32,51130,5,2
480,96,51254,1,0
512,160,51378,1,0
480,224,51502,1,0
448,288,51626,6,0,B|448:384,1,65
384,288,51874,2,0,B|384:192,1,65,8|0
320,288,52122,2,0,B|320:384,1,65
256,288,52370,2,0,B|256:192,1,65,8|0
192,288,52618,2,0,B|192:384,1,65
128,288,52866,2,0,B|128:224,2,32.5,8|0|0
64,288,53113,2,0,B|64:384,1,65
0,288,53361,2,0,B|0:192,1,65,8|0
0,96,53609,6,0,B|0:192,1,65
64,96,53857,2,0,B|64:0,1,65,8|0
128,96,54105,2,0,B|128:192,1,65
192,96,54353,2,0,B|192:0,1,65,8|0
256,96,54601,2,0,B|256:192,1,65
320,96,54849,2,0,B|320:32,2,32.5,8|0|0
384,96,55096,2,0,B|384:192,1,65
448,96,55344,2,0,B|448:0,1,65,12|0
448,192,55593,5,0
512,224,55717,1,8
448,256,55841,1,8
512,288,55965,1,0
448,320,56089,1,0
384,352,56213,1,0
384,288,56337,2,0,B|320:256,1,65,12|0
256,224,56585,5,0
256,288,56709,1,0
256,352,56832,1,8
192,320,56957,1,0
192,256,57081,1,0
192,192,57205,1,0
128,160,57329,2,0,B|128:256,1,65,8|0
128,288,57576,6,0,B|96:320,2,32.5
48,224,57824,2,0,B|16:240,2,32.5,4|0|0
48,128,58072,2,0,B|16:112,2,32.5
128,64,58320,2,0,B|96:32,2,32.5,4|0|0
224,64,58568,5,4
352,128,58816,2,0,B|400:128,4,32.5,4|0|0|0|4
224,192,59312,1,4
192,352,59560,6,0,B|256:320|352:304|448:320|448:320,1,260,4|2
384,32,61790,5,2
64,64,62038,5,2
128,352,62286,5,2
448,320,62534,6,0,B|480:256|448:192,1,130,0|8
320,128,63030,2,0,B|416:128,1,65
448,96,63278,1,8
256,32,63526,6,0,B|224:96|256:160,1,130,0|8
128,224,64022,2,0,B|224:224,1,65
256,256,64270,1,8
96,352,64518,6,0,B|8:336|32:256|32:256,3,130,0|8|0|8
64,192,65385,1,0
31,125,65509,2,0,B|32:128|8:48|96:32,1,130,4|8
256,32,66005,2,0,B|352:32,1,65,4|0
384,32,66253,1,8
512,96,66501,6,0,B|480:160,2,65,4|0|8
512,288,66997,2,0,B|480:224,2,65,0|0|8
416,160,67493,6,0,B|320:160,1,65
416,224,67741,2,0,B|320:224,1,65,8|0
288,192,67989,2,0,B|128:192,1,130,0|8
95,32,68485,6,0,B|16:48|32:128,1,130,4|8
32,320,68981,2,0,B|32:224,1,65
32,192,69228,1,8
160,352,69476,5,0
224,320,69600,1,0
256,256,69724,1,8
288,320,69848,1,0
352,352,69972,1,4
480,224,70220,1,12
384,96,70468,6,0,B|416:48|512:32,2,130,4|8|0
320,64,71088,1,0
256,32,71212,1,8
128,96,71460,6,0,B|96:48|0:32,2,130,4|8|0
192,64,72080,1,0
256,32,72204,1,8
320,160,72452,6,0,L|320:320,1,130,0|8
480,320,72947,2,0,L|480:224,1,65
480,192,73195,1,8
192,160,73443,6,0,L|192:320,1,130,4|8
32,320,73939,1,4
32,256,74063,2,0,L|32:160,1,65,0|8
32,32,74435,6,0,L|192:32,1,130,4|8
480,32,74931,2,0,L|384:32,1,65
352,32,75179,1,8
256,256,75427,1,0
224,192,75551,1,0
256,128,75675,1,8
288,192,75799,1,0
416,192,76047,2,0,L|512:192,1,65,0|8
480,352,76419,6,0,L|320:352,1,130,4|8
32,352,76914,1,0
96,352,77039,2,0,L|192:352,1,65,0|8
256,128,77411,1,4
288,192,77535,1,0
256,256,77659,1,12
224,192,77783,1,0
160,192,77906,2,0,L|0:192,1,130,4|8
32,32,78402,5,0
192,32,78650,2,0,L|256:32,2,32.5,8|0|0
192,96,78898,1,0
32,96,79146,2,0,L|-32:96,2,32.5,8|0|0
32,160,79394,5,0
192,160,79642,2,0,L|256:160,2,32.5,8|0|0
192,224,79890,1,0
32,224,80138,2,0,L|-32:224,2,32.5,8|0|0
32,288,80385,6,0,B|40:368|128:352|128:352,3,130,4|8|0|8
192,320,81253,1,0
256,352,81377,2,0,B|416:352,1,130,4|8
448,320,81749,2,0,B|480:256,1,65,0|4
480,192,81997,1,8
480,192,82121,1,8
448,32,82369,5,4
288,32,82617,1,8
224,64,82741,1,0
160,32,82865,1,0
96,64,82989,1,0
32,32,83113,1,8
96,160,83361,5,0
32,192,83485,1,0
64,256,83609,1,8
32,320,83733,1,0
96,352,83857,1,0
224,288,84104,1,8
352,352,84352,5,4
480,288,84600,1,8
512,224,84724,1,0
480,160,84848,1,0
512,96,84972,1,0
480,32,85096,1,8
320,32,85344,5,0
256,64,85468,1,0
288,128,85592,1,8
256,192,85716,1,0
320,224,85840,1,4
256,352,86088,1,12
192,224,86336,5,4
32,288,86584,1,8
28,288,86646,1,0
480,288,87080,1,8
484,288,87142,1,0
32,96,87576,1,8
28,96,87638,1,0
480,96,88071,1,12
484,96,88133,1,0
352,32,88319,6,0,B|320:96|352:160,1,130,4|8
352,352,88815,2,0,B|352:256,1,65
352,224,89063,1,8
160,352,89311,6,0,B|192:288|160:224,1,130,12|8
160,32,89807,1,4
160,96,89931,2,0,B|160:192,1,65,0|8
512,192,90303,5,4
448,64,90551,1,8
384,192,90799,1,0
352,128,90923,1,0
320,64,91047,1,8
256,192,91295,1,0
224,128,91419,1,0
192,64,91543,1,8
160,128,91666,1,0
32,192,91914,1,0
0,128,92038,1,8
32,320,92286,5,4
96,192,92534,1,8
160,320,92782,1,0
192,256,92906,1,0
224,192,93030,1,8
288,320,93278,1,0
320,256,93402,1,0
352,192,93526,1,8
384,256,93649,1,0
416,320,93774,1,4
480,192,94021,1,8
416,64,94270,5,0
256,64,94518,1,8
252,64,94580,1,0
0,128,95014,1,8
4,128,95076,1,0
256,192,95509,1,8
252,192,95571,1,0
0,256,96005,1,12
4,256,96067,1,0
96,352,96253,6,0,B|288:352,1,130,4|8
352,288,96749,2,0,B|448:288,1,65
480,288,96997,1,8
480,96,97245,6,0,B|288:96,1,130,4|8
224,32,97741,1,4
160,32,97865,2,0,B|64:32,1,65,0|8
16,144,98237,5,12
48,160,98361,1,0
16,176,98485,1,0
48,192,98609,1,0
16,208,98733,1,8
48,224,98857,1,0
16,240,98981,1,0
48,256,99105,1,0
80,240,99228,5,12
112,224,99352,1,0
112,256,99476,1,0
144,240,99600,1,0
144,272,99724,1,8
176,256,99848,1,0
176,288,99972,1,0
208,272,100096,1,0
240,256,100220,5,12
256,224,100344,1,0
272,256,100468,1,0
288,224,100592,1,0
304,256,100716,1,12
320,224,100840,1,0
336,256,100964,1,0
352,224,101088,1,0
384,224,101212,6,0,B|448:208,1,65,12|0
512,192,101460,2,0,B|448:208,1,65,12|0
432,144,101708,2,0,B|448:208,1,65,12|0
464,272,101956,2,0,B|448:208,1,65,12|0
32,192,104342,5,0
64,128,104745,1,0
96,64,105148,2,0,B|160:136|256:136|320:64|320:64,1,251.875,2|2
416,320,107162,2,0,B|352:248|256:248|192:320|192:320,1,251.875,2|2
256,192,109673,12,0,111966
