osu file format v5

[General]
AudioFilename: [163] Driving Lazy Bee.mp3
AudioLeadIn: 0
PreviewTime: -1
Countdown: 3
SampleSet: Normal
StackLeniency: 0.3
Mode: 0
LetterboxInBreaks: 1

[Metadata]
Title:Driving Lazy Bee
Artist:Glasslake
Creator:darrihuka
Version:Relaxing
Source:
Tags:

[Difficulty]
HPDrainRate:3
CircleSize:4
OverallDifficulty:7
SliderMultiplier:1.4
SliderTickRate:2

[Events]
//Background and Video events
0,0,"beerelaxing.jpg"
//Break Periods
//Storyboard Layer 0 (Background)
//Storyboard Layer 1 (Failing)
//Storyboard Layer 2 (Passing)
//Storyboard Layer 3 (Foreground)
//Storyboard Sound Samples
//Background Colour Transformations
3,100,163,162,255

[TimingPoints]
4569,285.714285714286,4,1,0,50,1
6855,285.714285714286,4,1,0,50,1
53712,571.428571428571,4,2,0,50,1
60569,285.714285714286,4,1,0,50,1
75426,571.428571428571,4,2,0,50,1
79426,285.714285714286,4,1,0,50,1
80854,285.714285714286,4,2,0,50,1
81139,285.714285714286,4,1,0,50,1
87139,285.714285714286,4,1,0,0,1

[Colours]
Combo1 : 255,219,47
Combo2 : 151,255,23
Combo3 : 0,116,244
Combo4 : 244,0,0

[HitObjects]
80,192,4569,1,0
128,224,4854,2,0,B|128:144,2,70
80,256,5426,1,0
32,288,5711,2,0,B|32:208,2,70
80,320,6283,2,0,B|176:320,3,70
150,320,6855,5,0
192,288,6997,1,0
288,288,7283,1,0
384,288,7569,1,0
432,208,7855,1,0
384,240,7997,5,0
336,208,8140,1,0
240,208,8426,1,0
144,208,8712,1,0
96,128,8997,1,0
144,160,9140,5,0
192,128,9283,1,0
288,128,9569,1,0
384,128,9855,1,0
432,48,10140,1,0
384,80,10283,6,0,B|464:128,1,70,0|2
448,112,10569,2,0,B|368:160,1,70,0|2
384,144,10855,2,0,B|464:192,1,70,0|2
448,176,11140,2,0,B|368:224,1,70,0|2
387,212,11426,5,0
336,176,11569,1,0
336,176,11855,1,0
336,176,12140,1,0
336,176,12426,1,0
288,208,12569,5,0
240,176,12712,1,0
240,176,12997,1,0
240,176,13283,1,0
240,176,13569,1,0
192,208,13712,5,0
144,176,13855,1,0
144,176,14140,1,0
144,176,14426,1,0
144,176,14712,1,0
96,208,14855,6,0,B|48:208,2,35
144,240,15140,2,0,B|192:240,2,35
96,272,15426,2,0,B|48:272,2,35
144,304,15712,2,0,B|192:304,2,35
96,336,15997,6,0,B|240:336,1,140
288,336,16426,2,0,B|288:192,1,140
240,192,16855,2,0,B|80:192,1,140
240,112,17712,6,2,C|272:80|304:112|336:80|368:112|400:80,1,210,2|0
416,48,18283,6,0,B|272:48,1,140
224,48,18712,2,0,B|224:192,1,140
272,192,19140,2,0,B|432:192,1,140
272,272,19997,5,2
344,56,20569,6,0,C|312:72|248:40|216:56,1,140
168,104,21140,2,0,C|200:120|264:88|296:104,1,140
344,152,21712,2,0,C|312:168|248:136|216:152,1,140
168,200,22283,2,0,C|200:216|264:184|296:200,1,140
344,224,22854,6,0,C|312:240|280:224,1,70
168,256,23140,2,0,C|200:272|232:256,1,70
344,288,23426,2,0,C|312:304|280:288,1,70
168,320,23712,2,0,C|200:336|232:320,1,70
344,319,23997,6,2,C|312:336|282:321,1,70,2|0
167,287,24283,2,0,C|200:304|229:289,1,70
344,255,24569,2,2,C|312:272|282:257,1,70,2|0
167,223,24854,2,0,C|200:240|229:225,1,70
304,192,25140,6,0,C|352:192,2,35
208,136,25426,2,0,C|160:136,2,35
344,136,25712,2,0,C|392:136,2,35
168,192,25997,2,0,C|120:192,2,35
344,192,26283,2,0,C|379:192,2,35
168,136,26569,2,0,C|133:136,2,35
304,136,26854,2,0,C|339:136,2,35
208,192,27140,2,0,C|173:192,2,35
256,80,27426,6,0,C|256:40,2,35
256,240,27712,2,0,C|256:280,2,35
184,120,27997,2,0,C|152:96,2,35
328,200,28283,2,0,C|360:224,2,35
184,200,28569,2,0,C|152:224,2,35
328,120,28854,2,0,C|360:96,2,35
256,248,29140,2,0,C|256:296,2,35
256,80,29426,2,0,C|256:40,2,35
192,112,29712,6,0,C|160:80,2,35
144,144,29997,2,0,C|112:112,2,35,0|0|0
96,176,30283,2,0,C|64:144,2,35,0|0|0
48,208,30569,2,0,C|16:176,2,35,0|0|0
96,240,30854,6,0,C|128:272,2,35
144,208,31140,2,0,C|176:240,2,35,0|0|0
192,176,31426,2,0,C|224:208,2,35,0|0|0
240,144,31712,2,0,C|272:176,2,35,0|0|0
288,112,31997,6,0,C|368:112,3,70
416,112,32569,2,2,L|480:144|416:176|480:208,1,210
416,240,33140,2,0,C|336:240,3,70
288,240,33712,2,2,L|224:272|288:304|224:336,1,210,2|4
128,320,35426,5,0
80,288,35569,1,0
128,256,35712,1,0
80,224,35854,2,2,L|80:144,1,70,2|0
128,192,36140,2,2,L|128:112,1,70,2|0
80,96,36426,1,0
128,64,36569,6,0,C|160:48|192:64,1,70
192,112,36854,2,0,C|224:128|256:112,1,70
256,64,37140,2,0,C|288:48|320:64,1,70
320,112,37426,2,0,C|352:128|384:112,1,70
432,80,37712,5,0
480,112,37854,1,0
432,144,37997,1,0
480,176,38140,2,2,C|480:256,1,70,2|0
432,208,38426,2,2,C|432:288,1,70,2|0
480,304,38712,1,0
432,336,38854,6,0,C|368:304,1,70,0|2
304,288,39140,2,0,C|368:256,1,70,0|2
432,240,39426,2,0,C|368:208,1,70,0|2
304,192,39712,2,0,C|368:160,1,70,0|2
432,128,39997,5,0
384,96,40140,1,0
336,128,40283,1,0
288,96,40426,2,2,C|208:96,1,70,2|0
176,128,40712,2,2,C|96:128,1,70,2|0
64,96,40997,1,0
112,64,41140,6,0,C|112:144,1,70
16,128,41426,2,2,C|16:208,1,70,2|0
112,192,41712,2,0,C|112:272,1,70
16,256,41997,2,2,C|16:336,1,70,2|0
64,288,42283,6,0,C|144:288,3,70
176,240,42854,2,0,C|256:240,3,70
288,288,43426,5,0
288,288,43569,1,0
336,256,43712,1,2
336,256,43855,1,2
384,288,43997,1,0
384,288,44140,1,0
432,256,44283,1,2
432,256,44426,1,2
384,224,44569,5,0
464,160,44855,1,0
464,160,44997,1,0
384,96,45283,1,0
384,96,45426,1,0
304,160,45712,2,2,C|272:176|304:192|272:208|304:224|272:240|304:256|272:272|304:288|272:304|304:320|272:336|304:352,1,420,2|0
192,288,46855,5,0
112,224,47140,1,0
112,224,47283,1,0
192,160,47569,1,0
192,160,47712,1,0
272,224,47997,1,2
384,112,48569,6,2,C|368:128|352:112|336:128|320:112|304:128|288:112|272:128,1,140,0|0
256,48,49140,5,0
192,48,49426,1,0
256,48,49712,1,0
320,48,49997,1,0
256,48,50283,1,0
192,48,50569,1,0
256,48,50855,1,0
320,48,51140,1,0
256,48,51426,6,0,C|176:80,1,70
256,48,51712,2,0,C|336:80,1,70
256,48,51997,2,0,C|176:80,1,70
256,48,52283,2,0,C|336:80,1,70
256,48,52569,2,0,C|256:144,1,70
256,118,52855,2,0,C|256:208,1,70
256,188,53140,2,0,C|256:272,1,70
256,254,53426,2,0,C|256:332,1,70
256,324,53712,6,0,B|56:293|64:96,1,315
64,48,55426,6,0,C|128:80|192:48|256:80|368:32,1,315,0|2
416,48,57140,6,0,B|496:112|459:218|339:262|272:144,1,315
224,128,58854,6,0,B|96:128|96:336|224:336,1,315,0|2
256,336,60569,5,0
256,336,60711,1,0
312,336,60854,1,0
256,280,61140,1,0
256,280,61283,1,0
200,280,61426,1,0
256,224,61711,1,0
256,224,61854,1,0
312,224,61997,1,0
256,168,62283,1,0
256,168,62426,1,0
200,168,62569,1,0
256,112,62854,1,0
256,112,62997,1,0
312,112,63140,1,0
256,56,63426,1,0
256,56,63569,1,0
200,56,63711,1,0
88,56,63997,6,0,B|88:16,4,35
88,56,64426,1,0
88,56,64569,2,2,C|80:64|96:72|80:80|96:88|80:96|88:104|88:152,1,140,0|0
48,224,65140,6,0,C|112:160,1,70
104,224,65426,2,0,C|160:280,1,70
160,224,65711,2,0,C|224:160,1,70
216,224,65997,2,0,C|272:280,1,70
272,224,66283,2,0,C|336:160,1,70
328,224,66569,2,0,C|384:280,1,70
384,224,66854,2,0,C|448:160,1,70
440,224,67140,2,0,C|496:280,1,70
440,280,67426,2,0,C|376:344,1,70
384,280,67711,2,0,C|328:224,1,70
328,280,67997,2,0,C|264:344,1,70
272,280,68283,2,0,C|216:224,1,70
216,280,68569,6,2,C|72:280,3,140
72,336,69711,6,0,C|16:280,1,70
72,280,69997,2,0,C|128:224,1,70
72,224,70283,2,0,C|16:168,1,70
72,168,70569,2,0,C|128:112,1,70
160,80,70854,2,0,C|216:136,1,70
160,136,71140,2,0,C|104:192,1,70
160,192,71426,2,0,C|216:248,1,70
160,248,71711,2,0,C|104:304,1,70
160,304,71997,2,0,C|216:360,1,70
216,304,72283,2,0,C|272:248,1,70
272,304,72569,2,0,C|328:360,1,70
328,304,72854,2,0,C|384:248,1,70
432,208,73140,6,0,C|352:208,1,70
304,208,73426,2,0,C|256:208,2,35,2|0|0
304,144,73711,2,0,C|384:144,1,70
432,144,73997,2,0,C|480:144,2,35,2|0|0
432,80,74283,1,4
64,80,75426,6,2,B|98:107|128:80,1,70
128,80,75997,1,0
128,144,76283,2,2,B|162:171|192:144,1,70
192,144,76854,1,0
192,208,77140,2,2,B|226:235|256:208,1,70
256,208,77711,1,0
256,272,77997,2,2,B|290:299|320:272,1,70
320,272,78568,1,0
384,272,78854,1,2
464,48,79426,6,0,B|464:128,1,70
416,96,79711,2,0,B|416:176,1,70
368,144,79997,2,0,B|368:224,1,70
320,192,80283,2,0,B|320:272,1,70
320,262,80568,2,2,C|301:274|278:274|245:262|221:256|196:261|176:272,1,140,0|2
256,192,81139,12,0,85139
160,192,85710,5,0
352,192,86276,1,4
256,192,86312,12,0,87139
