osu file format v5

[General]
AudioFilename: [163] Driving Lazy Bee.mp3
AudioLeadIn: 0
PreviewTime: -1
Countdown: 3
SampleSet: Normal
StackLeniency: 0.3
Mode: 0
LetterboxInBreaks: 1

[Metadata]
Title:Driving Lazy Bee
Artist:Glasslake
Creator:darrihuka
Version:Boring
Source:
Tags:

[Difficulty]
HPDrainRate:3
CircleSize:3
OverallDifficulty:6
SliderMultiplier:1
SliderTickRate:2

[Events]
//Background and Video events
0,0,"beeboring.jpg"
//Break Periods
//Storyboard Layer 0 (Background)
//Storyboard Layer 1 (Failing)
//Storyboard Layer 2 (Passing)
//Storyboard Layer 3 (Foreground)
//Storyboard Sound Samples
//Background Colour Transformations
3,100,163,162,255

[TimingPoints]
4569,285.714285714286,4,1,0,50,1
6855,285.714285714286,4,1,0,50,1
53712,571.428571428571,4,2,0,50,1
60569,285.714285714286,4,1,0,50,1
75426,571.428571428571,4,2,0,50,1
79426,285.714285714286,4,1,0,50,1
80854,285.714285714286,4,2,0,50,1
81139,285.714285714286,4,1,0,50,1
87139,285.714285714286,4,1,0,0,1

[Colours]
Combo1 : 255,223,70
Combo2 : 174,255,38
Combo3 : 15,129,255
Combo4 : 255,60,60

[HitObjects]
256,112,4568,1,0
192,112,4854,2,0,C|128:112,2,50
256,112,5426,1,0
320,112,5711,2,0,C|384:112,2,50
256,112,6283,1,0
256,112,6569,1,0
256,48,6855,6,0,L|464:48|464:144,1,300
464,144,7997,2,0,L|256:144|256:240,1,300,0|0
256,240,9140,2,0,L|464:240|464:336,1,300
400,336,10283,6,2,L|400:326|320:326|320:336,3,100
256,336,11426,6,0,L|48:336|48:240,1,300
48,240,12569,2,0,L|256:240|256:144,1,300,0|0
256,144,13712,2,0,L|48:144|48:48,1,300
112,48,14855,6,2,L|112:58|192:58|192:48,3,100
256,48,15997,5,0
256,128,16426,1,0
256,208,16855,1,0
256,272,17140,2,0,L|144:272|144:160,1,200,0|2
256,48,18283,5,0
256,128,18712,1,0
256,208,19140,1,0
256,272,19426,2,2,L|368:272|368:160,1,200
368,48,20569,6,0,L|240:48,3,100
256,112,21712,2,0,L|368:112,3,100
256,192,22854,12,0,24854
32,96,25140,6,0,L|32:32,1,50
96,96,25426,2,0,L|96:32,1,50
160,96,25712,2,0,L|160:32,1,50
224,96,25997,2,0,L|224:32,1,50
288,96,26283,2,0,L|288:32,1,50
352,96,26569,2,0,L|352:32,1,50
416,96,26854,2,0,L|416:32,1,50
480,96,27140,2,0,L|480:32,1,50
480,160,27426,6,0,L|480:96,1,50
416,160,27712,2,0,L|416:96,1,50
352,160,27997,2,0,L|352:96,1,50
288,160,28283,2,0,L|288:96,1,50
224,160,28569,2,0,L|224:96,1,50
160,160,28854,2,0,L|160:96,1,50
96,160,29140,2,0,L|96:96,1,50
32,160,29426,2,0,L|32:96,1,50
32,224,29712,6,2,L|32:288,3,50
96,224,30283,2,2,L|160:224,3,50
208,224,30854,2,0,L|208:288,3,50
272,224,31426,2,0,L|336:224,3,50
384,224,31997,6,0,L|384:160,3,50
320,176,32569,2,2,L|192:176,1,100
96,176,33140,2,0,L|96:112,3,50
96,64,33712,2,2,L|240:64,1,100
208,96,35426,6,0,L|96:96,1,100
32,160,35997,2,0,L|96:160,3,50
144,160,36569,2,0,L|256:160,1,100
320,224,37140,2,0,L|256:224,3,50
208,224,37712,2,0,L|96:224,1,100
32,288,38283,2,0,L|96:288,3,50
144,288,38854,2,2,L|256:288,3,100
304,288,39997,6,0,L|416:288,1,100
480,224,40569,2,0,L|416:224,3,50
368,224,41140,2,0,L|256:224,1,100
192,160,41712,2,0,L|256:160,3,50
304,160,42283,2,0,L|416:160,1,100
480,96,42854,2,0,L|416:96,3,50
368,96,43426,2,2,L|256:96,3,100
224,48,44569,5,0
224,48,44997,1,0
224,48,45426,1,0
224,48,45712,2,2,L|132:48|129:161|240:160,1,300,0|0
223,160,46855,5,0
223,160,47283,1,0
223,160,47712,1,0
288,160,47997,1,2
432,160,48569,2,0,L|432:272,1,100,0|0
368,256,49140,6,2,L|368:144,3,100
304,256,50283,2,2,L|304:144,3,100
240,256,51426,6,2,L|240:192,7,50
176,256,52569,2,2,L|176:192,7,50
112,256,53712,6,0,L|112:128|176:128|176:208|240:208|240:128|304:128|304:208|368:208|368:128|432:128|432:256|176:256,1,1150
112,256,60569,6,0,L|48:256|48:192,1,100
112,192,61140,2,0,L|176:192|176:128,1,100
112,128,61711,2,0,L|48:128|48:64,1,100
112,64,62283,2,0,L|176:64|176:128,1,100
176,176,62854,2,0,L|176:208|272:208,1,100
240,128,63426,2,0,L|240:96|336:96,1,100
304,176,63997,2,2,L|416:176,3,100
480,176,65140,6,0,L|480:96|256:96,1,300
368,16,66283,2,0,L|368:96|144:96,1,300,0|0
256,176,67426,2,0,L|256:96|32:96,1,300,0|0
32,176,68569,2,0,L|48:224|32:272,3,100
32,352,69711,6,0,L|32:272|256:272,1,300
144,192,70854,2,0,L|144:272|368:272,1,300,0|0
256,352,71997,2,0,L|256:272|480:272,1,300,0|0
464,192,73140,2,0,L|448:144|464:96,3,100
463,97,74283,1,6
240,48,75426,6,0,L|96:48,1,100
80,112,76283,2,0,L|208:112,1,100
240,176,77140,2,0,L|128:176,1,100
80,240,77997,2,0,L|192:240,1,100
240,304,78854,1,2
352,304,79426,6,0,L|400:288|448:304,3,100
446,303,80568,1,0
256,192,81139,12,0,87139
