osu file format v9

[General]
AudioFilename: 05. A Hope In Hell.mp3
AudioLeadIn: 2000
PreviewTime: 71885
Countdown: 0
SampleSet: Normal
StackLeniency: 0.5
Mode: 0
LetterboxInBreaks: 1

[Editor]
Bookmarks: 530,18473,38660,56604,72305,81277,99221,117165,132866,150810,168754,177726,195670
DistanceSpacing: 1.1
BeatDivisor: 4
GridSize: 4

[Metadata]
Title:A Hope in Hell
Artist:Glamour of the Kill
Creator:ykcarrot
Version:Hopeless
Source:
Tags:GOTK Colin McRae: DiRT 2

[Difficulty]
HPDrainRate:7
CircleSize:5
OverallDifficulty:8
ApproachRate:9
SliderMultiplier:1.6
SliderTickRate:1

[Events]
//Background and Video events
0,0,"BG.jpg"
//Break Periods
2,83720,88528
//Storyboard Layer 0 (Background)
//Storyboard Layer 1 (Fail)
//Storyboard Layer 2 (Pass)
//Storyboard Layer 3 (Foreground)
//Storyboard Sound Samples
//Background Colour Transformations
3,100,0,0,0

[TimingPoints]
530,280.373831775701,4,1,1,60,1,0
9642,-100,4,2,1,60,0,0
10483,-100,4,1,1,60,0,0
17072,-100,4,2,1,60,0,0
17212,-100,4,1,1,60,0,0
26464,-100,4,2,0,60,0,0
26604,-100,4,1,1,60,0,0
26744,-100,4,2,1,60,0,0
26885,-100,4,1,1,60,0,0
27025,-100,4,2,1,60,0,0
27165,-100,4,1,1,60,0,0
27305,-100,4,2,1,60,0,0
27445,-100,4,1,1,60,0,0
34385,-100,4,1,1,60,0,0
37539,-100,4,2,1,60,0,0
37889,-100,4,1,1,60,0,0
56744,-100,4,2,1,60,0,0
56885,-100,4,1,1,50,0,0
58987,-100,4,2,1,60,0,0
59128,-100,4,1,1,50,0,0
65716,-100,4,2,1,60,0,0
65857,-100,4,1,1,50,0,0
67959,-100,4,2,1,60,0,0
68100,-100,4,1,1,50,0,0
69992,-100,4,2,2,60,0,0
71604,-100,4,1,1,60,0,0
72165,-100,4,1,1,60,0,1
79455,-100,4,2,1,70,0,1
79735,-100,4,1,1,60,0,1
81137,-100,4,1,1,60,0,0
82959,-100,4,1,1,50,0,0
83100,-100,4,1,1,40,0,0
83240,-100,4,1,1,30,0,0
83380,-100,4,1,1,20,0,0
83520,-100,4,2,1,5,0,0
88847,-100,4,1,1,50,0,0
90109,-100,4,1,1,60,0,0
117305,-100,4,2,1,60,0,0
117445,-100,4,1,1,50,0,0
119548,-100,4,2,1,60,0,0
119688,-100,4,1,1,50,0,0
126277,-100,4,2,1,60,0,0
126417,-100,4,1,1,50,0,0
128520,-100,4,2,1,60,0,0
128660,-100,4,1,1,50,0,0
130553,-100,4,2,2,60,0,0
132165,-100,4,1,1,60,0,0
132726,-100,4,1,1,60,0,1
148987,-100,4,2,1,70,0,1
149268,-100,4,1,1,60,0,1
150670,-100,4,1,1,60,0,0
163146,-86.9565217391304,4,1,1,60,0,0
163707,-100,4,1,1,60,0,0
168894,-100,4,2,1,60,0,0
169034,-100,4,1,1,50,0,0
171137,-100,4,2,1,60,0,0
171277,-100,4,1,1,50,0,0
173380,-100,4,2,2,60,0,0
177165,-100,4,1,1,60,0,0
177586,-100,4,1,1,60,0,1
193847,-100,4,2,1,70,0,1
194128,-100,4,1,1,60,0,1
195530,-100,4,1,1,60,0,0
204431,-100,4,1,1,50,0,0
205202,-100,4,2,1,5,0,0

[Colours]
Combo1 : 234,117,0
Combo2 : 196,0,0
Combo3 : 192,192,192

[HitObjects]
60,192,249,1,8
104,260,389,2,0,B|148:324|252:324,1,160,0|0
324,324,810,2,0,B|368:312|368:260,1,80
368,184,1090,1,8
368,104,1230,2,0,B|412:104|440:144,2,80
288,104,1651,5,0
208,104,1791,2,0,B|164:104|136:64,2,80
288,104,2212,1,8
288,184,2352,2,0,B|272:280|176:280,1,160
84,60,2913,6,0,B|40:80|40:128,2,80
120,132,3333,1,8
156,204,3473,2,0,B|200:184|200:136,2,80
76,204,3894,5,0
76,284,4034,2,0,B|24:284|8:240,2,80
156,284,4455,1,8
236,284,4595,2,0,B|312:284|304:352|388:352,1,160
360,112,5156,5,0
296,160,5296,2,0,B|260:188|224:160,1,80
160,112,5576,1,8
224,64,5716,2,0,B|260:36|296:64,2,80
160,112,6137,5,0
80,112,6277,2,0,B|80:64|124:40,2,80
80,192,6698,1,8
116,264,6838,2,0,B|192:308|268:264,1,160
388,56,7399,6,0,B|348:56|348:56|316:80,2,80
388,136,7819,1,8
388,216,7959,2,0,B|428:216|428:216|460:192,2,80
388,136,8380,5,0
456,92,8520,2,0,B|484:56|456:20,2,80
388,136,8941,1,8
308,136,9081,2,0,B|212:136|180:220,1,160
380,352,9782,5,2
256,252,10062,1,8
132,352,10343,1,2
32,224,10623,5,4
32,224,11184,1,4
32,224,11604,6,0,B|32:132|120:92,1,160,4|0
188,64,12025,1,8
176,144,12165,1,0
200,220,12305,2,0,B|236:244|276:220,1,80
344,180,12586,1,8
396,240,12726,1,0
472,268,12866,6,0,B|500:232|472:192,1,80
416,136,13146,1,8
484,92,13287,1,0
416,48,13427,2,0,B|380:16|336:36,1,80
268,64,13707,1,8
132,152,13847,6,0,B|132:248|36:276,1,160
0,208,14268,1,8
52,144,14408,1,0
132,152,14548,2,0,B|172:168|180:216,1,80
188,292,14829,1,8
244,352,14969,1,0
324,352,15109,6,0,B|368:340|368:288,1,80
368,212,15389,1,8
368,132,15530,1,0
336,108,15600,1,0
296,96,15670,1,0
216,96,15810,1,0
176,108,15880,1,0
144,132,15950,1,8
188,204,16090,6,0,B|216:252|296:252|324:204,1,160,0|0
256,160,16511,2,0,B|256:336,2,160,0|8|2
256,320,17352,5,4
256,320,17913,1,4
256,320,18333,1,4
104,224,18614,5,0
68,208,18684,1,0
48,172,18754,2,0,B|20:132|48:100,1,80,8|0
108,44,19034,1,0
144,28,19104,1,0
184,28,19174,2,0,B|228:28,2,40,0|0|8
232,92,19455,2,0,B|280:92,2,40,0|0|0
280,156,19735,2,0,B|328:156,2,40,0|0|8
200,156,20015,5,0
168,180,20086,1,0
136,204,20156,1,0
192,260,20296,1,0
224,236,20367,1,0
256,212,20437,1,8
312,268,20576,1,0
280,292,20647,1,0
248,316,20717,1,0
304,372,20857,5,0
344,372,20927,1,0
380,352,20997,2,0,B|420:332|424:284,1,80,8|0
432,208,21277,1,0
432,168,21347,1,0
432,128,21417,2,0,B|476:128,2,40,0|0|8
376,72,21698,2,0,B|376:20,2,40,0|0|0
320,128,21978,2,0,B|264:128,2,40,0|0|8
320,208,22258,5,0
320,248,22329,1,0
296,280,22399,1,0
228,324,22539,1,0
192,340,22609,1,0
156,324,22679,1,8
88,280,22819,1,0
64,248,22889,1,0
64,208,22960,1,0
64,128,23100,5,0
92,100,23170,1,0
132,100,23240,2,0,B|168:124|208:100,1,80,8|0
276,64,23520,1,0
304,92,23590,1,0
320,128,23660,2,0,B|320:180,2,40,0|0|8
252,172,23941,2,0,B|252:220,2,40,0|0|0
184,216,24221,2,0,B|184:268,2,40,0|0|8
104,216,24501,5,0
68,196,24572,1,0
32,176,24642,1,0
88,120,24782,1,0
124,140,24853,1,0
160,160,24923,1,8
216,104,25062,1,0
180,84,25133,1,0
144,64,25203,1,0
204,12,25343,5,0
240,28,25413,1,0
276,44,25483,2,0,B|312:64|312:64|352:64,1,80,8|0
432,64,25763,1,0
460,92,25833,1,0
488,120,25903,2,0,B|488:164,2,40,0|0|8
416,156,26184,6,0,B|376:156|376:156|344:180,1,80,0|4
184,156,26464,2,0,B|224:156|224:156|256:180,1,80,0|0
300,248,26744,1,0
300,112,26885,2,0,B|300:28,2,80,4|0|0
344,180,27305,1,0
256,180,27445,5,4
256,180,27586,1,0
212,248,27726,2,0,B|200:292|152:292,1,80,0|0
80,328,28006,1,8
80,328,28076,1,0
80,328,28146,2,0,B|56:288|80:252,1,80
144,204,28427,6,0,B|144:160|104:140,1,80,0|0
40,96,28707,2,0,B|0:120|0:164,2,80,0|0|0
112,60,29128,1,8
112,60,29268,1,0
184,96,29408,1,0
184,96,29548,1,0
260,124,29688,5,0
260,124,29829,1,0
336,152,29969,2,0,B|356:192|336:232,1,80,0|0
296,300,30249,1,8
296,300,30319,1,0
296,300,30389,2,0,B|316:344|368:344,1,80
440,344,30670,6,0,B|480:328|480:276,1,80,0|0
432,128,30950,2,0,B|392:144|392:196,1,80,0|0
472,204,31230,1,0
412,260,31371,1,8
376,276,31441,1,0
340,260,31511,2,0,B|312:224|264:236,2,80,0|0|0
340,340,31931,5,0
340,340,32072,1,0
260,340,32212,2,0,B|216:340|192:296,1,80,0|0
156,232,32492,1,8
124,256,32562,1,0
108,292,32632,2,0,B|64:292|40:248,1,80
40,172,32913,6,0,B|60:136|60:136|100:116,1,80,0|0
164,160,33193,2,0,B|196:144|196:144|240:144,1,80,0|0
288,208,33473,2,2,B|296:200|296:200|304:208|304:208|312:200|312:200|320:208|320:208|328:200|328:200|336:208|336:208|344:200|344:200|352:208|352:208|360:200|360:200|368:208|368:208|376:200|376:200|384:208|384:208|392:200|392:200|400:208|400:208|408:200|408:200|416:208|416:208|424:200|424:200|432:208|432:208|440:200|440:200|448:208|448:208|456:200|456:200|464:200,2,240,0|0|0
208,208,34455,6,0,B|164:208|140:168,1,80,0|0
128,92,34735,1,8
156,64,34805,1,0
196,64,34875,2,0,B|232:88|272:64,1,80
352,64,35156,6,0,B|400:80|400:136,1,80,0|0
304,252,35436,2,0,B|256:236|256:180,1,80,0|0
320,148,35716,1,0
256,100,35857,2,0,B|208:100|184:140,2,80,8|0|0
320,148,36277,1,0
256,192,36417,12,4,37539
256,296,37819,5,4
196,192,37959,1,0
196,192,38029,1,0
196,192,38100,1,8
316,192,38240,1,0
316,192,38310,1,0
316,192,38380,1,0
256,88,38520,1,0
136,296,38801,5,0
108,324,38871,1,0
68,324,38941,2,0,B|56:280|20:260,1,80,8|0
20,180,39221,2,0,B|104:180|152:96,1,160,0|8
76,72,39642,2,0,B|76:164|156:208,1,160
220,240,40062,1,8
300,240,40202,1,0
316,276,40272,1,0
308,316,40343,2,0,B|288:352|240:352,2,80,0|0|8
444,228,40763,6,0,B|396:152|444:76,1,160
468,48,41114,1,0
508,40,41184,1,8
508,120,41324,1,0
492,156,41394,1,0
456,172,41464,1,0
380,152,41604,1,0
344,136,41674,1,0
308,152,41744,1,8
232,176,41885,5,0
192,176,41955,1,0
164,148,42025,1,0
112,88,42165,1,0
76,104,42235,1,0
52,136,42305,1,8
52,220,42445,1,0
60,260,42515,1,0
84,292,42586,2,0,B|120:372|216:372,1,160,0|8
372,356,43006,6,0,B|432:208,1,160
448,172,43357,1,0
464,136,43427,1,8
388,108,43567,1,0
372,144,43637,1,0
356,180,43707,2,0,B|296:328,1,160,0|8
220,300,44128,5,0
236,264,44198,1,0
252,228,44268,2,0,B|312:80,1,160,0|8
236,52,44688,1,0
220,88,44758,1,0
204,124,44828,2,0,B|144:272,1,160,0|8
116,348,45249,5,0
76,348,45319,1,0
44,324,45389,1,0
44,244,45530,1,0
76,220,45600,1,0
116,220,45670,1,8
168,284,45810,1,0
204,300,45880,1,0
240,284,45950,1,0
288,220,46090,1,0
328,220,46160,1,0
360,244,46230,1,8
360,324,46371,1,0
328,348,46441,1,0
288,348,46511,1,0
204,348,46651,6,0,B|144:348,2,40,0|0|10
484,192,47072,1,10
204,36,47352,1,10
204,36,47492,2,0,B|136:36|136:104|60:104,1,160,2|0
0,252,47913,6,0,B|16:292|64:292,1,80,8|0
220,332,48193,2,0,B|204:292|156:292,1,80
152,132,48473,2,0,B|112:148|112:196,1,80,8|0
256,268,48754,6,0,B|280:304|324:316|368:304|392:268,1,160,0|8
420,192,49174,1,0
392,116,49315,2,0,B|368:80|324:68|280:80|256:116,1,160,0|8
228,192,49735,1,0
176,252,49875,1,0
96,252,50015,1,0
44,192,50156,6,0,B|16:156|44:116,1,80,8|0
204,116,50436,2,0,B|232:152|204:192,1,80
120,324,50716,2,0,B|120:232,1,80,8|0
120,84,50997,6,0,B|168:16|268:16,1,160,0|8
340,16,51417,1,0
296,84,51558,2,0,B|248:160|296:236,1,160,0|8
344,296,51978,6,0,B|328:340|280:340,2,80
400,144,52399,2,0,B|416:100|464:100,1,80,8|0
468,260,52679,2,0,B|512:276|512:324,2,80,0|0|8
392,228,53100,6,0,B|352:228|352:228|312:196,1,80,2|0
344,44,53380,2,0,B|316:76|316:76|316:112,1,80,2|8
168,44,53660,2,0,B|196:76|196:76|196:112,1,80,2|0
120,228,53941,2,0,B|160:228|160:228|200:196,1,80,2|8
256,156,54221,5,0
344,120,54361,2,0,B|404:192|344:264,1,160,0|8
256,228,54782,1,0
168,264,54922,2,0,B|108:192|168:120,1,160,0|8
256,84,55343,1,0
344,120,55483,2,0,B|404:192|344:264,1,160,0|8
256,300,55903,1,0
168,264,56044,5,0
76,216,56184,1,0
76,112,56324,1,8
168,64,56464,2,2,B|180:56|180:56|192:64|192:64|204:56|204:56|216:64|216:64|228:56|228:56|240:64|240:64|252:56|252:56|264:64|264:64|276:56|276:56|288:64|288:64|300:56|300:56,1,160,0|0
404,56,56885,5,0
180,140,57165,1,8
404,224,57445,1,0
180,312,57726,2,0,B|256:356|332:312,1,160
332,312,58287,5,8
448,288,58427,1,0
368,200,58567,1,0
484,176,58707,2,0,B|452:92|360:92,1,160
256,92,59128,5,0
40,192,59408,1,8
256,292,59688,1,0
472,192,59969,2,0,B|396:156|392:232|320:192,1,160
320,192,60530,5,8
200,200,60670,1,0
256,92,60810,1,8
136,100,60950,2,0,B|44:120|44:212,1,160
44,212,61371,1,8
420,260,61651,6,0,B|468:228|468:156|420:124,1,160,0|8
420,124,62072,1,0
92,260,62492,2,0,B|44:228|44:156|92:124,2,160,8|0|8
92,260,63193,1,0
256,84,63473,1,0
256,84,63614,1,8
256,324,63894,6,0,B|344:324|388:248,1,160,0|8
420,132,64315,1,0
420,132,64385,1,0
420,132,64455,1,8
304,160,64595,1,0
304,160,64665,1,0
304,160,64735,1,0
188,188,64875,1,0
188,188,64945,1,0
188,188,65015,1,0
72,216,65155,1,0
72,216,65225,1,0
72,216,65295,1,8
72,336,65436,2,0,B|104:376|184:376|216:336,1,160
288,264,65857,5,0
92,128,66137,1,8
328,188,66417,1,0
132,52,66698,2,0,B|204:100|204:192,1,160
204,188,67258,5,8
148,296,67399,1,0
272,296,67539,1,0
328,188,67679,2,0,B|356:100|448:100,1,160
496,192,68100,5,0
320,356,68380,1,8
256,124,68660,1,0
80,288,68941,2,0,B|24:212|76:140,1,160
76,140,69501,5,8
156,48,69642,1,0
276,48,69782,2,0,B|320:48,2,40,0|0|0
256,124,70062,5,0
216,192,70202,2,0,B|168:192|148:232,2,80,0|2|0
256,260,70623,1,0
296,192,70763,2,0,B|344:192|364:232,2,80,0|2|0
256,124,71184,1,0
220,52,71324,2,0,B|240:32|272:32|292:52,2,80,0|2|0
220,52,71744,1,8
24,192,72025,5,0
24,192,72165,2,0,B|24:292|112:320,1,160,4|0
180,272,72586,2,0,B|256:228|332:272,1,160,8|0
408,316,73006,1,0
332,360,73146,2,0,B|256:324|256:224,1,160,8|0
256,140,73567,1,0
332,96,73707,2,0,B|352:148|440:148|460:96,1,160,8|0
396,36,74128,1,0
312,12,74268,1,8
256,164,74408,6,0,B|224:256|132:256,1,160,4|0
52,256,74829,2,0,B|92:168|36:108,1,160,8|0
28,20,75249,1,0
116,36,75389,2,0,B|180:100|264:72,1,160,8|0
256,164,75810,1,0
168,164,75950,1,8
140,248,76090,1,0
212,300,76230,1,8
284,248,76371,1,0
344,184,76511,5,0
376,160,76581,1,0
416,156,76651,1,0
452,176,76721,1,0
476,208,76791,2,0,B|500:244|476:284,1,80,4|0
412,344,77072,1,0
324,344,77212,1,0
244,304,77352,2,0,B|208:276|168:304,1,80,8|0
92,344,77632,1,0
44,272,77772,1,0
120,224,77913,6,0,B|160:208|160:160,1,80
148,72,78193,1,0
80,128,78333,1,0
160,160,78473,2,0,B|204:160|232:120,1,80,8|0
280,52,78754,1,0
364,80,78894,1,0
448,108,79034,5,4
384,168,79595,1,2
320,228,80156,1,4
256,288,80716,1,4
256,288,81137,1,4
256,192,81207,12,0,83520
440,192,89128,6,0,B|484:268|440:344,1,160,4|0
72,192,89688,2,0,B|28:116|72:40,1,160,4|0
256,364,90249,5,4
256,364,90389,1,0
208,300,90529,2,0,B|188:260|140:260,1,80
72,296,90810,1,8
72,296,90880,1,0
72,296,90950,2,0,B|40:260|72:224,1,80
124,164,91230,6,0,B|172:164|196:120,1,80
308,16,91511,2,0,B|260:16|236:60,2,80
308,112,91931,1,8
308,112,92072,1,0
348,200,92212,1,0
348,200,92352,1,0
436,160,92492,5,0
436,160,92632,1,0
484,224,92772,2,0,B|504:264|484:300,1,80
428,360,93053,1,8
428,360,93123,1,0
428,360,93193,2,0,B|388:336|352:360,1,80
276,372,93473,6,0,B|236:356|236:308,1,80
196,152,93754,2,0,B|236:168|236:216,2,80
108,112,94174,1,8
20,152,94315,1,0
108,192,94455,1,0
20,232,94595,1,0
108,272,94735,5,0
108,272,94875,1,0
184,300,95015,2,0,B|224:320|260:300,1,80
336,332,95296,1,8
336,332,95366,1,0
336,332,95436,2,0,B|360:292|336:256,1,80
292,188,95716,6,0,B|292:144|340:116,1,80
476,56,95997,2,0,B|476:100|428:128,2,80
396,56,96417,1,8
396,56,96558,1,0
316,56,96698,2,0,B|272:56|240:84,1,80
176,128,96978,5,0
176,128,97118,1,0
120,184,97258,2,0,B|120:268,1,80
256,364,97539,2,0,B|256:272,1,80,8|0
392,184,97819,2,0,B|392:268,1,80,8|0
392,344,98100,5,8
308,256,98240,1,8
276,232,98310,1,8
236,232,98380,1,8
120,260,98520,1,8
32,176,98660,1,0
76,64,98801,1,0
192,28,98941,1,0
308,60,99081,1,4
468,240,99361,5,0
432,256,99431,1,0
392,256,99501,2,0,B|348:256|324:212,1,80,8|0
284,148,99782,2,0,B|208:104|132:148,1,160,0|8
60,180,100202,1,0
48,220,100272,1,0
68,256,100343,2,0,B|48:292|0:292,2,80,0|0|8
128,204,100763,1,0
164,184,100833,1,0
204,184,100903,1,0
232,260,101044,1,0
272,260,101114,1,0
308,240,101184,1,8
432,140,101324,6,0,B|512:176|512:280,1,160
512,308,101674,1,0
496,344,101744,1,8
416,360,101885,1,0
376,360,101955,1,0
340,344,102025,1,0
260,360,102165,1,0
224,344,102235,1,0
200,312,102305,1,8
120,312,102445,5,0
96,280,102515,1,0
92,240,102586,1,0
28,192,102726,1,0
28,152,102796,1,0
52,120,102866,1,8
112,68,103006,1,0
152,60,103076,1,0
192,68,103146,2,0,B|232:80|244:124,2,80,0|0|8
168,228,103567,6,0,B|252:268|316:200,1,160
340,172,103917,1,0
364,140,103987,1,8
400,68,104128,1,0
432,92,104198,1,0
472,92,104268,1,0
472,172,104408,1,0
432,172,104478,1,0
400,196,104548,1,8
364,268,104688,5,0
336,296,104758,1,0
296,296,104829,1,0
256,228,104969,1,0
256,188,105039,1,0
256,148,105109,1,8
216,80,105249,1,0
176,80,105319,1,0
148,108,105390,1,0
116,180,105529,5,0
116,220,105600,1,0
100,256,105670,2,0,B|76:292|32:292,1,80,8|0
32,212,105950,2,0,B|112:356,1,160,0|8
192,352,106371,1,0
216,320,106441,1,0
240,288,106511,1,0
292,348,106651,1,0
316,316,106721,1,0
340,284,106791,1,8
392,344,106931,1,0
416,312,107001,1,0
440,280,107071,1,0
484,212,107212,6,0,B|484:168,2,40,0|0|10
212,44,107632,1,10
72,332,107913,1,10
72,332,108053,2,0,B|152:320|132:272|224:256,1,160,2|0
368,236,108473,6,0,B|408:216|408:168,1,80,8|0
360,20,108754,2,0,B|308:20|288:64,1,80
152,132,109034,2,0,B|176:168|224:168,1,80,8|0
368,236,109315,6,0,B|368:296|368:296|368:356|312:368,1,160,0|8
256,308,109735,1,0
200,368,109875,2,0,B|144:356|144:296|144:296|144:236,1,160,0|8
184,164,110296,1,0
256,128,110436,1,0
328,164,110576,1,0
368,236,110716,6,0,B|364:276|364:276|336:304,1,80,8|0
176,304,110997,2,0,B|148:276|148:276|144:236,1,80
256,128,111277,2,0,B|256:216,1,80,8|0
188,64,111558,6,0,B|220:16|292:16|324:64,1,160,0|8
256,128,111978,1,0
188,192,112118,2,0,B|220:240|292:240|324:192,1,160,0|8
372,128,112539,6,0,B|416:128|440:164,2,80
372,288,112959,2,0,B|372:332|336:356,1,80,8|0
264,212,113240,2,0,B|220:212|196:176,2,80,0|0|8
344,212,113660,6,0,B|384:232|420:212,1,80,2|0
300,320,113941,2,0,B|324:360|372:360,1,80,2|8
212,320,114221,2,0,B|188:360|140:360,1,80,2|0
168,212,114501,2,0,B|128:232|92:212,1,80,2|8
128,140,114782,5,0
220,116,114922,2,0,B|240:192|172:192|188:268,1,160,0|8
256,336,115343,1,0
324,268,115483,2,0,B|340:192|272:192|292:116,1,160,0|8
384,140,115903,1,0
328,60,116044,2,0,B|300:32|256:16|212:32|184:60,1,160,0|8
128,140,116464,1,0
128,236,116604,5,0
204,308,116744,1,0
308,308,116885,1,8
384,236,117025,2,2,B|392:224|392:224|384:212|384:212|392:200|392:200|384:188|384:188|392:176|392:176|384:164|384:164|392:152|392:152|384:140|384:140|392:128|392:128|384:116|384:116|392:104|392:104,1,160,0|0
476,44,117445,5,0
256,144,117726,1,8
476,244,118006,1,0
256,344,118287,2,0,B|164:328|144:244,1,160
144,244,118847,5,8
252,192,118987,1,0
144,140,119128,1,0
252,88,119268,2,0,B|332:88|320:32|400:32,1,160
424,132,119688,5,0
376,368,119969,1,8
136,368,120249,1,0
88,132,120529,2,0,B|176:132|208:220,1,160
208,220,121090,5,8
280,316,121230,1,0
300,196,121371,1,8
372,292,121511,2,0,B|464:272|464:180,1,160
464,180,121931,1,8
84,132,122212,6,0,B|112:48|192:24,1,160,0|8
192,24,122632,1,0
320,360,123053,2,0,B|400:336|428:252,2,160,8|0|8
320,360,123754,1,0
320,120,124034,1,0
320,120,124174,1,8
80,120,124455,6,0,B|172:120|204:220,1,160
240,320,124875,1,0
240,320,124945,1,0
240,320,125015,1,8
348,268,125156,1,0
348,268,125226,1,0
348,268,125296,1,0
416,168,125436,1,0
416,168,125506,1,0
416,168,125576,1,0
416,48,125716,1,0
416,48,125787,1,0
416,48,125857,1,8
296,48,125997,2,0,B|204:48|240:108|152:108,1,160
52,116,126417,6,0,B|8:192|52:268,2,160,0|8|0
280,192,127258,2,0,B|112:192,2,160,0|0|8
372,116,127959,1,0
280,192,128100,1,0
372,268,128240,2,0,B|416:192|372:116,1,160
256,88,128660,6,0,B|256:248,2,160,0|8|0
184,316,129501,2,0,B|220:356|292:356|328:316,2,160,0|0|8
256,220,130202,1,0
328,316,130343,2,0,B|360:348,2,40,0|0|8
256,296,130623,5,0
184,260,130763,2,0,B|144:260|144:260|108:240,2,80,0|2|0
184,180,131184,1,0
256,144,131324,2,0,B|256:52,2,80,0|2|0
328,180,131744,1,0
328,260,131885,2,0,B|368:260|368:260|404:240,2,80,0|2|0
256,220,132305,1,8
76,60,132586,5,0
76,60,132726,2,0,B|120:136|76:212,1,160,4|0
48,296,133146,2,0,B|124:252|200:296,1,160,8|0
280,332,133567,1,0
368,348,133707,2,0,B|428:348|460:284|424:232,1,160,8|0
360,172,134128,1,0
320,252,134268,2,0,B|180:172,1,160,8|0
104,128,134688,1,0
104,216,134829,1,8
212,96,134969,6,0,B|268:36|368:36,1,160,4|0
444,36,135389,2,0,B|484:104|412:120|460:192,1,160,8|0
504,264,135810,1,0
448,332,135950,2,0,B|364:364|376:288|296:316,1,160,8|0
208,336,136371,1,0
120,336,136511,1,8
92,252,136651,1,0
164,200,136791,1,8
236,252,136931,1,0
296,316,137072,5,0
328,340,137142,1,0
368,340,137212,1,0
400,316,137282,1,0
420,280,137352,2,0,B|444:240|420:204,1,80,4|0
344,160,137632,1,0
416,108,137772,1,0
344,56,137913,2,0,B|304:32|268:56,1,80,8|0
196,108,138193,1,0
124,56,138333,1,0
52,108,138473,6,0,B|52:152|96:176,1,80
176,192,138754,1,0
264,192,138894,1,0
344,228,139034,2,0,B|344:272|300:296,1,80,8|0
220,312,139315,1,0
132,312,139455,1,0
72,248,139595,6,0,B|112:172,1,80
236,80,139875,2,0,B|196:156,1,80
188,312,140156,2,0,B|228:236,1,80,8|0
352,144,140436,2,0,B|312:220,1,80
304,376,140716,6,0,B|344:300,2,80,4|0|0
256,192,141137,1,0
208,8,141277,2,0,B|168:84,2,80,8|0|8
320,128,141698,6,0,B|372:148|372:236|320:256,1,160,4|0
256,192,142118,2,0,B|420:192,1,160,8|0
504,192,142539,1,0
504,280,142679,2,0,B|476:368|376:344,1,160,8|0
296,308,143100,1,0
220,268,143240,2,0,B|132:228|72:304,1,160,8|0
20,368,143660,1,0
0,280,143801,1,8
68,136,143941,6,0,B|112:60|200:60,1,160,4|0
236,140,144361,2,0,B|328:140|364:60,1,160,8|0
452,60,144782,1,0
452,148,144922,2,0,B|380:192|380:284,1,160,8|0
380,372,145343,1,0
456,328,145483,1,8
456,240,145623,1,0
380,196,145763,1,8
304,240,145903,1,0
304,328,146044,5,0
276,356,146114,1,0
236,364,146184,1,0
196,356,146254,1,0
168,328,146324,2,0,B|168:284|128:256,1,80,4|0
56,212,146604,1,0
52,300,146744,1,0
132,260,146885,2,0,B|172:244|180:196,1,80,8|0
184,112,147165,1,0
104,152,147305,1,0
180,200,147445,6,0,B|220:224|256:200,1,80
336,168,147726,1,0
268,112,147866,1,0
256,200,148006,2,0,B|256:248|296:272,1,80,8|0
360,324,148287,1,0
372,236,148427,1,0
292,268,148567,5,4
228,324,149128,1,2
164,268,149688,1,4
100,324,150249,1,4
100,324,150670,6,0,B|100:232|20:196,1,160,4|0
20,276,151090,2,0,B|100:244|100:148,1,160,8|0
120,72,151511,1,0
192,108,151651,2,0,B|232:132|268:108,1,80,8|0
340,72,151931,5,0
420,72,152072,1,0
472,132,152212,2,0,B|464:176|416:184,1,80,8|0
340,196,152492,2,0,B|296:196|264:240,2,80,0|0|8
212,296,152913,6,0,B|176:336|104:336|68:296,1,160
24,232,153333,2,0,B|60:212|60:164,1,80,8|0
60,84,153614,1,0
128,40,153754,1,0
208,40,153894,2,0,B|256:40|276:88,1,80,8|0
312,148,154174,5,0
260,212,154315,1,0
260,292,154455,2,0,B|280:336|328:336,1,80,8|0
400,336,154735,1,0
468,296,154875,1,0
468,296,155156,6,0,B|468:116,1,160,0|0
468,56,155576,2,0,B|424:56|400:96,1,80,8|0
360,164,155857,1,0
292,204,155997,1,0
212,204,156137,2,0,B|164:204|148:160,1,80,8|0
124,88,156417,5,0
48,64,156558,1,0
0,128,156698,2,0,B|40:152|40:200,1,80,8|0
56,272,156978,2,0,B|72:320|124:320,2,80,0|0|8
212,320,157399,6,0,B|288:276|364:320,1,160
440,344,157819,2,0,B|476:312|456:264,1,80,8|0
440,192,158100,2,0,B|396:192|372:156,2,80,0|0|8
328,76,158520,6,2,B|292:36|220:36|184:76,1,160,0|0
136,140,158941,1,8
184,204,159081,2,2,B|220:244|292:244|328:204,1,160,0|0
376,140,159501,2,0,B|420:140|440:184,1,80,8|0
468,256,159782,5,0
468,296,159852,1,0
440,324,159922,1,0
400,336,159992,1,0
360,336,160062,2,0,B|320:312,3,40,8|0|0|0
288,296,160343,5,0
252,280,160413,1,0
212,280,160483,1,0
176,296,160553,1,0
140,316,160623,2,0,B|100:336,3,40,8|0|0|0
64,336,160903,5,0
24,324,160973,1,0
4,288,161044,1,0
12,248,161114,1,0
40,220,161184,2,0,B|92:204,3,40,8|0|0|0
116,200,161464,5,0
156,200,161534,1,0
192,184,161604,1,0
220,156,161674,1,0
236,120,161744,1,8
224,80,161815,1,0
200,48,161885,6,0,B|124:4|48:48,1,160
16,120,162305,2,0,B|52:136|68:184,1,80,8|0
88,256,162586,1,0
88,256,162656,1,0
88,256,162726,1,0
128,324,162866,2,0,B|168:348|208:324,1,80,8|0
280,300,163146,6,0,B|320:352,2,61.3333353439967
332,256,163427,2,0,B|292:204,2,61.3333353439967
396,280,163707,1,0
436,272,163777,1,0
468,248,163847,1,0
484,212,163917,1,0
488,172,163987,1,0
488,92,164128,2,0,B|436:16|336:48,1,160
272,68,164548,6,0,B|240:36,2,40,8|0|0
164,124,164829,2,0,B|120:108,2,40
64,192,165109,2,0,B|16:192,2,40,8|0|0
164,260,165389,2,0,B|120:276,2,40
272,316,165670,2,0,B|236:352,2,40,8|0|0
272,192,165950,2,0,B|192:192,2,80,0|0|8
420,256,166371,6,0,B|456:240|480:192|456:144|420:128,1,160
340,112,166791,1,8
340,192,166931,2,0,B|424:192,2,80
340,272,167352,1,8
180,256,167492,6,0,B|144:240|120:192|144:144|180:128,1,160
180,127,167843,1,0
180,127,167913,1,8
300,128,168053,1,0
300,128,168123,1,0
300,128,168193,1,0
412,168,168333,1,0
412,168,168403,1,0
412,168,168473,1,8
412,288,168614,2,0,B|380:376|280:348,1,160
192,324,169034,5,0
48,132,169315,1,8
192,324,169595,1,0
48,132,169875,2,0,B|136:132|176:52,1,160
176,52,170436,6,0,B|144:28|144:28|100:28,2,80,8|0|0
260,140,170857,2,0,B|320:192|320:192|408:192,1,160
496,192,171277,5,0
316,352,171558,1,8
496,192,171838,1,0
316,352,172118,2,0,B|224:352|192:268,1,160
192,268,172679,6,0,B|152:268|152:268|120:296,2,80,8|0|0
232,268,173030,1,0
272,268,173100,2,0,B|352:268|352:268|416:220,1,160,8|0
88,120,173660,5,0
88,120,173801,2,0,B|88:164|120:192|120:192|88:220|88:264,1,160,2|0
88,261,174221,1,2
424,120,174642,2,0,B|424:164|392:192|392:192|424:220|424:264,2,160,2|0|2
184,356,176044,6,0,B|228:328|228:328|284:328|284:328|328:356,1,160,2|0
328,356,176464,1,2
184,28,176885,2,0,B|228:56|228:56|284:56|284:56|328:28,2,160,2|8|0
96,28,177586,6,0,B|36:100|96:172,1,160,4|0
184,172,178006,2,0,B|244:244|184:316,1,160,8|0
96,316,178427,1,0
48,244,178567,2,0,B|224:244,1,160,8|0
296,244,178987,1,0
384,244,179128,2,0,B|444:264|444:344|384:364,1,160,8|0
296,364,179548,1,0
232,304,179688,1,8
340,184,179829,6,0,B|388:108|480:124,1,160,4|0
512,204,180249,2,0,B|464:280|372:264,1,160,8|0
288,256,180670,1,0
220,200,180810,2,0,B|144:152|68:200,1,160,8|0
0,252,181230,1,0
52,324,181371,1,8
124,272,181511,1,0
176,344,181651,1,8
248,292,181791,1,0
300,364,181931,5,0
344,356,182001,1,0
376,324,182072,1,0
372,280,182142,1,0
344,244,182212,2,0,B|304:224|304:176,1,80,4|0
300,92,182492,1,0
212,92,182632,1,0
208,180,182772,2,0,B|208:224|168:244,1,80,8|0
92,288,183053,1,0
36,220,183193,1,0
36,132,183333,6,0,B|36:88|84:68,1,80
164,44,183614,1,0
252,32,183754,1,0
340,48,183894,2,0,B|384:60|404:104,1,80,8|0
440,176,184174,1,0
448,264,184315,1,0
416,344,184455,6,0,B|344:304,1,80
296,152,184735,2,0,B|368:192,1,80
252,304,185015,2,0,B|180:264,1,80,8|0
128,112,185296,2,0,B|200:152,1,80
84,264,185576,6,0,B|12:224,2,80,4|0|0
256,192,185997,1,0
428,120,186137,2,0,B|500:160,2,80,8|0|8
328,244,186558,6,0,B|288:284|224:284|184:244,1,160,4|0
256,192,186978,2,0,B|256:360,1,160,8|0
344,352,187399,1,0
432,344,187539,2,0,B|472:304|472:240|432:200,1,160,8|0
344,192,187959,1,0
256,192,188100,2,0,B|192:192|192:120|116:120,1,160,8|0
32,120,188520,1,0
84,48,188660,1,8
120,204,188801,6,0,B|128:300|212:320,1,160,4|0
300,320,189221,2,0,B|384:300|392:204,1,160
392,116,189642,1,0
340,44,189782,1,0
256,20,189922,1,0
172,44,190062,5,8
128,68,190156,1,8
96,104,190249,1,8
76,148,190343,1,8
72,196,190436,1,8
80,244,190530,1,8
104,288,190623,1,0
144,312,190716,1,0
192,316,190810,1,0
240,308,190903,1,0
276,276,190997,1,0
288,228,191090,1,0
256,192,191184,5,4
168,192,191324,1,0
212,116,191464,1,0
300,116,191604,1,0
360,180,191744,1,8
360,268,191885,1,0
312,340,192025,1,0
228,368,192165,1,0
140,368,192305,5,0
60,328,192445,1,0
20,248,192586,1,0
20,160,192726,1,0
56,80,192866,1,8
132,36,193006,1,0
220,24,193146,1,0
308,24,193287,1,0
392,52,193427,5,4
448,116,193987,1,2
468,200,194548,1,4
452,284,195109,1,4
452,284,195530,6,0,B|420:368|324:360,1,160,4|0
248,348,195950,2,0,B|212:348|212:316|176:316,1,80,8|0
100,296,196230,1,0
32,252,196371,1,0
32,172,196511,1,8
100,128,196651,1,0
168,172,196791,6,0,B|212:172|240:136,1,80
252,60,197072,2,0,B|300:64|312:112,1,80,8|0
328,184,197352,1,0
348,260,197492,2,0,B|356:308|404:320,1,80,0|8
496,192,197772,6,0,B|488:96|392:80,1,160
320,72,198193,2,0,B|312:116|264:128,1,80,8|0
192,152,198473,1,0
120,116,198614,1,0
48,152,198754,1,8
48,232,198894,1,0
108,284,199034,6,0,B|156:296|172:344,1,80
240,364,199315,2,0,B|284:352|284:304,1,80,8|0
284,224,199595,1,0
356,260,199735,2,0,B|396:280|432:260,1,80,0|8
512,120,200015,6,0,B|396:4,1,160
428,124,200436,2,0,B|368:64,1,80,8|0
400,184,200716,2,0,B|340:124,1,80,8|0
372,244,200997,2,0,B|308:180,1,80,8|0
204,76,201277,6,0,B|264:136,1,80,8|0
144,104,201558,2,0,B|208:168,1,80,8|0
84,132,201838,2,0,B|148:196,1,80,8|0
24,160,202118,2,0,B|88:224,1,80,8|0
168,304,202399,5,8
168,304,202539,1,0
256,224,202679,1,8
256,224,202819,1,0
344,304,202959,1,8
344,304,203100,1,0
432,224,203240,1,8
432,224,203380,1,0
432,104,203520,5,8
344,24,203660,1,0
376,140,203801,1,8
288,60,203941,1,0
320,176,204081,1,8
232,96,204221,1,0
264,212,204361,1,8
176,132,204501,5,6
176,132,204782,1,6
176,132,205062,2,0,B|160:124|160:124|164:140|164:140|148:132|148:132|152:148|152:148|136:140|136:140|140:156|140:156|124:148|124:148|128:164|128:164|112:156|112:156|116:172|116:172|100:164|100:164|104:180|104:180|88:172|88:172|92:188|92:188|76:180|76:180|80:196|80:196|64:188|64:188|68:204|68:204|52:196|52:196|56:212|56:212|40:204|40:204|44:220|44:220|28:212|28:212|32:228,1,400,6|0
