osu file format v5

[General]
AudioFilename: 08-the_legendary_theme_(acoustic_version).mp3
AudioLeadIn: 0
PreviewTime: 78652
Countdown: 0
SampleSet: Soft
StackLeniency: 0.7
Mode: 0

[Metadata]
Title:Legendary Theme (Acoustic)
Artist:Gitaroo Man
Creator:Ash
Version:Easy
Source:
Tags:

[Difficulty]
HPDrainRate:2
CircleSize:4
OverallDifficulty:2
SliderMultiplier:1.9
SliderTickRate:2

[Events]
//Background and Video events
0,0,"acousticman.png"
1,-7250,"acousticman.wmv"
//Break Periods
//Storyboard Layer 0 (Background)
//Storyboard Layer 1 (Failing)
//Storyboard Layer 2 (Passing)
//Storyboard Layer 3 (Foreground)
//Storyboard Sound Samples
//Background Colour Transformations
3,100,0,0,0

[TimingPoints]
225,857.131100000002,4,2,1,100

[Colours]
Combo1 : 0,64,128
Combo2 : 128,0,0
Combo3 : 64,0,128

[HitObjects]
80,80,13939,1,0
176,80,14796,1,0
272,80,15653,1,0
368,80,16510,2,0,B|415:150|320:176,1,95
432,304,20796,5,0
336,304,21653,1,0
240,304,22510,1,0
144,304,23367,2,0,B|97:234|192:208,1,95
80,80,27653,5,0
176,80,28510,1,0
272,80,29367,1,0
368,80,30224,2,2,B|415:150|320:176,1,95
256,168,32795,5,0
160,168,33653,1,0
64,168,34510,1,0
448,216,36224,5,0
352,216,37081,1,0
256,216,37938,1,0
72,336,41367,5,0
72,240,42224,1,0
72,144,43081,1,0
72,48,43938,2,0,B|128:16|176:64,1,95
440,336,48224,5,0
440,240,49081,1,0
440,144,49938,1,0
440,48,50795,2,0,B|384:16|336:64,1,95
256,48,55081,5,0
256,144,55938,1,0
256,240,56795,1,0
302,327,57652,2,2,B|257:374|190:311,1,95
200,344,60224,5,0
200,248,61081,1,0
200,152,61938,1,0
312,40,63652,5,0
312,136,64509,1,0
312,232,65366,1,0
65,63,68795,6,2,B|305:247,2,285
160,64,72224,1,0
256,64,73081,1,0
352,64,73938,1,0
448,64,74795,1,0
447,63,75652,6,2,B|207:247,2,285
448,160,79081,1,0
424,251,79938,1,0
350,305,80795,1,0
256,320,81652,1,0
256,320,82509,6,2,B|256:32,2,285
256,320,85938,1,0
162,305,86795,1,0
88,251,87652,1,0
64,160,88509,1,0
64,160,89366,6,2,B|160:24|352:72,2,285
256,56,92795,5,2
256,192,94509,1,2
256,288,95366,1,2
256,288,96223,6,2,B|105:253|112:40,2,285
256,192,99652,1,2
256,96,100509,1,2
256,192,101366,1,2
256,288,102223,1,2
256,288,103080,6,2,B|407:253|400:40,2,285
256,192,106509,1,2
256,96,107366,1,2
256,192,108223,1,2
256,288,109080,1,2
256,288,109937,6,2,B|331:213|171:128|272:0,4,285
256,192,115937,5,2
256,88,116794,1,2
136,192,118509,5,2
368,192,120223,1,2
64,192,123651,5,0
160,192,124509,1,0
256,192,125366,1,0
352,192,126223,1,0
448,192,127080,1,0
448,192,127937,2,2,B|451:65|304:56,2,190
448,192,130508,5,0
352,192,131366,1,0
256,192,132223,1,0
160,192,133080,1,0
64,192,133937,1,0
64,192,134794,2,2,B|61:319|208:328,2,190
64,192,137365,5,0
160,192,138223,1,0
256,192,139080,1,0
352,192,139937,1,0
448,192,140794,1,0
448,192,141651,2,2,B|451:319|304:328,2,190
448,192,144223,5,0
352,192,145081,1,0
256,192,145938,1,0
160,192,146795,1,0
64,192,147652,1,0
64,192,148509,2,2,B|268:56|447:216,1,380
416,192,151294,1,0
