osu file format v4

[General]
AudioFilename: 12 - The Legendary Theme (Album Version).mp3
AudioLeadIn: 0
AudioHash: 88eef3a2227ecd8d969e2ceed0ad8d35
PreviewTime: -1
SampleSet: Normal

[Metadata]
Title:12 - The Legendary Theme (Album Version)
Artist:Gitaroo Man
Creator:darkbluetornado
Version:Normal

[Difficulty]
HPDrainRate:4
CircleSize:5
OverallDifficulty:5
SliderMultiplier: 1.4
SliderTickRate: 2

[Events]
3,0,163,162,255

[TimingPoints]
24135,740.466493891151,4,1,1
166326,740.466493891151,4,1,1
166326,740.466493891151,4,1,1
166326,740.466493891151,4,1,1

[HitObjects]
64,96,24138,1,0,
128,96,24510,1,0,
192,96,24881,2,0,B|192:96|256:96,1,70
320,96,25996,2,0,B|320:96|416:96|416:192,1,140
416,288,30048,5,0,
352,288,30420,1,0,
288,288,30791,2,0,B|288:288|224:288,1,70
160,288,31906,2,0,B|160:288|96:288|96:96,1,210
224,128,35992,1,0,
256,64,36363,1,0,
288,128,36735,1,0,
288,192,37106,2,0,B|288:192|288:352,1,140
224,320,38592,2,0,B|224:320|224:96,1,210
288,96,40078,2,0,B|288:96|352:128|384:32|448:160,1,140
416,192,41192,1,0,
416,256,41563,1,0,
288,256,42306,1,4,
224,256,43391,5,0,
160,256,43796,1,0,
96,256,44165,1,0,
96,192,44533,1,0,
224,192,45270,1,0,
64,192,47789,5,0,
128,192,48160,1,0,
192,192,48532,2,0,B|192:192|192:96,1,70
192,96,49646,2,0,B|192:96|256:96|256:224,1,140
192,128,51902,1,0,
320,128,52272,1,0,
256,256,52642,1,0,
64,288,53732,6,0,B|64:288|160:288,1,70
160,224,54475,2,0,B|160:224|64:224,1,70
128,160,55589,2,0,B|128:160|320:160,1,140
192,256,57826,1,0,
320,256,58196,1,0,
256,160,58566,1,0,
64,192,59675,6,0,B|64:192|128:192,1,70
192,192,60418,2,0,B|192:192|256:192,1,70
320,192,61533,2,0,B|320:192|480:192,1,140
256,96,63761,2,0,B|256:96|288:160|224:192|320:288,1,140
320,288,64876,1,0,
384,320,65247,1,0,
448,192,65990,1,0,
384,96,67104,5,0,
320,96,67476,1,0,
256,96,67847,1,0,
192,96,68219,2,0,B|192:96|96:96,1,70
64,96,68962,1,6,
256,128,70076,2,0,B|256:128|256:320,1,140
96,128,71562,5,0,
96,224,72310,1,0,
96,320,73046,1,0,
160,320,73414,1,0,
224,320,73782,1,0,
224,256,74150,1,4,
224,128,74886,1,0,
320,128,75623,1,0,
320,192,76359,2,2,B|320:192|320:256,1,70
448,320,77463,5,0,
448,224,78199,1,0,
448,128,78935,1,0,
384,128,79304,1,0,
320,128,79672,1,0,
320,192,80040,1,0,
320,288,80776,1,0,
224,288,81512,1,0,
128,288,82248,2,0,B|128:288|128:224,1,70
128,128,83353,2,0,B|128:128|224:128,1,70
288,128,84089,1,0,
352,128,84457,1,0,
352,192,85193,2,0,B|352:192|352:256,1,70
352,320,85929,2,0,B|352:320|192:320|224:160,1,210
160,128,87402,5,0,
192,224,87770,1,0,
256,288,88138,1,0,
320,224,88506,1,0,
416,96,89242,1,0,
320,192,89978,5,0,
256,256,90347,1,0,
160,192,91157,1,0,
256,192,92261,12,0,94484
320,320,95223,1,0,
320,256,95594,1,0,
320,192,95964,1,0,
320,128,96334,2,0,B|320:128|320:64|192:64,1,140
192,128,97815,2,0,B|192:128|192:224|192:320|352:320|320:128,1,350
256,160,100407,1,0,
160,320,101147,5,0,
160,256,101517,1,0,
160,192,101887,1,0,
160,128,102258,2,0,B|160:128|160:64|288:64,1,140
320,128,103739,2,0,B|320:128|320:320|160:320|160:96,1,350
320,96,107071,1,0,
288,160,107441,1,0,
256,224,107811,1,0,
224,288,108181,2,0,B|224:288|128:160,1,140
128,128,109662,2,0,B|128:128|256:64|416:128,1,280
384,192,111514,5,0,
320,192,111884,1,0,
256,192,112254,1,0,
192,192,112624,2,0,B|192:192|128:192,1,70
64,192,113365,1,6,
64,128,114475,1,6,
128,128,114846,1,6,
192,128,115216,1,6,
256,128,115586,2,6,B|256:128|256:288,1,140
160,192,117437,5,6,
352,192,118178,5,6,
352,128,118918,6,4,B|352:128|352:32|128:32|149:148,1,280
256,128,120769,1,4,
256,192,121140,1,4,
256,256,121510,1,4,
352,256,122250,1,0,
352,160,122991,1,0,
352,64,123731,1,0,
288,64,124101,1,0,
160,192,124842,5,4,
352,192,125582,5,4,
256,96,126323,5,4,
256,160,126693,1,4,
256,224,127063,1,4,
256,288,127434,1,4,
160,288,128174,1,0,
160,192,128915,1,0,
160,96,129655,1,0,
224,96,130025,1,0,
320,96,130766,6,0,B|320:96|320:160,1,70
384,160,131506,2,0,B|384:160|384:96,1,70
320,96,132617,1,0,
256,96,132987,1,0,
192,96,133357,2,6,B|192:96|96:96|64:224|64:320,1,280
256,192,135579,1,0,
256,192,135949,1,0,
256,192,136689,12,0,141132
64,96,142613,1,0,
64,192,143354,1,0,
64,288,144094,1,0,
128,288,144464,1,0,
192,288,144835,1,0,
256,288,145205,1,0,
256,192,145945,1,0,
256,96,146686,1,0,
352,96,147426,1,0,
352,160,147796,1,0,
352,288,148537,1,0,
448,288,149277,1,0,
448,192,150018,1,0,
448,128,150388,1,0,
448,64,150758,1,0,
384,64,151129,1,0,
288,64,151869,1,0,
192,64,152609,1,0,
96,64,153350,1,0,
96,128,153720,1,0,
96,256,154461,1,4,
192,256,155201,1,4,
192,160,155942,1,0,
192,96,156312,1,0,
256,96,156682,1,0,
320,96,157052,1,0,
256,192,157793,1,0,
256,192,158163,1,0,
256,192,158903,2,4,B|256:192|256:256,1,70
256,192,159644,2,4,B|256:192|256:128,1,70
256,192,160384,12,0,164827
352,160,166326,2,0,B|352:160|320:224,1,70
256,192,167066,2,0,B|256:192|288:128,1,70
224,96,168177,2,4,B|224:96|160:224,1,140
192,192,170028,2,6,B|192:192|352:192,2,140
160,160,172249,6,0,B|160:160|192:224,1,70
256,192,172990,2,0,B|256:192|224:128,1,70
288,96,174100,2,4,B|288:96|352:224,1,140
288,256,175952,2,0,B|288:256|224:256|192:160|256:128,2,140
224,288,178173,6,0,B|224:288|288:288,1,70
288,224,178913,2,0,B|288:224|224:224,1,70
256,160,180024,2,0,B|256:160|256:0,1,140
192,256,181875,2,0,B|192:256|192:192,1,70
256,192,182616,2,0,B|256:192|256:256,1,70
320,256,183356,2,0,B|320:256|320:192,1,70
224,96,184097,6,0,B|224:96|288:96,1,70
288,160,184837,2,0,B|288:160|224:160,1,70
256,224,185948,2,4,B|256:224|256:384,1,140
256,192,187799,12,4,194093
