osu file format v12

[General]
AudioFilename: Girls Generation - Oh!.mp3
AudioLeadIn: 0
PreviewTime: 43517
Countdown: 1
SampleSet: Soft
StackLeniency: 0.7
Mode: 0
LetterboxInBreaks: 1
WidescreenStoryboard: 0

[Editor]
Bookmarks: 12371
DistanceSpacing: 2
BeatDivisor: 4
GridSize: 4

[Metadata]
Title:Oh!
TitleUnicode:Oh!
Artist:Girls Generation
ArtistUnicode:Girls Generation
Creator:cRyo[iceeicee]
Version:Insane
Source:
Tags:
BeatmapID:282379
BeatmapSetID:107834

[Difficulty]
HPDrainRate:7
CircleSize:4
OverallDifficulty:7
ApproachRate:9
SliderMultiplier:1.7
SliderTickRate:1

[Events]
//Background and Video events
0,0,"BG.jpg",0,0
//Break Periods
2,63925,68958
//Storyboard Layer 0 (Background)
//Storyboard Layer 1 (Fail)
//Storyboard Layer 2 (Pass)
//Storyboard Layer 3 (Foreground)
//Storyboard Sound Samples
//Background Colour Transformations
3,100,163,162,255

[TimingPoints]
392,416.666666666667,4,1,1,50,1,0
2058,-100,4,1,3,50,0,0
3100,-100,4,1,2,50,0,0
4142,-111.111111111111,4,2,1,80,0,0
4558,-111.111111111111,4,2,1,50,0,0
4975,-111.111111111111,4,2,1,80,0,0
5075,-111.111111111111,4,2,1,50,0,0
5808,-111.111111111111,4,2,1,80,0,0
6225,-111.111111111111,4,2,1,50,0,0
6642,-111.111111111111,4,2,1,80,0,0
6742,-111.111111111111,4,2,1,50,0,0
7475,-111.111111111111,4,2,1,80,0,0
7892,-111.111111111111,4,2,1,50,0,0
8308,-111.111111111111,4,2,1,80,0,0
8408,-111.111111111111,4,2,1,50,0,0
9142,-111.111111111111,4,2,1,80,0,0
9454,-111.111111111111,4,2,1,50,0,0
10808,-111.111111111111,4,2,1,80,0,0
11121,-111.111111111111,4,2,1,50,0,0
12475,-111.111111111111,4,2,1,80,0,0
12787,-111.111111111111,4,2,1,50,0,0
13308,-111.111111111111,4,2,1,80,0,0
13412,-111.111111111111,4,2,1,50,0,0
14142,-111.111111111111,4,2,1,80,0,0
14454,-111.111111111111,4,2,1,50,0,0
14975,-111.111111111111,4,2,1,80,0,0
15075,-111.111111111111,4,2,1,50,0,0
15392,-111.111111111111,4,2,1,50,0,0
16225,-100,4,1,2,50,0,0
19767,-100,4,2,2,60,0,0
20183,-100,4,1,1,60,0,0
20600,-133.333333333333,4,2,2,55,0,0
23308,-58.8235294117647,4,1,2,70,0,0
23408,-100,4,1,1,50,0,0
23933,-100,4,1,1,80,0,0
24033,-100,4,1,2,50,0,0
25600,-100,4,1,1,90,0,0
25700,-100,4,1,2,50,0,0
26433,-100,4,2,2,60,0,0
26850,-100,4,1,1,60,0,0
27162,-100,4,1,1,50,0,0
27475,-133.333333333333,4,1,2,50,0,0
30392,-100,4,1,1,50,0,0
32892,-100,4,1,1,60,0,0
33308,-100,4,1,1,50,0,0
36225,-100,4,1,1,60,0,0
36642,-100,4,1,1,50,0,0
36746,-100,4,1,1,60,0,0
37058,-100,4,1,1,50,0,0
37267,-100,4,1,1,80,0,0
37367,-100,4,1,1,50,0,0
38517,-100,4,1,1,80,0,0
38617,-100,4,1,1,50,0,0
38933,-100,4,1,1,80,0,0
39033,-100,4,1,1,50,0,0
39767,-100,4,2,1,80,0,0
39867,-100,4,1,1,50,0,0
40183,-100,4,1,1,80,0,0
40392,-100,4,3,1,60,0,0
42058,-100,4,1,1,60,0,0
42892,-133.333333333333,4,3,1,60,0,0
43725,-200,4,1,1,60,0,0
43825,-100,4,1,1,60,0,0
44142,-100,4,1,3,60,0,1
44246,-100,4,1,2,60,0,1
45183,-100,4,1,1,90,0,1
45283,-100,4,1,2,60,0,1
45600,-100,4,1,1,90,0,1
45700,-100,4,1,2,60,0,1
46433,-100,4,1,1,90,0,1
46533,-100,4,1,2,60,0,1
46850,-100,4,1,1,90,0,1
46950,-100,4,1,2,60,0,1
48308,-100,4,1,1,50,0,1
48408,-100,4,1,2,60,0,1
50600,-100,4,2,1,90,0,1
50700,-100,4,1,2,60,0,1
52267,-100,4,1,1,90,0,1
52367,-100,4,1,2,60,0,1
53100,-100,4,2,1,92,0,1
53308,-100,4,1,2,62,0,1
53408,-100,4,2,1,92,0,1
53725,-100,4,1,3,60,0,1
53825,-100,4,1,2,60,0,1
54558,-100,4,1,3,60,0,1
54658,-100,4,1,2,60,0,1
55392,-100,4,1,3,60,0,1
55492,-100,4,1,2,60,0,1
56017,-100,4,1,3,60,0,1
56117,-100,4,1,3,60,0,1
56537,-100,4,2,1,5,0,1
56642,-58.8235294117647,4,1,1,70,0,1
56742,-100,4,1,1,60,0,1
63725,-100,4,1,1,50,0,0
69975,-100,4,1,1,30,0,0
70496,-100,4,1,2,60,0,0
75392,-100,4,1,1,60,0,0
75600,-100,4,1,2,60,0,0
75808,-100,4,1,1,60,0,0
76017,-100,4,1,2,60,0,0
76225,-100,4,1,2,60,0,0
77267,-100,4,1,2,50,0,0
79767,-100,4,1,2,60,0,0
80600,-100,4,1,2,55,0,0
80808,-133.333333333333,4,1,2,55,0,0
83725,-100,4,1,2,50,0,0
83933,-100,4,1,1,90,0,0
84033,-100,4,1,2,50,0,0
85600,-100,4,1,1,90,0,0
85700,-100,4,1,2,50,0,0
86642,-100,4,1,2,60,0,0
87267,-133.333333333333,4,1,2,55,0,0
90392,-100,4,1,1,50,0,0
92892,-100,4,1,1,50,0,0
93725,-100,4,1,1,50,0,0
97267,-100,4,2,1,90,0,0
97367,-100,4,1,1,50,0,0
98517,-100,4,2,1,90,0,0
98617,-100,4,1,1,50,0,0
98933,-100,4,1,1,90,0,0
99033,-100,4,1,1,50,0,0
99767,-100,4,1,1,90,0,0
99867,-100,4,1,1,50,0,0
100183,-100,4,2,1,90,0,0
100283,-100,4,1,1,50,0,0
102058,-100,4,1,1,60,0,0
102892,-133.333333333333,4,1,1,60,0,0
103725,-200,4,1,1,50,0,0
103825,-100,4,1,2,60,0,1
104142,-100,4,1,3,60,0,1
104242,-100,4,1,2,60,0,1
105183,-100,4,2,1,90,0,1
105283,-100,4,1,2,60,0,1
105600,-100,4,1,1,90,0,1
105700,-100,4,1,2,60,0,1
106433,-100,4,1,1,90,0,1
106533,-100,4,1,2,60,0,1
106850,-100,4,1,1,90,0,1
106950,-100,4,1,2,60,0,1
108308,-100,4,2,1,50,0,1
108408,-100,4,1,2,60,0,1
110600,-100,4,1,1,90,0,1
110700,-100,4,1,2,60,0,1
111850,-100,4,1,1,60,0,1
111950,-100,4,1,1,60,0,1
112267,-100,4,1,1,90,0,1
112367,-100,4,1,2,60,0,1
113100,-100,4,1,1,90,0,1
113200,-100,4,1,2,60,0,1
113517,-100,4,1,1,90,0,1
113617,-100,4,1,1,60,0,1
113725,-100,4,1,3,60,0,1
113825,-100,4,1,1,60,0,1
114142,-100,4,1,2,60,0,1
114242,-100,4,1,1,60,0,1
114558,-100,4,1,3,60,0,1
114658,-100,4,1,2,60,0,1
115392,-100,4,1,3,60,0,1
115492,-100,4,1,2,60,0,1
116017,-100,4,1,3,60,0,1
116117,-100,4,1,1,60,0,1
116537,-100,4,1,1,5,0,1
116642,-58.8235294117647,4,1,1,70,0,1
116742,-100,4,1,2,60,0,1
118517,-100,4,1,1,60,0,1
123725,-100,4,1,1,50,0,0
124975,-100,4,1,2,50,0,0
127267,-100,4,1,1,90,0,0
127367,-100,4,1,1,50,0,0
127892,-100,4,1,1,90,0,0
128308,-100,4,1,2,50,0,0
128517,-100,4,1,1,90,0,0
128617,-100,4,1,1,50,0,0
129975,-100,4,1,2,50,0,0
131225,-100,4,1,1,50,0,0
131642,-100,4,1,2,50,0,0
133933,-100,4,1,1,90,0,0
134033,-100,4,1,2,50,0,0
134558,-100,4,1,1,90,0,0
134871,-100,4,1,2,50,0,0
135183,-100,4,1,1,90,0,0
135392,-100,4,1,1,50,0,0
136433,-100,4,1,1,90,0,0
136533,-100,4,1,1,50,0,0
136850,-100,4,1,1,90,0,0
136950,-100,4,1,1,50,0,0
137475,-133.333333333333,4,1,1,50,0,0
138308,-58.8235294117647,4,1,2,80,0,0
138408,-100,4,1,1,50,0,0
139767,-100,4,2,1,50,0,0
140392,-200,4,1,1,50,0,0
140492,-100,4,1,2,60,0,0
140808,-100,4,1,3,60,0,0
140908,-100,4,1,2,60,0,0
141850,-100,4,1,1,90,0,0
141950,-100,4,1,2,60,0,0
142267,-100,4,2,1,90,0,0
142367,-100,4,1,2,60,0,0
143100,-100,4,1,1,90,0,0
143200,-100,4,1,2,60,0,0
143517,-100,4,1,1,90,0,0
143617,-100,4,1,2,60,0,0
147058,-100,4,1,2,50,0,0
147475,-100,4,1,2,60,0,0
147892,-100,4,1,2,50,0,0
148308,-100,4,1,2,60,0,0
148412,-100,4,1,2,50,0,0
148725,-100,4,1,2,60,0,0
148933,-100,4,1,1,90,0,0
149033,-100,4,1,2,60,0,0
149767,-100,4,1,1,90,0,0
149867,-100,4,1,2,60,0,0
150183,-100,4,1,1,90,0,0
150283,-100,4,1,2,60,0,0
151225,-100,4,1,2,40,0,0
151642,-100,4,1,2,60,0,0
153308,-58.8235294117647,4,1,1,70,0,0
153408,-100,4,1,1,60,0,0
160392,-100,4,1,1,60,0,0
160496,-100,4,1,1,60,0,0
160913,-100,4,1,3,50,0,0
161642,-100,4,1,2,50,0,0
161850,-100,4,1,1,90,0,0
162058,-100,4,2,1,50,0,0
162475,-100,4,1,3,50,0,0
162575,-100,4,2,1,50,0,0
162996,-100,4,1,1,90,0,0
163308,-100,4,1,2,50,0,0
163408,-100,4,1,1,90,0,0
163725,-100,4,1,1,60,0,0
163829,-100,4,1,1,60,0,0
164246,-100,4,1,3,50,0,0
164975,-100,4,1,2,50,0,0
165392,-100,4,2,1,50,0,0
165808,-100,4,3,3,50,0,0
165912,-100,4,1,1,50,0,0
166225,-200,4,1,1,50,0,0
166642,-200,4,3,3,50,0,0
166746,-200,4,1,1,50,0,0
167058,-200,4,1,1,50,0,0
167158,-100,4,1,1,50,0,0
167475,-100,4,1,3,60,0,0
167575,-100,4,1,1,60,0,0
167839,-100,4,2,2,50,0,0
168308,-100,4,1,2,60,0,0
168517,-100,4,2,1,90,0,0
168617,-100,4,1,2,60,0,0
168933,-100,4,2,1,90,0,0
169033,-100,4,1,2,60,0,0
169767,-100,4,2,1,90,0,0
169867,-100,4,1,2,60,0,0
170183,-100,4,2,1,90,0,0
170392,-100,4,1,2,60,0,0
171225,-100,4,2,2,50,0,0
171642,-100,4,1,2,60,0,0
172892,-200,4,2,1,60,0,0
173725,-200,4,2,1,50,0,0
173825,-100,4,2,1,50,0,0
174142,-100,4,1,3,60,0,0
174246,-100,4,2,1,60,0,0
174558,-100,4,2,2,50,0,0
174975,-100,4,1,2,50,0,0
175075,-100,4,2,2,50,0,0
175392,-100,4,2,1,60,0,0
175600,-100,4,2,1,90,0,0
175700,-100,4,1,2,60,0,0
176433,-100,4,1,1,90,0,0
176533,-100,4,1,2,60,0,0
176850,-100,4,1,1,90,0,0
176950,-100,4,1,2,60,0,0
180392,-133.333333333333,4,1,1,50,0,0
180492,-100,4,1,2,60,0,0
182058,-100,4,1,3,60,0,0
182267,-100,4,1,1,90,0,0
182367,-100,4,1,2,60,0,0
182683,-100,4,1,3,60,0,0
183200,-100,4,1,3,60,0,0
183412,-100,4,1,1,90,0,0
183725,-100,4,1,2,60,0,0
185392,-100,4,1,3,60,0,0
185808,-100,4,1,2,60,0,0
185912,-100,4,1,3,60,0,0
186225,-200,4,1,2,50,0,0
187058,-200,4,1,3,50,0,0
187892,-200,4,2,2,50,0,0
188100,-200,4,2,2,5,0,0

[Colours]
Combo1 : 229,229,229
Combo2 : 36,255,255
Combo3 : 255,98,255
Combo4 : 91,91,255
Combo5 : 255,112,43
Combo6 : 255,0,0

[HitObjects]
192,104,392,1,2,2:0:0:0:
204,212,600,1,0,3:3:0:0:
104,168,808,1,2,2:0:0:0:
200,108,1017,1,0,3:0:0:0:
324,160,1225,5,2,2:0:0:0:
336,268,1433,1,0,3:3:0:0:
236,224,1642,1,2,2:0:0:0:
332,164,1850,1,0,3:0:0:0:
468,104,2058,6,2,L|476:200,1,85,0|0,2:0|3:3,0:0:0:0:
408,216,2371,2,2,L|415:300,1,85,0|0,2:0|3:0,0:0:0:0:
336,268,2683,2,2,B|308:256|308:256|274:314|204:296,1,127.5,0|0,2:0|2:0,2:0:0:0:
176,352,3100,1,2,2:0:0:0:
236,224,3308,2,0,B|208:164|144:156|144:156|96:196,1,170,2|0,2:2|0:3,0:0:0:0:
92,200,4142,5,8,2:2:0:0:
172,140,4350,1,8,2:2:0:0:
116,56,4558,2,0,L|40:66,1,76.4999976654053,0|2,1:0|2:0,0:0:0:0:
196,144,4975,2,0,L|271:133,1,76.4999976654053,8|2,2:2|2:0,0:0:0:0:
380,268,5392,38,0,P|380:228|360:176,1,76.4999976654053,0|0,1:0|2:0,0:0:0:0:
336,104,5808,1,8,0:0:0:0:
292,228,6017,1,8,0:0:0:0:
420,124,6225,2,0,P|416:80|396:32,1,76.4999976654053,0|0,1:0|2:0,0:0:0:0:
204,184,6642,1,8,0:0:0:0:
204,184,7058,5,0,1:0:0:0:
292,228,7267,1,2,2:0:0:0:
204,184,7475,1,8,0:0:0:0:
276,80,7683,1,8,0:0:0:0:
116,208,7892,5,0,1:0:0:0:
296,252,8100,1,2,2:0:0:0:
112,192,8308,1,8,0:0:0:0:
280,96,8517,1,2,2:0:0:0:
204,184,8725,5,0,1:0:0:0:
204,184,8933,2,0,L|208:264,1,76.4999976654053,0|8,1:0|0:0,0:0:0:0:
292,344,9350,2,0,P|364:308|370:211,1,152.999995330811,8|0,0:0|0:0,0:0:0:0:
280,96,9975,1,0,1:0:0:0:
284,128,10079,1,0,3:3:0:0:
288,160,10183,1,0,3:3:0:0:
292,192,10287,1,0,3:3:0:0:
296,224,10392,38,0,P|334:219|384:216,1,76.4999976654053,0|0,1:0|0:0,0:0:0:0:
200,272,10808,2,0,P|160:274|123:278,1,76.4999976654053,8|8,0:0|0:0,0:0:0:0:
280,96,11225,2,0,P|317:93|368:88,1,76.4999976654053,0|0,1:0|0:0,0:0:0:0:
452,184,11642,1,0,1:2:0:0:
452,184,11746,1,0,1:0:0:0:
452,184,11850,1,0,1:0:0:0:
368,316,12058,5,2,2:0:0:0:
272,248,12267,2,0,L|274:210|276:172,1,76.4999976654053,2|8,2:0|0:0,0:0:0:0:
192,96,12683,2,0,P|108:112|69:163,1,152.999995330811,8|0,2:2|2:0,0:0:0:0:
80,352,13308,1,8,3:2:0:0:
104,332,13412,1,0,3:0:0:0:
120,308,13517,1,0,3:0:0:0:
128,280,13621,1,0,3:0:0:0:
132,248,13725,6,0,L|120:144,1,76.4999976654053,0|2,1:0|0:0,0:0:0:0:
232,52,14142,2,0,L|240:127,1,76.4999976654053,8|8,2:2|0:0,0:0:0:0:
124,160,14558,1,0,1:0:0:0:
244,136,14767,1,2,0:0:0:0:
104,164,14975,1,8,0:0:0:0:
264,132,15183,1,2,0:0:0:0:
48,236,15392,5,4,2:2:0:0:
336,68,15808,1,4,2:0:0:0:
124,300,16225,37,12,2:3:0:0:
140,288,16329,1,12,2:3:0:0:
156,276,16433,1,12,2:3:0:0:
172,264,16537,1,12,2:3:0:0:
192,252,16642,1,2,2:1:0:0:
208,240,16746,1,12,2:3:0:0:
224,228,16850,2,12,L|208:168,1,42.5,2|0,0:2|2:3,2:3:0:0:
336,68,17058,6,0,P|329:109|324:176,1,85,4|2,0:0|2:0,0:0:0:0:
328,288,17475,1,12,1:0:0:0:
408,192,17683,1,2,2:2:0:0:
240,148,17892,2,0,P|152:172|60:192,1,170,0|8,0:0|0:0,0:0:0:0:
140,76,18517,5,2,2:0:0:0:
180,256,18725,1,0,0:0:0:0:
76,188,18933,1,2,2:0:0:0:
240,148,19142,2,0,P|292:137|328:128,1,85,8|2,0:0|2:0,0:0:0:0:
456,200,19558,1,0,0:0:0:0:
376,280,19767,5,4,1:3:0:0:
376,104,19975,1,0,1:2:0:0:
360,296,20183,1,4,0:3:0:0:
360,88,20392,1,4,0:3:0:0:
240,148,20600,22,0,L|180:176,2,63.7500024318696,2|8|2,0:0|1:1|0:0,0:0:0:0:
208,272,21225,1,2,2:2:0:0:
208,272,21329,1,2,2:2:0:0:
208,272,21433,2,0,L|145:261,1,63.7500024318696,2|8,0:0|1:1,0:0:0:0:
56,144,21850,2,0,L|68:224,1,63.7500024318696,2|0,0:2|1:2,0:0:0:0:
240,148,22267,2,0,L|230:84,1,63.7500024318696,2|8,0:2|1:1,0:0:0:0:
132,56,22683,2,0,L|148:144,1,63.7500024318696,2|2,0:2|2:2,0:0:0:0:
147,140,22996,1,2,0:2:0:0:
147,140,23100,1,2,0:2:0:0:
180,240,23308,70,0,B|128:252|92:224|92:224|72:236|36:240,1,144.500002756119,8|2,2:2|2:0,0:0:0:0:
372,196,23725,21,0,0:0:0:0:
272,116,23933,1,8,2:2:0:0:
288,276,24142,1,8,0:0:0:0:
420,184,24350,1,2,2:0:0:0:
272,116,24558,2,0,P|192:140|88:168,1,170,0|8,0:0|0:0,0:0:0:0:
56,244,25183,5,2,2:2:0:0:
140,300,25392,1,0,0:3:0:0:
56,244,25600,1,8,2:2:0:0:
128,112,25808,1,8,0:0:0:0:
168,312,26017,1,2,2:0:0:0:
24,252,26225,1,0,0:0:0:0:
200,216,26433,5,4,1:3:0:0:
60,344,26642,1,0,1:2:0:0:
20,156,26850,1,4,1:3:0:0:
200,216,27058,2,0,P|247:209|288:196,1,85,4|2,0:3|2:0,0:0:0:0:
444,280,27475,37,8,1:0:0:0:
324,316,27683,1,2,2:0:0:0:
368,200,27892,1,2,2:0:0:0:
372,168,27996,1,2,2:0:0:0:
376,136,28100,2,0,L|388:48,1,63.7500024318696,2|8,2:0|1:0,0:0:0:0:
252,72,28517,2,0,L|172:88,1,63.7500024318696,2|0,2:0|0:0,0:0:0:0:
166,183,28933,2,0,L|104:196,1,63.7500024318696,2|8,2:0|1:0,0:0:0:0:
269,220,29350,2,0,L|332:208,1,63.7500024318696,2|2,2:0|2:2,0:0:0:0:
368,200,29662,1,2,2:0:0:0:
368,200,29767,1,2,2:0:0:0:
472,120,29975,1,8,0:0:0:0:
344,56,30183,1,2,2:0:0:0:
352,284,30392,5,0,0:0:0:0:
436,248,30600,1,8,2:0:0:0:
340,288,30808,1,8,0:0:0:0:
448,244,31017,1,8,2:0:0:0:
312,148,31225,2,0,P|268:156|216:168,1,85,0|0,0:0|3:0,0:0:0:0:
136,268,31642,5,8,0:0:0:0:
236,244,31850,1,0,2:0:0:0:
120,180,32058,1,0,0:0:0:0:
152,356,32267,1,8,2:0:0:0:
32,292,32475,2,0,L|114:273,1,85,8|8,0:0|2:0,0:0:0:0:
200,164,32892,5,0,3:0:0:0:
212,132,32996,1,0,3:0:0:0:
224,100,33100,1,0,3:0:0:0:
240,68,33204,1,0,3:0:0:0:
252,36,33308,2,0,L|268:140,1,85,8|0,0:0|3:0,0:0:0:0:
312,312,33725,5,0,0:0:0:0:
300,200,33933,1,8,2:0:0:0:
348,328,34142,1,8,0:0:0:0:
264,184,34350,1,8,2:0:0:0:
388,344,34558,2,0,P|432:333|476:320,1,85,0|0,0:0|2:0,0:0:0:0:
440,168,34975,37,8,0:0:0:0:
440,168,35183,1,0,3:0:0:0:
300,200,35392,2,0,L|223:163,1,85,0|0,0:0|3:2,0:0:0:0:
180,112,35704,1,0,3:0:0:0:
180,112,35808,2,0,P|188:164|196:224,1,85,8|0,0:0|3:0,0:0:0:0:
128,328,36225,6,0,L|80:316,3,42.5,0|0|0|0,3:0|3:0|3:0|3:0,0:0:0:0:
64,272,36642,1,8,3:1:0:0:
56,240,36746,1,0,3:0:0:0:
48,208,36850,1,0,3:0:0:0:
40,176,36954,1,0,3:0:0:0:
36,144,37058,6,0,P|84:160|120:168,1,85,0|8,1:0|2:0,0:0:0:0:
220,192,37475,1,12,1:0:0:0:
316,132,37683,2,0,P|312:88|308:32,1,85,2|8,2:0|0:2,0:0:0:0:
212,216,38100,2,0,P|216:260|220:316,1,85,2|8,2:0|1:0,0:0:0:0:
304,252,38517,5,8,2:2:0:0:
132,272,38725,1,0,1:0:0:0:
304,252,38933,1,8,2:2:0:0:
200,116,39142,1,12,1:0:0:0:
316,132,39350,2,0,P|359:125|400:120,1,85,2|0,2:0|1:0,0:0:0:0:
464,272,39767,37,8,0:2:0:0:
304,252,39975,1,8,0:0:0:0:
440,176,40183,1,8,2:2:0:0:
380,288,40392,5,0,1:0:0:0:
364,312,40496,1,0,0:0:0:0:
340,332,40600,1,0,0:0:0:0:
312,340,40704,1,0,0:0:0:0:
284,336,40808,2,0,L|224:316,3,42.5,12|0|0|0,0:1|0:0|0:0|0:0,0:0:0:0:
176,272,41225,5,0,1:0:0:0:
168,244,41329,1,0,0:0:0:0:
160,216,41433,1,0,0:0:0:0:
152,188,41537,1,0,0:0:0:0:
144,160,41642,2,0,L|128:96,3,42.5,12|0|0|0,0:1|0:0|0:0|0:0,0:0:0:0:
200,56,42058,6,0,L|224:152,1,85,10|0,0:2|2:0,0:0:0:0:
364,240,42475,2,0,L|447:223,1,85,10|0,0:2|2:0,0:0:0:0:
368,76,42892,37,8,2:3:0:0:
352,100,42996,1,8,2:3:0:0:
336,124,43100,1,8,2:3:0:0:
320,148,43204,1,8,2:3:0:0:
304,172,43308,53,4,2:3:0:0:
256,184,43412,1,4,2:3:0:0:
208,192,43517,1,4,2:3:0:0:
160,200,43621,1,4,2:3:0:0:
112,208,43725,6,0,L|36:216,1,63.75,2|0,2:0|2:0,0:0:0:0:
272,72,44142,5,6,0:0:0:0:
396,184,44350,2,0,L|500:168,1,85,2|0,2:0|0:0,0:0:0:0:
256,44,44767,1,2,2:0:0:0:
256,184,44975,2,0,L|268:268,1,85,8|8,1:1|2:0,0:0:0:0:
120,352,45392,5,2,2:0:0:0:
120,352,45600,2,0,L|108:268,1,85,8|8,2:2|0:0,0:0:0:0:
43,175,46017,2,0,P|88:168|128:160,1,85,2|0,2:0|0:0,0:0:0:0:
72,80,46433,1,8,2:2:0:0:
112,252,46642,1,8,0:0:0:0:
236,132,46850,1,8,2:2:0:0:
176,36,47058,6,0,P|159:75|148:120,1,85,2|2,1:2|2:0,0:0:0:0:
108,216,47475,1,8,0:0:0:0:
252,240,47683,2,0,P|261:282|276:360,1,85,2|0,2:0|0:0,0:0:0:0:
104,176,48100,1,2,2:0:0:0:
236,132,48308,2,0,P|280:120|328:108,1,85,4|0,0:2|2:0,0:0:0:0:
468,248,48725,5,2,1:2:0:0:
468,248,48933,2,0,P|429:257|385:269,1,85,2|8,2:2|0:0,0:0:0:0:
380,88,49350,2,0,P|392:132|408:184,1,85,2|0,2:0|0:0,0:0:0:0:
476,104,49767,1,2,2:0:0:0:
328,216,49975,2,0,P|288:208|224:200,1,85,8|0,0:1|2:0,0:0:0:0:
70,228,50392,37,8,0:3:0:0:
118,60,50600,1,8,2:2:0:0:
184,128,50808,2,0,P|140:148|100:152,1,85,8|2,0:0|2:0,0:0:0:0:
252,180,51225,2,0,B|284:128|252:76|252:76|280:76|304:104,1,170,8|8,0:3|1:0,0:0:0:0:
424,296,51850,1,2,2:0:0:0:
412,276,52267,5,8,2:0:0:0:
364,156,52475,1,8,0:1:0:0:
236,240,52683,2,0,P|280:252|336:252,1,85,2|0,2:0|0:3,0:0:0:0:
372,136,53100,5,8,0:2:0:0:
312,328,53308,1,8,0:0:0:0:
192,224,53517,1,8,0:2:0:0:
352,212,53725,5,2,0:2:0:0:
212,136,53933,1,2,2:0:0:0:
224,300,54142,1,8,0:0:0:0:
296,144,54350,1,2,2:0:0:0:
108,232,54558,1,2,0:2:0:0:
272,220,54767,1,2,2:0:0:0:
216,48,54975,37,8,0:0:0:0:
192,224,55183,1,2,2:0:0:0:
88,120,55392,1,2,0:2:0:0:
212,136,55600,2,0,L|296:143,1,85,2|8,2:2|0:0,0:0:0:0:
468,304,56017,2,0,B|444:292|428:268|428:268|380:304|316:280,1,170,2|0,2:2|2:0,0:0:0:0:
260,332,56642,54,2,P|190:335|130:295,1,144.500002756119,2|0,0:0|2:0,0:0:0:0:
297,201,57058,38,0,P|361:173|449:178,1,127.5,4|0,0:2|2:0,0:0:0:0:
432,172,57475,2,0,P|421:131|411:89,1,85,0|2,0:0|2:2,0:0:0:0:
288,96,57892,1,0,0:0:0:0:
388,264,58100,1,0,0:0:0:0:
220,236,58308,2,0,P|257:217|297:201,1,85,4|0,0:2|2:0,0:0:0:0:
148,64,58725,1,0,0:0:0:0:
132,176,58933,6,0,L|116:268,1,85,2|0,2:2|0:0,0:0:0:0:
36,208,59350,1,0,0:0:0:0:
220,236,59558,2,0,P|261:242|304:248,1,85,4|0,0:2|0:0,0:0:0:0:
492,156,59975,2,0,P|449:150|408:144,1,85,4|0,0:2|0:0,0:0:0:0:
120,264,60392,1,4,0:0:0:0:
256,192,60600,12,4,63725,2:1:0:0:
176,48,69558,86,0,L|196:92,3,42.5
272,100,69975,1,4,0:0:0:0:
268,128,70079,1,4,0:0:0:0:
264,156,70183,1,4,0:0:0:0:
260,184,70287,1,4,0:0:0:0:
256,212,70392,6,0,P|204:220|160:228,1,85,4|0,0:0|2:0,0:0:0:0:
344,296,70808,2,0,P|396:288|440:280,1,85,0|8,0:0|2:1,0:0:0:0:
196,352,71225,1,4,0:0:0:0:
196,352,71642,37,0,0:0:0:0:
100,316,71850,1,2,2:0:0:0:
128,216,72058,2,0,P|180:208|224:200,1,85,4|2,0:0|2:0,0:0:0:0:
316,180,72475,1,0,0:0:0:0:
376,264,72683,2,0,P|324:272|280:280,1,85,8|0,2:1|0:0,0:0:0:0:
232,120,73100,1,0,2:3:0:0:
316,180,73308,2,0,P|368:172|412:164,1,85,8|0,0:0|2:0,0:0:0:0:
340,72,73725,5,0,0:0:0:0:
340,72,73933,1,2,2:0:0:0:
376,264,74142,1,8,0:0:0:0:
376,264,74350,1,2,2:0:0:0:
260,224,74558,5,0,0:0:0:0:
456,180,74767,1,2,2:0:0:0:
248,228,74975,1,8,0:0:0:0:
468,176,75183,1,2,2:0:0:0:
340,72,75392,6,0,P|295:82|252:92,1,85,4|8,0:2|2:1,0:0:0:0:
80,272,75808,2,0,P|125:262|168:252,1,85,4|8,0:2|0:1,0:0:0:0:
356,208,76225,1,8,2:3:0:0:
368,236,76329,1,8,2:3:0:0:
372,264,76433,1,8,2:3:0:0:
368,292,76537,1,8,2:3:0:0:
352,316,76642,1,4,2:3:0:0:
328,332,76746,1,4,2:3:0:0:
300,340,76850,1,4,2:3:0:0:
272,340,76954,1,4,2:3:0:0:
244,336,77058,38,0,L|132:340,1,85,4|2,0:0|2:0,0:0:0:0:
80,272,77475,1,0,0:0:0:0:
160,340,77683,1,2,2:0:0:0:
208,240,77892,2,0,P|217:151|228:56,1,170
124,128,78517,5,2,2:0:0:0:
308,156,78725,1,0,0:0:0:0:
120,256,78933,1,2,2:0:0:0:
216,144,79142,1,0,0:0:0:0:
264,312,79350,1,2,2:0:0:0:
100,260,79558,1,0,0:0:0:0:
208,128,79767,5,4,0:3:0:0:
192,284,79975,1,0,0:0:0:0:
196,108,80183,1,4,0:3:0:0:
320,200,80392,2,0,P|361:188|401:177,1,85,4|2,0:3|2:0,0:0:0:0:
344,76,80808,38,0,L|416:56,1,63.7500024318696,8|2,0:0|2:0,0:0:0:0:
488,160,81225,1,2,2:0:0:0:
484,180,81329,1,2,2:0:0:0:
480,204,81433,1,2,2:0:0:0:
452,320,81642,1,8,0:0:0:0:
316,288,81850,2,0,L|380:272,1,63.7500024318696,2|0,2:0|0:0,0:0:0:0:
268,160,82267,2,0,L|248:224,1,63.7500024318696,2|8,2:0|0:0,0:0:0:0:
134,111,82683,2,0,L|196:96,1,63.7500024318696,2|2,2:0|2:0,0:0:0:0:
228,88,82996,1,2,2:0:0:0:
228,88,83100,1,2,2:0:0:0:
48,96,83308,2,0,P|48:128|60:160,1,63.7500024318696,8|2,0:0|2:0,0:0:0:0:
156,320,83725,5,0,0:0:0:0:
168,208,83933,1,8,2:2:0:0:
48,264,84142,1,8,0:0:0:0:
172,172,84350,1,2,2:0:0:0:
272,284,84558,2,0,P|360:292|436:236,1,170,0|8,0:0|0:0,0:0:0:0:
453,137,85183,6,0,L|412:144,1,42.5,2|0,2:0|2:0,0:0:0:0:
292,188,85392,1,0,1:0:0:0:
344,56,85600,1,8,2:0:0:0:
404,240,85808,1,8,0:0:0:0:
244,204,86017,1,2,2:0:0:0:
356,96,86225,2,0,L|397:84,2,42.5
152,128,86642,5,8,0:3:0:0:
344,56,86850,1,4,0:3:0:0:
148,84,87058,1,4,0:3:0:0:
260,136,87267,38,0,L|269:200,1,63.7500024318696,2|8,2:0|0:0,0:0:0:0:
288,300,87683,1,2,2:0:0:0:
184,252,87892,1,2,2:0:0:0:
184,252,87996,1,2,2:0:0:0:
184,252,88100,2,0,L|108:264,1,63.7500024318696,2|8,2:0|0:0,0:0:0:0:
288,300,88517,2,0,L|350:290,1,63.7500024318696,2|0,2:0|0:0,0:0:0:0:
260,136,88933,2,0,L|197:145,1,63.7500024318696,2|8,2:0|0:0,0:0:0:0:
376,204,89350,2,0,L|438:194,1,63.7500024318696,2|2,2:0|2:0,0:0:0:0:
472,188,89662,1,2,2:0:0:0:
472,188,89767,1,2,2:0:0:0:
408,96,89975,1,8,0:0:0:0:
444,300,90183,1,2,2:0:0:0:
296,248,90392,6,0,P|253:252|212:260,1,85,0|8,0:0|2:0,0:0:0:0:
72,276,90808,2,0,P|84:240|100:184,1,85,8|8,0:0|2:0,0:0:0:0:
256,136,91225,1,0,0:0:0:0:
256,136,91642,1,8,0:0:0:0:
256,136,92058,5,0,0:0:0:0:
296,248,92267,1,8,2:0:0:0:
372,156,92475,1,8,0:0:0:0:
244,128,92683,1,8,2:0:0:0:
180,228,92892,5,0,3:3:0:0:
140,236,92996,1,0,3:0:0:0:
100,244,93100,1,0,3:3:0:0:
60,252,93204,1,0,3:3:0:0:
68,212,93308,5,8,1:0:0:0:
80,172,93412,1,0,3:3:0:0:
92,132,93517,1,0,3:3:0:0:
104,92,93621,1,0,3:3:0:0:
116,52,93725,38,0,P|164:44|216:32,1,85,0|8,0:0|2:0,0:0:0:0:
372,156,94142,1,8,0:0:0:0:
297,75,94350,1,8,2:0:0:0:
220,156,94558,2,0,P|172:164|120:176,1,85,0|0,0:0|2:0,0:0:0:0:
196,256,94975,5,8,0:0:0:0:
228,120,95183,1,8,2:0:0:0:
56,156,95392,1,0,0:0:0:0:
188,288,95600,1,8,2:0:0:0:
228,120,95808,2,0,L|244:36,1,85,8|0,0:0|1:0,0:0:0:0:
388,48,96225,5,0,3:0:0:0:
384,92,96329,1,0,3:0:0:0:
392,132,96433,1,0,3:0:0:0:
408,172,96537,1,0,3:0:0:0:
432,208,96642,5,8,1:0:0:0:
396,188,96746,1,0,3:0:0:0:
356,176,96850,1,0,3:0:0:0:
316,184,96954,1,0,3:0:0:0:
280,208,97058,37,0,0:0:0:0:
356,276,97267,1,8,2:2:0:0:
296,104,97475,1,12,0:0:0:0:
168,152,97683,2,0,P|171:198|176:256,1,85
296,104,98100,2,0,P|293:58|288:0,1,85,0|8,0:0|0:0,0:0:0:0:
156,152,98517,5,8,0:2:0:0:
308,104,98725,1,0,0:0:0:0:
176,48,98933,1,8,2:2:0:0:
216,244,99142,1,12,0:0:0:0:
72,168,99350,2,0,L|156:152,1,85
188,52,99767,1,8,2:2:0:0:
224,236,99975,1,8,0:0:0:0:
204,56,100183,1,8,2:2:0:0:
312,112,100392,6,0,B|360:160|360:160|356:240,1,127.5,0|0,1:0|2:0,0:0:0:0:
424,263,100808,2,0,L|432:136,1,127.5,12|0,0:0|2:0,0:0:0:0:
498,98,101225,2,0,P|440:61|388:76,1,127.5,0|0,0:0|2:0,0:0:0:0:
312,112,101642,2,0,B|244:156|244:156|188:148,1,127.5,12|0,0:0|2:0,0:0:0:0:
160,168,102058,6,0,L|68:156,1,85,10|0,0:2|2:0,0:0:0:0:
352,216,102475,2,0,L|444:228,1,85,10|0,0:2|2:0,0:0:0:0:
272,328,102892,37,8,2:3:0:0:
244,320,102996,1,8,2:3:0:0:
216,312,103100,1,8,2:3:0:0:
188,304,103204,1,8,2:3:0:0:
160,296,103308,53,4,2:3:0:0:
124,264,103412,1,4,2:3:0:0:
108,220,103517,1,4,2:3:0:0:
120,176,103621,1,4,2:3:0:0:
160,144,103725,6,0,L|156:76,1,63.75,2|0,2:2|2:0,0:0:0:0:
40,324,104142,5,6,0:0:0:0:
188,220,104350,2,0,P|230:214|280:208,1,85,2|0,0:2|1:0,0:0:0:0:
428,292,104767,1,2,2:2:0:0:
400,140,104975,2,0,P|394:97|384:36,1,85,8|8,0:0|2:2,0:0:0:0:
296,296,105392,5,2,1:2:0:0:
188,220,105600,2,0,P|147:226|103:232,1,85,8|8,2:2|0:0,0:0:0:0:
236,104,106017,2,0,P|276:97|320:91,1,85,2|0,2:2|0:0,0:0:0:0:
300,200,106433,1,8,2:2:0:0:
128,96,106642,1,8,0:0:0:0:
284,20,106850,1,8,2:2:0:0:
236,104,107058,6,0,L|188:200,1,85,2|2,1:2|2:0,0:0:0:0:
128,276,107475,1,8,1:1:0:0:
300,200,107683,2,0,L|252:296,1,85,2|0,2:2|0:0,0:0:0:0:
128,96,108100,1,2,2:2:0:0:
236,104,108308,2,0,P|281:109|347:115,1,85,4|0,0:0|2:0,0:0:0:0:
480,264,108725,5,2,2:2:0:0:
369,297,108933,2,0,P|374:251|380:186,1,85,2|8,2:2|0:0,0:0:0:0:
236,104,109350,2,0,P|230:149|225:215,1,85,2|0,2:2|1:0,0:0:0:0:
208,288,109767,1,2,2:0:0:0:
340,184,109975,2,0,P|382:176|428:168,1,85,8|0,0:0|2:0,0:0:0:0:
224,196,110392,37,8,0:3:0:0:
296,344,110600,1,8,2:2:0:0:
340,184,110808,1,8,0:0:0:0:
208,288,111017,1,4,2:3:0:0:
376,276,111225,2,0,P|424:224|404:108,1,170,4|8,0:3|0:0,0:0:0:0:
268,59,111850,6,0,P|272:100|276:144,1,85,2|4,2:2|0:3,0:0:0:0:
180,112,112267,1,8,2:2:0:0:
288,236,112475,1,8,0:0:0:0:
141,325,112683,2,0,P|144:281|148:240,1,85,2|8,2:2|0:3,0:0:0:0:
44,200,113100,5,8,2:2:0:0:
252,160,113308,1,8,0:0:0:0:
148,240,113517,1,8,2:2:0:0:
348,276,113725,5,2,1:2:0:0:
244,256,113933,1,2,2:0:0:0:
364,272,114142,1,8,0:0:0:0:
228,260,114350,1,2,2:0:0:0:
380,268,114558,1,2,0:2:0:0:
212,264,114767,1,2,2:0:0:0:
336,192,114975,37,8,0:0:0:0:
212,144,115183,1,2,2:2:0:0:
232,344,115392,1,2,0:2:0:0:
212,144,115600,2,0,L|204:60,1,85,2|8,2:2|0:0,0:0:0:0:
131,286,116017,2,0,B|176:240|149:183|149:183|167:214|208:220,1,170,2|0,2:0|2:0,0:0:0:0:
212,144,116642,54,2,P|284:156|352:108,1,144.500002756119,2|0,0:0|2:0,0:0:0:0:
56,108,117058,37,4,0:0:0:0:
56,108,117475,1,8,0:0:0:0:
64,212,117683,2,0,P|106:204|152:196,1,85,2|0,2:0|0:0,0:0:0:0:
340,60,118100,2,0,P|298:68|252:76,1,85,2|8,2:0|0:0,0:0:0:0:
360,160,118517,2,0,P|402:152|448:144,1,85,4|0,2:2|0:0,0:0:0:0:
340,60,118933,5,2,2:0:0:0:
380,260,119142,1,8,0:0:0:0:
200,192,119350,2,0,P|242:184|288:176,1,85,4|0,2:2|0:0,0:0:0:0:
236,88,119767,5,2,2:2:0:0:
276,268,119975,1,8,0:0:0:0:
116,208,120183,1,2,2:2:0:0:
284,176,120392,37,4,0:0:0:0:
284,176,120600,1,2,0:3:0:0:
136,108,120808,1,8,0:0:0:0:
136,108,121017,1,2,0:3:0:0:
172,292,121225,5,0,0:0:0:0:
172,292,121433,1,2,0:3:0:0:
364,160,121642,1,8,0:0:0:0:
364,160,121850,1,2,0:3:0:0:
116,208,122058,5,0,0:0:0:0:
296,80,122267,1,2,1:3:0:0:
136,108,122475,1,8,0:0:0:0:
332,260,122683,1,2,0:3:0:0:
172,292,122892,1,0,0:0:0:0:
254,154,123100,5,2,2:1:0:0:
254,154,123308,2,2,P|276:119|297:78,1,85,0|2,0:0|0:0,0:0:0:0:
460,244,123725,1,4,0:0:0:0:
448,260,124142,37,0,0:0:0:0:
348,216,124350,1,0,0:0:0:0:
376,108,124558,2,2,P|418:147|440:168,1,85,4|2,2:0|2:0,2:0:0:0:
265,70,124975,2,0,P|259:115|253:154,1,85,8|2,0:0|2:0,0:0:0:0:
224,316,125392,1,0,0:0:0:0:
224,316,125808,5,0,0:0:0:0:
224,316,126017,2,0,P|140:308|28:300,1,170,0|2,0:0|2:0,0:0:0:0:
256,168,126642,1,8,0:0:0:0:
256,168,127058,5,0,0:0:0:0:
332,204,127267,1,8,2:0:0:0:
368,128,127475,1,8,0:0:0:0:
292,92,127683,1,0,0:0:0:0:
220,184,127892,5,8,2:2:0:0:
280,54,128100,1,8,2:0:0:0:
408,116,128308,1,8,0:0:0:0:
347,244,128517,1,8,2:0:0:0:
214,299,128725,38,0,P|124:300|14:307,1,170,0|8,0:0|0:0,0:0:0:0:
220,184,129350,2,0,P|310:183|420:176,1,170,0|2,0:0|2:0,0:0:0:0:
112,76,129975,1,8,0:0:0:0:
112,76,130392,6,0,P|116:124|120:176,1,85,0|2,0:0|2:0,0:0:0:0:
227,269,130808,2,0,P|223:221|219:169,1,85,0|0,0:0|0:2,0:0:0:0:
44,196,131225,1,4,2:2:0:0:
200,108,131433,1,2,2:0:0:0:
72,40,131642,1,8,0:0:0:0:
152,208,131850,1,2,2:0:0:0:
300,120,132058,6,0,P|392:132|436:204,1,170
268,360,132683,2,0,P|176:348|132:276,1,170,0|2,0:0|2:0,0:0:0:0:
392,224,133308,1,8,0:0:0:0:
392,224,133725,5,0,0:0:0:0:
380,124,133933,1,8,2:0:0:0:
388,236,134142,1,0,0:0:0:0:
388,112,134350,1,0,0:0:0:0:
292,176,134558,37,8,2:0:0:0:
480,164,134767,1,8,2:0:0:0:
296,60,134975,1,8,0:0:0:0:
288,296,135183,1,8,2:0:0:0:
112,172,135392,6,0,L|196:175,1,85,4|0,0:2|2:0,0:0:0:0:
400,212,135808,2,0,L|315:208,1,85,4|0,0:2|1:0,0:0:0:0:
64,280,136225,2,0,L|148:283,1,85,4|8,0:2|2:0,0:0:0:0:
448,104,136642,2,0,L|363:100,1,85,4|8,0:2|2:0,0:0:0:0:
348,320,137058,5,0,0:0:0:0:
320,216,137267,1,2,2:0:0:0:
356,320,137475,38,0,L|432:300,1,63.7500024318696,0|0,0:2|0:0,0:0:0:0:
328,216,137892,2,0,L|420:192,1,63.7500024318696,2|0,2:0|2:0,0:0:0:0:
288,100,138308,70,0,B|312:100|332:116|332:116|368:80|436:88,1,144.500002756119,8|0,2:1|2:0,0:0:0:0:
172,136,138725,21,2,1:2:0:0:
168,144,138933,1,2,2:2:0:0:
164,152,139142,1,2,1:2:0:0:
160,160,139350,1,2,1:2:0:0:
156,168,139558,1,2,2:0:0:0:
84,192,139767,54,0,L|15:214,1,42.5,4|4,0:3|0:3,0:0:0:0:
133,96,139975,2,0,L|118:50,1,42.5,4|4,0:3|0:3,0:0:0:0:
179,241,140183,2,0,L|192:281,1,42.5,4|4,0:3|0:3,0:0:0:0:
228,145,140392,6,0,L|304:120,1,63.75,2|0,2:2|2:0,0:0:0:0:
488,248,140808,5,6,0:0:0:0:
388,232,141017,2,0,P|346:224|288:216,1,85,2|0,2:0|0:0,0:0:0:0:
464,40,141433,1,2,2:0:0:0:
476,132,141642,2,0,P|481:175|488:228,1,85,8|8,0:0|2:0,0:0:0:0:
400,344,142058,5,2,2:0:0:0:
400,344,142162,1,2,2:0:0:0:
400,344,142267,2,0,P|395:301|388:248,1,85,8|8,0:0|0:0,0:0:0:0:
264,176,142683,2,0,P|220:184|152:196,1,85,2|0,2:0|0:0,0:0:0:0:
296,284,143100,1,8,2:0:0:0:
372,152,143308,2,0,L|356:56,1,85,8|8,0:0|2:0,0:0:0:0:
172,104,143725,5,2,1:2:0:0:
264,176,143933,1,2,2:0:0:0:
280,56,144142,1,8,0:0:0:0:
144,104,144350,2,0,P|147:148|152:208,1,85,2|2,2:0|1:2,0:0:0:0:
152,224,144662,1,2,2:0:0:0:
152,224,144767,1,2,2:0:0:0:
312,292,144975,2,0,P|357:284|416:276,1,85,8|0,0:0|2:0,0:0:0:0:
264,176,145392,5,2,1:2:0:0:
264,176,145496,1,2,2:0:0:0:
264,176,145600,2,0,P|219:184|160:192,1,85,2|8,2:0|1:0,0:0:0:0:
280,56,146017,2,0,P|359:86|392:180,1,170,2|2,2:0|2:0,0:0:0:0:
312,292,146642,2,0,L|276:208,1,85,8|0,0:0|2:0,0:0:0:0:
176,200,147058,6,0,L|120:220,1,42.5,4|0,2:0|2:0,0:0:0:0:
32,232,147267,2,0,L|52:168,1,42.5,4|0,2:0|2:0,0:0:0:0:
72,88,147475,21,4,0:0:0:0:
128,304,147683,1,0,0:0:0:0:
252,252,147892,54,0,L|320:236,1,42.5,4|0,2:0|2:0,0:0:0:0:
404,216,148100,2,0,L|388:148,1,42.5,4|0,2:0|2:0,0:0:0:0:
284,120,148308,2,0,L|300:188,1,42.5,8|0,1:0|2:0,0:0:0:0:
376,88,148517,2,0,L|444:72,1,42.5,4|0,2:0|2:0,0:0:0:0:
300,28,148725,37,2,1:2:0:0:
300,28,148933,2,0,P|256:36|216:56,1,85,8|8,2:0|0:0,0:0:0:0:
128,172,149350,2,0,P|118:126|108:72,1,85,2|0,2:0|0:0,0:0:0:0:
24,148,149767,1,8,2:0:0:0:
156,272,149975,1,8,0:0:0:0:
20,280,150183,1,8,2:0:0:0:
136,160,150392,5,2,2:0:0:0:
148,148,150496,1,2,2:0:0:0:
160,136,150600,1,2,2:0:0:0:
172,124,150704,1,2,2:0:0:0:
184,112,150808,2,0,L|200:200,1,85,8|2,0:0|2:0,0:0:0:0:
312,344,151225,5,2,1:2:0:0:
336,324,151329,1,2,1:2:0:0:
352,300,151433,1,2,1:2:0:0:
360,272,151537,1,2,1:2:0:0:
360,240,151642,2,0,L|344:156,1,85,8|2,0:0|2:0,0:0:0:0:
256,48,152058,37,2,1:2:0:0:
256,48,152162,1,2,2:0:0:0:
256,48,152267,2,0,L|256:148,1,85,2|8,2:0|0:0,0:0:0:0:
168,220,152683,2,0,L|83:216,1,85,2|0,2:0|0:0,0:0:0:0:
60,128,153100,1,2,2:0:0:0:
114,306,153308,54,2,P|164:316|248:280,1,144.500002756119,2|0,0:0|2:0,0:0:0:0:
380,104,153725,38,0,P|424:168|416:284,1,170,4|0,0:0|0:0,0:0:0:0:
320,304,154350,1,2,2:0:0:0:
248,217,154558,2,0,L|332:200,1,85,0|0,0:0|1:0,0:0:0:0:
463,86,154975,2,0,L|380:104,1,85,4|0,0:0|2:0,0:0:0:0:
256,48,155392,1,0,0:0:0:0:
132,104,155600,2,0,L|48:86,2,85,2|0|0,2:0|0:0|0:0,0:0:0:0:
316,152,156225,6,0,P|360:145|404:140,1,85,2|0,0:0|2:0,0:0:0:0:
196,232,156642,2,0,P|153:238|108:244,1,85,2|0,0:0|2:0,0:0:0:0:
132,104,157058,5,4,0:0:0:0:
132,104,157267,1,2,0:3:0:0:
256,192,157475,1,0,0:0:0:0:
256,192,157683,1,2,0:3:0:0:
352,104,157892,1,0,0:0:0:0:
164,192,158100,1,2,0:3:0:0:
352,280,158308,1,0,0:0:0:0:
352,104,158517,1,2,0:3:0:0:
164,192,158725,54,0,L|79:192,1,85,0|2,0:0|0:3,0:0:0:0:
348,192,159142,2,0,L|433:192,1,85,0|2,0:0|0:3,0:0:0:0:
256,60,159558,1,0,0:0:0:0:
256,192,159767,69,2,2:1:0:0:
256,192,159975,2,2,L|256:280,1,85,0|2,0:0|2:1,0:0:0:0:
104,316,160392,5,2,2:0:0:0:
100,296,160496,1,2,2:0:0:0:
96,276,160600,1,2,2:0:0:0:
92,256,160704,1,2,2:0:0:0:
88,236,160808,1,2,2:0:0:0:
168,120,161017,1,2,2:0:0:0:
168,120,161433,5,2,2:2:0:0:
256,192,161642,2,0,P|299:186|344:180,1,85,8|8,0:0|2:0,0:0:0:0:
480,104,162058,22,0,L|472:52,1,42.5,12|4,2:3|0:3,0:0:0:0:
408,144,162267,2,0,L|414:186,1,42.5,12|4,2:3|0:3,0:0:0:0:
424,264,162475,1,2,3:0:0:0:
312,324,162683,2,0,L|272:312,2,42.5,4|4|4,0:3|0:3|0:3,0:0:0:0:
424,264,163100,21,8,2:2:0:0:
196,292,163308,1,8,0:0:0:0:
424,264,163517,1,8,2:2:0:0:
296,204,163725,5,2,2:2:0:0:
293,183,163829,1,2,2:0:0:0:
290,163,163933,1,2,2:0:0:0:
287,143,164037,1,2,2:0:0:0:
284,123,164142,1,2,2:0:0:0:
184,184,164350,2,0,P|146:192|100:200,1,85,2|0,2:2|0:0,0:0:0:0:
208,52,164767,5,2,2:2:0:0:
320,68,164975,2,0,P|358:76|404:84,1,85,8|0,0:0|2:0,0:0:0:0:
460,184,165392,2,0,L|468:236,3,42.5,12|4|4|4,0:3|0:3|0:3|0:3,0:0:0:0:
476,268,165808,1,2,0:0:0:0:
340,180,166017,1,12,3:3:0:0:
216,284,166225,5,8,2:3:0:0:
184,300,166329,1,8,2:3:0:0:
152,308,166433,1,8,2:3:0:0:
120,300,166537,1,8,2:3:0:0:
92,280,166642,1,2,2:3:0:0:
80,248,166746,1,4,2:3:0:0:
80,216,166850,1,4,2:3:0:0:
92,184,166954,1,4,2:3:0:0:
108,152,167058,22,0,L|136:92,1,63.75,2|0,2:0|2:0,0:0:0:0:
248,96,167475,70,0,L|304:88,1,42.5,6|0,1:0|2:0,0:0:0:0:
160,224,167683,1,2,2:0:0:0:
308,288,167892,2,0,L|364:280,1,42.5,4|0,2:2|2:0,0:0:0:0:
288,204,168100,2,0,L|245:210,1,42.5,4|0,2:2|2:0,0:0:0:0:
184,144,168308,1,8,0:0:0:0:
136,304,168517,1,8,2:0:0:0:
288,204,168725,21,2,0:2:0:0:
100,160,168933,1,8,0:0:0:0:
248,96,169142,1,8,0:0:0:0:
153,64,169350,6,0,P|168:100|184:144,1,85,2|0,2:0|0:0,0:0:0:0:
288,204,169767,1,8,2:0:0:0:
288,204,169975,2,0,L|384:184,1,85,8|8,0:0|0:0,0:0:0:0:
372,68,170392,5,0,0:2:0:0:
348,272,170600,1,2,2:0:0:0:
248,96,170808,1,8,0:0:0:0:
372,184,171017,1,2,2:0:0:0:
216,172,171225,22,0,L|176:188,1,42.5,4|0,0:0|0:0,0:0:0:0:
84,208,171433,2,0,L|104:256,1,42.5,4|0,0:0|0:0,0:0:0:0:
132,328,171642,21,8,0:0:0:0:
120,128,171850,1,2,2:0:0:0:
248,96,172058,6,0,L|352:76,1,85,2|2,0:2|2:0,0:0:0:0:
372,184,172475,2,0,L|476:164,1,85,8|2,0:0|2:0,0:0:0:0:
408,312,172892,5,8,0:3:0:0:
372,324,172996,1,8,0:3:0:0:
332,324,173100,1,8,0:3:0:0:
296,308,173204,1,8,0:3:0:0:
264,288,173308,1,4,0:3:0:0:
232,268,173412,1,4,0:3:0:0:
192,260,173517,1,4,0:3:0:0:
156,268,173621,1,4,0:3:0:0:
120,284,173725,38,0,L|56:276,1,63.75,2|0,0:0|2:0,0:0:0:0:
120,168,174142,70,0,L|180:176,1,42.5,6|0,0:1|0:0,0:0:0:0:
256,184,174350,1,2,0:0:0:0:
212,52,174558,2,0,L|166:65,1,42.5,4|0,0:0|0:0,0:0:0:0:
300,52,174767,2,0,L|345:65,1,42.5,4|0,0:0|0:0,0:0:0:0:
392,168,174975,2,0,L|332:176,1,42.5,8|0,0:0|0:0,0:0:0:0:
256,268,175183,1,4,0:0:0:0:
130,253,175392,21,2,1:2:0:0:
130,253,175600,2,0,L|118:153,1,85,8|8,0:0|0:0,0:0:0:0:
256,184,176017,2,0,P|297:181|344:176,1,85,2|0,2:0|0:0,0:0:0:0:
424,76,176433,1,8,2:0:0:0:
424,76,176642,2,0,P|427:117|432:164,1,85,8|8,0:0|2:0,0:0:0:0:
432,312,177058,5,0,0:0:0:0:
316,304,177267,1,2,2:0:0:0:
436,216,177475,1,8,0:0:0:0:
284,296,177683,1,2,2:0:0:0:
416,336,177892,5,0,0:0:0:0:
252,288,178100,1,2,2:2:0:0:
424,192,178308,1,8,0:0:0:0:
220,280,178517,1,2,2:2:0:0:
304,112,178725,1,0,0:0:0:0:
304,112,178933,2,0,P|312:156|324:220,2,85,2|8|2,2:0|0:0|2:0,0:0:0:0:
120,132,179558,5,4,2:3:0:0:
120,132,179662,5,4,2:3:0:0:
120,132,179767,5,4,2:3:0:0:
120,132,179871,5,4,2:3:0:0:
120,132,179975,5,12,2:3:0:0:
120,132,180079,5,12,2:3:0:0:
120,132,180183,5,12,2:3:0:0:
120,132,180287,5,12,2:3:0:0:
120,132,180392,6,0,P|152:172|160:232,1,95.6250036478044,2|0,0:3|2:0,0:0:0:0:
168,256,180808,6,0,L|272:240,1,85,4|2,0:0|2:2,0:0:0:0:
360,216,181225,1,2,1:2:0:0:
360,216,181329,1,2,2:2:0:0:
360,216,181433,1,2,2:2:0:0:
240,144,181642,1,8,0:0:0:0:
288,328,181850,1,2,2:2:0:0:
392,208,182058,5,2,0:2:0:0:
264,232,182267,1,8,2:2:0:0:
328,84,182475,1,8,0:0:0:0:
200,60,182683,2,0,P|156:128|184:216,1,170,2|2,2:0|2:2,0:0:0:0:
288,328,183308,2,0,L|268:244,1,85,2|8,0:2|2:0,0:0:0:0:
392,208,183725,38,0,L|448:192,1,42.5,2|0,0:2|2:0,0:0:0:0:
316,168,183933,2,0,L|275:179,1,42.5,2|0,0:2|2:0,0:0:0:0:
328,84,184142,21,8,0:0:0:0:
380,292,184350,1,2,0:2:0:0:
472,180,184558,5,2,0:2:0:0:
472,180,184662,1,2,0:2:0:0:
472,180,184767,1,2,0:2:0:0:
316,168,184975,1,8,0:0:0:0:
392,36,185183,1,2,0:2:0:0:
392,208,185392,6,0,L|380:300,1,85,2|2,0:2|1:2,0:0:0:0:
356,312,185704,1,0,1:0:0:0:
328,332,185808,2,0,P|290:328|244:328,1,85,8|2,0:0|2:2,0:0:0:0:
92,312,186225,53,12,2:3:0:0:
64,280,186329,1,4,2:3:0:0:
52,240,186433,1,4,2:3:0:0:
56,196,186537,1,4,2:3:0:0:
84,164,186642,1,12,2:3:0:0:
124,152,186746,1,12,2:3:0:0:
168,152,186850,1,12,2:3:0:0:
208,168,186954,1,12,2:3:0:0:
240,196,187058,70,2,B|276:222|276:267|276:267|328:236|328:236|364:252|408:236,1,212.5,0|0,2:0|2:0,0:0:0:0:
