osu file format v9

[General]
AudioFilename: Last Song.mp3
AudioLeadIn: 0
PreviewTime: 41910
Countdown: 0
SampleSet: Soft
StackLeniency: 0.7
Mode: 0
LetterboxInBreaks: 1

[Editor]
DistanceSpacing: 1
BeatDivisor: 4
GridSize: 4

[Metadata]
Title:Last Song
Artist:Girls Dead Monster
Creator:ss93ss93
Version:Normal
Source:Angel Beats!
Tags:iwasawa marina

[Difficulty]
HPDrainRate:4
CircleSize:3
OverallDifficulty:4
ApproachRate:5
SliderMultiplier:1.4
SliderTickRate:1

[Events]
//Background and Video events
0,0,"Last song.jpg"
//Break Periods
2,80014,90620
2,150856,161457
2,173259,177841
//Storyboard Layer 0 (Background)
//Storyboard Layer 1 (Fail)
//Storyboard Layer 2 (Pass)
//Storyboard Layer 3 (Foreground)
//Storyboard Sound Samples
//Background Colour Transformations
3,100,163,162,255

[TimingPoints]
2114,468.75,4,2,1,30,1,0
21002,461.538461538462,4,2,1,50,1,0
57463,461.112818936366,3,2,1,60,1,1
79814,461.538461538462,4,2,1,50,1,0
91820,461.538461538462,4,2,1,50,1,0
128273,461.538461538462,3,2,1,60,1,1
150657,461.538461538462,4,2,1,50,1,0
169367,461.538461538462,4,2,1,50,1,0
179041,461.538461538462,4,2,1,50,1,0
201194,-100,4,2,1,40,0,0
231887,-100,4,2,1,5,0,0

[Colours]
Combo1 : 255,255,255
Combo2 : 128,255,255
Combo3 : 255,0,0
Combo4 : 0,0,255
Combo5 : 238,244,0

[HitObjects]
136,92,2114,2,0,B|168:52|240:56|268:100,1,140,8|0
360,188,3051,1,0
172,284,3754,2,0,B|256:284|256:284,2,70
112,156,4692,2,0,B|32:156|32:156,2,70,0|8|0
252,160,5629,1,0
252,160,5864,2,0,B|204:84|264:28|264:28,1,140,8|0
356,132,6801,2,0,B|348:216|432:236,2,140,0|0|0
240,56,8207,2,0,B|200:100|200:144|240:204,2,140,0|8|8
380,60,9614,5,8
316,184,10082,1,2
456,184,10551,2,0,B|480:272|392:312|392:312,1,140,0|2
264,296,11489,2,0,B|168:296,1,70
100,192,12192,2,0,B|36:184|44:136|76:72|56:32|-4:44,1,210,0|2
144,44,13364,2,0,B|232:104|252:200|180:304|180:304,1,280,8|0
324,268,14770,1,2
448,204,15239,2,0,B|444:112|324:124,1,140,0|2
256,192,15942,12,0,18285
112,76,21002,6,0,B|188:88|232:164,1,140,4|8
360,192,21925,2,0,B|400:216|448:196,2,70,0|0|8
300,320,22848,1,0
160,312,23309,1,8
84,196,23771,2,0,B|24:128|24:128,2,70,0|0|8
256,192,24694,12,8,27925
256,196,28386,5,4
256,196,28848,1,8
256,196,29309,2,0,B|200:240|132:240|112:232|112:236,1,140,0|8
24,140,30232,2,0,B|20:60|108:40,2,140,0|8|0
160,176,31617,2,0,B|120:216|124:272|184:304|184:304,1,140,8|4
256,192,32309,12,8,34848
136,80,35771,5,0
276,80,36232,1,8
376,176,36694,1,0
376,176,36925,1,0
376,176,37155,1,8
248,232,37617,2,0,B|164:252|112:176,2,140,0|8|0
388,236,39002,1,8
384,96,39463,5,0
252,56,39925,2,0,B|176:32|116:96,1,140,8|0
228,180,40848,2,0,B|172:236|92:204|92:204|92:204,2,140,8|0|8
368,192,42232,1,0
368,192,42463,1,0
180,100,43155,5,4
180,240,43617,1,0
180,240,43848,1,8
316,264,44309,2,0,B|332:312|400:300,1,70,0|8
388,236,44771,2,0,B|372:188|332:168|268:184,1,140
340,60,45694,1,8
200,60,46155,6,0,B|108:64|96:168,1,140,0|8
236,172,47078,1,0
376,192,47540,2,8,B|380:280|284:292,1,140,8|8
156,276,48463,2,0,B|192:248|180:208|112:192|120:148|176:148|176:148,1,140,8|0
164,84,49155,1,2
300,116,49617,1,12
304,256,50078,5,8
304,256,50309,1,8
368,228,50540,1,4
368,228,50771,1,8
484,148,51232,2,0,B|504:56|428:28,1,140,8|8
296,56,52155,2,0,B|224:60,6,70,8|8|8|8|8|8|8
292,196,54002,1,8
256,192,54463,12,0,56771
116,96,57463,5,4
244,152,57924,1,8
136,240,58385,2,0,B|192:300|272:272,1,140,0|2
316,144,59307,2,0,B|308:100|264:88,1,70,0|8
136,68,59999,5,0
68,88,60229,1,0
56,156,60460,1,8
192,184,60921,2,0,B|160:212|208:264,1,70,8|8
312,324,61613,1,0
288,260,61843,1,8
356,252,62074,1,0
332,188,62304,1,8
456,120,62765,5,8
456,120,62996,1,4
456,120,63226,1,8
412,176,63457,2,0,B|460:184|480:228,2,70,8|8|8
256,192,64149,12,8,65301
256,192,65763,12,8,67146
116,72,68529,6,8,B|196:44|272:96,1,140,4|8
240,224,69451,2,0,B|172:188|84:220,1,140,0|8
176,332,70374,1,8
316,336,70835,1,8
400,224,71296,5,4
400,224,71526,1,8
400,224,71757,1,0
400,224,71988,2,0,B|400:156,1,70,8|0
272,112,72679,1,2
272,252,73140,1,8
132,252,73601,2,0,B|116:240|116:240|152:216|152:216|152:216|152:216|152:216|152:216|120:196|120:196|152:160|152:160,1,140,0|4
28,92,74524,5,8
168,80,74985,2,8,B|240:140|320:76,1,140,0|8
412,172,75907,1,8
272,176,76368,1,0
276,248,76599,1,8
256,192,76829,12,8,78674
188,168,79365,6,8,B|224:124|252:120|252:120,1,70
300,92,79814,1,4
124,96,91820,5,4
264,80,92281,1,2
392,136,92743,1,2
432,268,93204,1,2
300,220,93666,2,0,B|236:176|156:208,2,140,8|2|2
432,268,95050,1,8
256,192,95512,12,0,98743
96,108,99204,5,4
96,108,99666,1,8
96,108,100127,1,0
232,132,100589,1,0
232,132,100820,2,2,B|276:152|280:204|264:244|228:260,1,140,8|8
112,300,101743,1,8
12,204,102204,2,8,B|-44:132|40:88,1,140
256,192,102896,12,4,104512
304,128,105896,6,0,B|316:84|272:48,2,70,0|8|0
232,132,106589,2,0,B|88:132,1,140,8|0
100,200,107281,1,0
164,228,107512,2,2,B|208:248|252:200,2,70,2|2|2
184,88,108435,5,8
184,88,108666,1,0
184,88,108896,1,8
184,88,109127,1,8
244,124,109358,2,0,B|296:140|320:188|284:256,1,140
432,248,110281,5,8
484,120,110743,1,2
368,44,111204,1,8
240,104,111666,2,8,B|240:192,1,70
276,232,112127,5,0
344,244,112358,1,8
372,180,112589,1,0
348,116,112819,1,8
284,84,113050,2,0,B|236:20|128:40|128:40,1,140
64,140,113973,5,4
140,256,114435,1,8
140,256,114666,1,0
140,256,114896,2,0,B|128:296|172:324|172:324,1,70
224,284,115358,2,0,B|268:324|340:304|352:232,1,140,8|0
356,124,116281,1,8
292,148,116512,1,0
224,160,116743,2,0,B|180:136|152:184,2,70,0|0|8
112,76,117666,5,0
112,76,118127,2,0,B|144:44|208:64,1,70,8|0
248,44,118589,2,0,B|316:88|316:88,2,70,2|0|8
288,180,119512,1,0
300,248,119743,1,8
232,240,119973,1,0
232,240,120204,2,0,B|208:164|208:164,1,70,8|12
72,176,120896,1,0
4,52,121358,6,0,B|92:36|92:36,1,70,0|8
136,72,121820,2,8,B|208:64,1,70,0|8
272,48,122281,2,0,B|288:152|188:144|188:144,1,140,0|0
64,108,123204,2,0,B|84:68|140:72,2,70,0|8|0
64,180,123896,1,8
160,284,124358,2,8,B|228:216|188:140,1,140,8|8
256,192,125281,12,0,126896
128,68,128273,6,0,B|72:120|96:228,2,140,4|8|8
268,68,129657,1,0
268,68,130119,2,0,B|308:84|316:124,1,70,0|8
408,220,130811,1,8
408,220,131042,2,0,B|408:264|412:304,1,70,0|8
272,284,131734,2,0,B|236:284|200:284,1,70,0|8
84,208,132426,2,8,B|60:180|96:136,3,70
220,96,133580,5,0
176,152,133811,1,4
232,196,134042,1,8
300,172,134273,2,0,B|332:144|312:92,3,70,0|8|0|8
292,44,135196,2,0,B|344:28|400:64|380:136,1,140
380,256,136119,1,8
256,192,136580,12,8,137965
120,56,139119,5,0
124,124,139349,2,0,B|112:172|172:196,1,70,4|8
272,120,140042,2,0,B|316:140|308:188,1,70,0|8
400,280,140734,1,0
400,280,140965,2,0,B|400:328|332:344,1,70,8|0
292,328,141426,1,8
228,300,141657,1,0
92,260,142119,5,0
36,216,142349,2,0,B|-16:192|20:136,1,70,8|0
80,160,142811,2,0,B|120:168|112:216,1,70,8|0
184,224,143273,1,8
252,228,143503,1,0
252,228,143734,1,0
252,228,143965,2,0,B|304:252|340:208,1,70,0|8
420,44,144888,5,4
360,80,145119,1,0
292,104,145349,2,0,B|212:136,1,70,0|8
88,120,146042,2,0,B|40:136|68:192,4,70,8|0|8|0|8
136,172,147196,1,0
196,204,147426,1,8
256,192,147657,12,8,149503
256,192,149965,5,8
256,192,150196,1,8
256,192,150426,2,0,B|256:272,1,70,0|4
168,88,162657,6,0,B|248:92|312:132,1,140,4|8
312,196,163349,2,0,B|268:252,1,70,0|8
212,208,163810,2,0,B|160:212|184:264|184:264,3,70,0|8|0|8
232,304,164733,2,0,B|280:324|320:296,1,70,0|8
348,256,165195,5,0
332,188,165426,1,0
280,144,165657,1,0
212,128,165887,1,8
144,136,166118,2,0,B|80:160|80:160,1,70,0|8
96,64,169367,6,0,B|132:136|224:96,2,140,4|8|0
68,200,170751,2,0,B|68:284,1,70,8|0
140,276,171213,2,0,B|212:312|300:280,1,140,0|8
276,216,171905,1,0
276,144,172136,6,0,B|276:68,1,70
348,76,172597,1,8
412,108,172828,1,0
376,168,173059,1,2
132,56,179041,6,0,B|64:104|92:204,2,140,4|8|0
232,156,180425,1,8
232,156,180887,2,0,B|272:184|256:236,1,70
332,220,181348,2,0,B|320:276|284:300|216:284,1,140,8|0
160,284,182041,1,0
100,248,182271,1,8
192,140,182733,6,0,B|244:84|320:96,1,140,0|8
420,192,183656,2,0,B|436:264|364:320,1,140,0|8
308,284,184348,2,0,B|240:232|240:232,1,70
188,216,184810,1,0
172,284,185041,1,8
104,300,185271,1,0
52,252,185502,2,8,B|36:160|140:132,1,140
220,48,186425,6,0,B|272:32|332:40|364:96,1,140,4|8
296,204,187348,2,0,B|356:204|396:248|392:316,1,140,0|8
252,308,188271,2,0,B|208:340|152:340|96:296,1,140,0|8
64,272,188964,1,0
32,212,189194,2,0,B|32:72,1,140,0|8
140,164,190117,6,0,B|120:100|152:56|200:32,2,140,0|8|0
280,144,191502,1,8
412,188,191964,2,8,B|392:276|304:284|304:284,1,140,8|8
184,236,192887,1,8
136,184,193117,1,0
100,124,193348,2,0,B|60:104|24:132,2,70,0|0|4
256,192,195656,5,8
404,232,196810,1,0
344,268,197041,1,0
276,260,197271,1,0
256,192,197502,2,0,B|188:144|92:180,1,140,8|0
92,108,198194,1,0
212,36,198656,6,0,B|280:76,2,70,0|0|2
332,108,199579,1,2
204,164,200041,1,2
248,296,200502,1,0
256,192,200964,12,0,202117
112,104,203041,6,0,B|192:76|272:120,1,140,2|0
352,136,203964,2,0,B|352:216,1,70,8|0
216,236,204656,1,0
216,236,204887,2,0,B|148:236|56:236,1,140,8|2
80,96,205810,1,0
220,96,206271,1,2
320,196,206733,2,0,B|296:248|236:256|188:208,2,140,0|2|0
460,204,208117,1,0
396,80,208579,5,8
256,76,209041,1,0
196,116,209271,1,2
160,176,209502,2,0,B|224:228|292:168,1,140
396,80,210425,1,8
460,204,210887,1,0
364,308,211348,1,0
364,308,211810,1,0
292,188,212271,6,0,B|316:100|228:60|228:60|228:60,1,140,8|0
108,104,213194,1,0
104,244,213656,1,0
216,324,214117,2,0,B|268:300|280:240|232:184,1,140,8|0
108,184,215041,2,0,B|24:240|104:328,1,140,0|0
168,192,215964,5,8
448,192,216887,1,8
188,300,217810,1,8
384,100,218733,1,8
264,352,219656,1,8
276,72,220579,1,8
352,340,221502,1,8
312,204,221964,2,0,B|240:188|240:188,1,70,2|0
200,136,222425,1,8
64,152,222887,1,8
136,272,223348,5,8
140,132,223810,1,2
276,100,224271,1,8
392,176,224733,1,2
276,252,225194,6,0,B|272:344|164:344,1,140,8|2
148,208,226117,1,8
148,208,226579,1,2
44,116,227041,2,0,B|72:32|184:64,1,140,8|2
296,68,227964,2,0,B|400:56|416:160,1,140,8|2
268,144,228887,2,0,B|192:184|188:272|268:344|348:304,1,280,8|8
256,192,230041,12,0,231887
