osu file format v7

[General]
AudioFilename: Ichiban no Takaramono.mp3
AudioLeadIn: 0
PreviewTime: 143662
Countdown: 0
SampleSet: Soft
StackLeniency: 0.7
Mode: 0
LetterboxInBreaks: 1

[Editor]
DistanceSpacing: 1
BeatDivisor: 4
GridSize: 8

[Metadata]
Title:Ichiban no Takaramono (Yui Ver)
Artist:Girls Dead Monster
Creator:jericho2442
Version:Normal
Source:Angel Beats!
Tags:LiSA

[Difficulty]
HPDrainRate:5
CircleSize:4
OverallDifficulty:5
SliderMultiplier:1.2
SliderTickRate:1

[Events]
//Background and Video events
0,0,"angel-beats.jpg"
//Break Periods
2,52616,54461
2,87120,103724
2,140626,142450
2,174837,190440
2,207090,209225
//Storyboard Layer 0 (Background)
//Storyboard Layer 1 (Fail)
//Storyboard Layer 2 (Pass)
//Storyboard Layer 3 (Foreground)
//Storyboard Sound Samples
//Background Colour Transformations
3,100,0,0,0

[TimingPoints]
420,500,4,2,1,50,1,0
16420,504.201680672269,4,2,1,50,1,0
24455,500,4,2,1,50,1,0
44430,499.168053244592,4,2,1,50,1,0
49872,-100,4,2,1,30,0,0
50372,-100,4,2,1,10,0,0
50872,-100,4,2,1,0,0,0
52622,-100,4,2,1,50,0,0
56420,500,4,2,1,50,1,0
104420,504.201680672269,4,2,1,50,1,0
112465,500,4,2,1,50,1,0
136460,495.867768595041,4,2,1,50,1,0
137372,-100,4,2,1,30,0,0
137872,-100,4,2,1,20,0,0
138372,-100,4,2,1,10,0,0
138872,-100,4,2,1,0,0,0
140747,-100,4,2,1,50,0,0
144430,500,4,2,1,50,1,0
150430,491.803278688525,4,2,1,50,1,0
152390,500,4,2,1,50,1,0
160390,504.201680672269,4,2,1,50,1,0
168440,495.867768595041,4,2,1,50,1,0
174390,500,4,2,1,50,1,0
210425,500,4,2,1,50,1,0
218440,491.803278688525,4,2,1,50,1,0
222380,508.474576271186,4,2,1,50,1,0
226425,500,4,2,1,50,1,0
242425,499.168053244592,4,2,1,50,1,0
270400,508.474576271186,4,2,1,50,1,0
274440,495.867768595041,4,2,1,50,1,0

[Colours]
Combo1 : 128,64,64
Combo2 : 255,0,255

[HitObjects]
32,192,16924,2,0,B|32:144|72:136|72:136,1,60
120,136,17428,2,0,B|184:96|224:200|320:136|320:136,1,180,2|0
296,264,18688,1,0
352,248,18941,1,2
384,200,19193,1,0
112,360,20957,5,0
56,336,21209,1,0
40,280,21462,1,2
160,256,21966,2,0,B|96:304|96:304,1,60
208,216,22722,2,0,B|256:176|256:176,1,60,0|2
312,176,23226,1,0
256,192,24955,6,0,B|176:192|176:120|176:120,1,120
296,120,25955,1,0
352,120,26205,1,2
472,120,26705,2,0,B|472:192|400:224|400:224,1,120
32,192,28205,5,0
96,192,28455,2,0,B|160:240|208:136|280:208|280:208,1,180,2|0
256,352,31705,6,0,B|256:272|256:272,1,60
256,232,32205,1,0
256,168,32455,2,0,B|200:168|192:208|192:232|200:256|200:256,1,120,2|0
136,256,33205,2,0,B|136:216|128:160|160:144|168:128|200:104|240:96|272:104|288:112|288:112,1,240,2|0
392,112,34705,1,0
464,208,35205,1,2
392,304,35705,1,0
320,208,36205,6,0,B|280:240|256:208|240:168|184:216|184:216,1,120,2|0
88,208,37205,2,0,B|128:216|152:208|168:184|224:208|224:208,1,120,2|0
208,320,38205,2,0,B|280:368|304:256|400:336|400:336,1,180
480,176,39705,5,0
480,176,39955,1,0
480,56,40455,2,0,B|336:56|336:56,1,120,2|0
296,56,41205,1,0
224,152,41705,1,0
208,272,42205,1,0
120,352,42705,1,0
64,352,42955,1,2
32,176,43705,6,0,B|32:112|32:112,1,60
120,32,44430,2,0,B|192:32|240:112|152:176|152:176,1,180,2|0
168,280,45677,1,0
272,224,46177,2,0,B|320:184|360:280|448:208|448:208,1,180,0|2
448,32,47674,5,0
448,32,47924,1,2
256,192,48423,12,0,52416
56,192,55661,6,0,B|120:144|176:200|176:200,1,120,2|0
200,144,56420,2,0,B|136:96|64:96|16:152|16:152,1,180,2|0
32,256,57670,1,0
112,344,58170,1,2
232,352,58670,1,0
344,144,59670,6,0,B|392:208|336:264|336:264,1,120,2|0
392,288,60420,2,0,B|440:224|440:152|384:104|384:104,1,180,2|0
280,120,61670,1,0
160,96,62170,1,2
56,32,62670,1,0
64,272,63670,6,0,B|200:272|200:272,1,120,2|0
184,208,64420,2,0,B|232:208|256:240|264:272|256:312|224:344|184:336|184:336,1,180,2|0
88,328,65670,2,0,B|96:272|56:280|16:272|24:216|24:216,1,120,0|2
24,112,66670,1,0
256,192,67420,6,0,B|256:128|256:128,1,60
256,256,68170,2,0,B|304:296|336:208|392:272|392:272,1,120,2|0
256,256,69170,2,0,B|208:296|176:208|120:272|120:272,1,120,2|0
144,136,70170,2,0,B|192:96|224:184|280:120|280:120,1,120,2|0
259,134,70920,1,0
256,312,71670,6,0,B|168:328|168:240|168:240,1,120,2|0
232,248,72420,2,0,B|224:192|184:176|160:192|136:176|120:200|104:240|104:240,1,180,2|0
32,136,73670,1,0
120,56,74170,1,2
240,40,74670,1,0
480,40,75670,6,0,B|344:40|344:40,1,120,2|0
392,96,76420,2,0,B|312:88|264:128|304:224|304:224,1,180,2|0
256,320,77670,2,0,B|280:272|240:256|216:248|224:200|224:200,1,120
104,216,78670,1,2
104,216,78920,1,0
288,216,79670,5,0
360,120,80170,1,2
360,120,80420,1,0
432,216,80920,1,2
432,216,81170,1,0
360,312,81670,2,0,B|320:336|304:312|288:272|224:320|224:320,1,120,0|2
128,304,82670,2,0,B|128:240|128:240,1,60
16,192,83420,5,0
16,136,83670,1,0
136,136,84170,2,0,B|168:176|88:216|152:272|152:272,1,120,2|0
256,256,85170,2,0,B|224:216|304:176|240:120|240:120,1,120,2|0
376,144,86170,2,0,B|400:208|328:224|392:280|392:280,1,120,2|0
375,260,86920,1,0
136,192,104924,5,0
80,168,105176,1,0
128,136,105428,2,0,B|136:80|176:96|208:128|224:56|224:56,1,120,2|0
280,72,106184,2,0,B|273:54|289:126|321:94|361:78|369:134,1,120,2|0
368,192,106941,1,0
424,168,107193,1,0
40,344,108957,5,0
88,304,109209,1,0
136,272,109462,2,0,B|208:272|160:184|248:200|248:200,1,120,2|0
288,200,110218,2,0,B|264:199|352:183|304:271|376:271,1,120,2|0
416,304,110974,1,0
464,344,111226,1,0
72,192,112965,5,0
136,192,113215,1,0
200,192,113465,1,2
320,192,113965,1,0
376,160,114215,1,2
376,40,114715,1,0
432,40,114965,1,0
408,96,115215,1,0
184,192,116215,6,0,B|128:192|128:152|128:152,1,60,0|2
312,192,117215,1,0
472,352,119715,6,0,B|472:288|472:288,1,60
416,320,120215,2,0,B|416:248|416:248,1,60,0|8
304,208,120965,2,0,B|304:272|304:272,1,60
192,224,121715,2,0,B|192:88|192:88,1,120,0|8
104,24,122715,2,0,B|104:152|104:152,1,120,0|8
16,224,123715,6,0,B|16:88|16:88,1,120
104,24,124715,2,0,B|104:152|104:152,1,120,0|8
192,224,125715,2,0,B|240:256|264:184|328:232|328:232,1,120
432,224,126715,1,0
432,224,126965,1,8
304,352,127715,5,0
304,352,127965,1,0
184,352,128465,2,0,B|184:304|208:272|240:264|256:256|256:256,1,120,8|0
224,200,129215,2,0,B|176:224|160:240|144:264|128:296|128:296|128:296|128:296,1,120
224,200,130215,2,0,B|272:176|304:176|328:192|352:192|368:208|384:240|384:240,1,180,8|0
256,104,131715,5,0
256,104,131965,1,0
144,64,132465,2,0,B|112:120|120:208|208:216|208:216,1,180,8|0
192,336,133715,1,0
312,336,134215,2,0,B|360:264|240:232|320:144|320:144,1,180,8|0
128,160,135715,5,0
128,160,135965,1,2
256,192,136460,12,0,140426
32,192,143650,6,0,B|176:192|176:192,1,120,8|0
216,192,144430,1,8
336,192,144930,1,0
280,192,145180,1,0
400,192,145680,1,0
488,112,146180,1,8
400,32,146680,1,0
160,32,147680,6,0,B|112:88|168:160|168:160,1,120,8|0
160,208,148430,1,8
280,208,148930,1,0
280,144,149180,1,0
400,168,149680,1,0
376,288,150180,1,8
264,328,150675,1,0
160,112,151659,6,0,B|32:112|32:112,1,120,8|0
40,48,152390,2,0,B|232:48|232:48,1,180,8|0
344,48,153640,2,0,B|424:48|432:128|432:128,1,120,0|8
320,160,154640,1,0
256,328,155390,5,0
256,264,155640,1,0
136,288,156140,1,8
184,176,156640,1,0
304,176,157140,1,8
352,288,157640,1,0
392,176,158140,1,8
440,288,158640,1,0
440,288,158890,1,0
288,192,159640,6,0,B|232:152|168:192|168:192,1,120,8|0
160,128,160390,2,0,B|200:104|256:104|288:112|328:136|352:160|352:160,1,180,8|0
448,144,161650,1,0
448,264,162154,1,8
448,144,162658,1,0
256,288,163667,5,8
136,288,164171,1,0
136,288,164423,1,8
192,184,164927,1,0
192,184,165179,1,0
72,184,165684,2,0,B|72:112|136:80|136:80,1,120,0|8
248,80,166692,2,0,B|320:80|320:80,1,60
448,192,167700,6,0,B|448:328|448:328,1,120,8|0
384,312,168440,1,8
312,216,168935,1,0
312,216,169183,1,0
240,312,169679,1,0
168,216,170175,1,8
96,312,170671,1,0
256,32,171415,5,0
256,32,171663,1,0
376,32,172159,2,0,B|248:32|248:32,1,120,8|0
352,104,173150,2,0,B|216:104|216:104,1,120,8|0
328,176,174142,2,0,B|184:176|184:176,1,120,8|0
472,192,191640,6,0,B|416:232|344:192|344:192,1,120,2|0
304,176,192390,2,0,B|248:136|176:176|176:176,1,120,2|0
136,192,193140,2,0,B|80:232|8:192|8:192,1,120
24,80,194140,2,0,B|80:40|152:80|152:80,1,120,2|0
256,280,195640,6,0,B|208:208|272:160|272:160,1,120,2|0
320,168,196390,2,0,B|368:96|304:48|304:48,1,120,2|0
256,32,197140,2,0,B|200:-8|128:32|128:32,1,120
136,144,198140,2,0,B|192:184|264:144|264:144,1,120,2|0
488,192,199640,6,0,B|488:64|488:64,1,120,2|0
424,72,200390,2,0,B|424:208|424:208,1,120,2|0
360,192,201140,2,0,B|360:56|360:56,1,120
240,72,202140,2,0,B|240:208|240:208,1,120,2|0
144,344,203390,5,0
144,288,203640,1,2
248,352,204140,2,0,B|248:224|248:224,1,120,2|0
368,232,205140,2,0,B|368:376|368:376,1,120,2|0
488,352,206140,2,0,B|488:224|488:224,1,120,0|2
488,232,206890,1,0
32,192,210425,6,0,B|32:120|104:104|104:104,1,120
160,104,211175,1,8
216,104,211425,2,0,B|213:103|288:112|280:200,1,120
280,248,212175,1,8
336,248,212425,6,0,B|464:248|464:248,1,120
456,184,213175,1,8
400,184,213425,2,0,B|328:184|328:184,1,60
264,352,214425,6,0,B|128:352|128:352,1,120
80,352,215175,1,8
80,288,215425,2,0,B|168:288|168:288,1,60
264,288,216175,1,8
264,224,216425,6,0,B|128:224|128:224,1,120
80,224,217175,1,8
80,160,217425,2,0,B|152:160|152:160,1,60
200,160,217925,2,0,B|272:160|272:160,1,60
320,160,218440,6,0,B|368:224|312:280|312:280,1,120
256,272,219177,1,8
192,272,219423,2,0,B|144:208|200:152|200:152,1,120
256,160,220161,1,8
256,96,220407,6,0,B|192:48|136:104|136:104,1,120
144,160,221144,1,8
80,160,221390,2,0,B|80:240|80:240,1,60
208,352,222380,6,0,B|344:352|344:352,1,120
392,352,223142,2,0,B|392:224|392:224,1,120
328,232,223905,1,8
288,280,224159,1,0
232,280,224413,6,0,B|104:280|104:280,1,120
48,280,225176,1,0
48,216,225430,2,0,B|128:216|128:216,1,60,8|0
168,216,225939,2,0,B|240:216|240:216,1,60
288,216,226425,6,0,B|352:176|360:88|272:48|272:48,1,180,8|0
176,64,227675,1,0
80,144,228175,1,8
80,264,228675,1,0
304,352,229675,6,0,B|336:288|240:232|320:160|320:160,1,180,8|8
424,184,230925,1,0
368,184,231175,1,0
400,64,231675,1,0
288,112,232175,1,8
176,64,232675,1,0
120,64,232925,1,0
120,272,233675,6,0,B|40:280|24:208|24:208,1,120,8|0
24,152,234425,2,0,B|24:24|24:24,1,120,8|0
88,32,235175,1,0
120,152,235675,1,0
152,32,236175,1,8
184,152,236675,1,0
488,192,237425,6,0,B|416:192|416:192,1,60
488,296,238175,1,8
368,280,238675,1,0
280,192,239175,1,8
256,72,239675,1,0
136,72,240175,1,8
16,72,240675,1,0
16,128,240925,1,0
104,352,241675,6,0,B|248:352|248:352,1,120
288,352,242425,2,0,B|288:288|208:288|208:288|136:288|136:288,1,180,4|0
32,240,243672,1,0
32,120,244172,1,4
120,40,244671,2,0,B|192:40|192:40,1,60
400,352,245669,6,0,B|456:288|400:240|400:240,1,120
344,240,246418,2,0,B|312:176|328:104|400:80|400:80,1,180,4|0
272,80,247666,1,0
224,192,248165,1,4
264,304,248664,2,0,B|304:368|304:368,1,60
224,192,249662,6,0,B|160:144|112:192|112:192,1,120
224,192,250411,2,0,B|296:152|344:160|408:200|408:200,1,180,4|0
392,312,251659,2,0,B|328:352|264:312|264:312,1,120,0|4
160,320,252657,1,0
32,192,253406,6,0,B|32:120|32:120,1,60
136,192,254155,2,0,B|136:320|136:320,1,120,4|0
248,264,255153,2,0,B|248:136|248:136,1,120
360,192,256152,2,0,B|360:320|360:320,1,120,4|0
360,312,256900,1,0
480,104,257649,5,0
384,32,258148,1,0
384,32,258398,1,4
320,136,258897,1,0
320,136,259147,1,0
256,32,259646,1,0
208,144,260145,1,4
152,32,260644,1,0
152,32,260894,1,0
32,280,261642,5,0
128,352,262142,1,0
128,352,262391,1,4
192,248,262890,1,0
192,248,263140,1,0
256,352,263639,1,0
304,240,264138,1,4
360,352,264637,1,0
360,352,264887,1,0
256,192,265636,5,0
256,72,266135,1,0
256,72,266385,1,4
160,144,266884,1,0
160,144,267133,1,0
160,264,267632,1,0
256,336,268132,1,4
352,264,268631,1,0
352,264,268880,1,0
488,32,269380,6,0,B|400:32|400:32,1,60
488,136,270128,2,0,B|408:112|384:192|384:192,1,120,4|0
288,136,271162,2,0,B|368:112|392:192|392:192,1,120
384,304,272179,2,0,B|320:336|256:264|208:312|208:312,1,180,4|0
