osu file format v7

[General]
AudioFilename: Ichiban no Takaramono.mp3
AudioLeadIn: 0
PreviewTime: 143662
Countdown: 0
SampleSet: Soft
StackLeniency: 0.7
Mode: 0
LetterboxInBreaks: 1

[Editor]
DistanceSpacing: 1.39999997615814
BeatDivisor: 4
GridSize: 8

[Metadata]
Title:Ichiban no Takaramono (Yui Ver)
Artist:Girls Dead Monster
Creator:jericho2442
Version:Hard
Source:Angel Beats!
Tags:LiSA

[Difficulty]
HPDrainRate:5
CircleSize:5
OverallDifficulty:7
SliderMultiplier:1.6
SliderTickRate:1

[Events]
//Background and Video events
0,0,"angel-beats.jpg"
//Break Periods
2,52616,54761
2,87120,95520
2,140626,142750
2,207090,208740
//Storyboard Layer 0 (Background)
//Storyboard Layer 1 (Fail)
//Storyboard Layer 2 (Pass)
//Storyboard Layer 3 (Foreground)
//Storyboard Sound Samples
//Background Colour Transformations
3,100,0,0,0

[TimingPoints]
420,500,4,2,1,50,1,0
16420,504.201680672269,4,2,1,50,1,0
23622,-100,4,2,1,0,0,0
24122,-100,4,2,1,50,0,0
24455,500,4,2,1,50,1,0
27622,-100,4,2,1,0,0,0
27997,-100,4,2,1,50,0,0
29622,-100,4,2,1,0,0,0
30122,-100,4,2,1,50,0,0
44430,499.168053244592,4,2,1,50,1,0
49872,-100,4,2,1,30,0,0
50372,-100,4,2,1,10,0,0
50872,-100,4,2,1,0,0,0
52622,-100,4,2,1,50,0,0
56420,500,4,2,1,50,1,0
104420,504.201680672269,4,2,1,50,1,0
112465,500,4,2,1,50,1,0
117622,-100,4,2,1,0,0,0
118122,-100,4,2,1,50,0,0
136460,495.867768595041,4,2,1,50,1,0
137372,-100,4,2,1,30,0,0
137872,-100,4,2,1,20,0,0
138372,-100,4,2,1,10,0,0
138872,-100,4,2,1,0,0,0
140747,-100,4,2,1,50,0,0
144430,500,4,2,1,50,1,0
150430,491.803278688525,4,2,1,50,1,0
152390,500,4,2,1,50,1,0
160390,504.201680672269,4,2,1,50,1,0
168440,495.867768595041,4,2,1,50,1,0
174390,500,4,2,1,50,1,0
210425,500,4,2,1,50,1,0
218440,491.803278688525,4,2,1,50,1,0
222380,508.474576271186,4,2,1,50,1,0
226425,500,4,2,1,50,1,0
242425,499.168053244592,4,2,1,50,1,0
270400,508.474576271186,4,2,1,50,1,0
274440,495.867768595041,4,2,1,50,1,0

[Colours]
Combo1 : 128,64,64
Combo2 : 255,0,255

[HitObjects]
32,192,16924,1,0
104,128,17176,1,0
200,104,17428,2,0,B|272:88|296:112|320:136|320:176|320:176,1,160,2|0
224,200,18184,2,0,B|240:272|280:288|312:288|344:272|344:272,1,160,2|0
424,232,18941,1,0
480,152,19193,1,0
256,360,20957,6,0,B|200:360|200:312|200:312,1,80
280,264,21462,2,0,B|264:208|224:200|168:224|160:152|160:152,1,160,2|0
232,96,22218,2,0,B|240:160|320:128|336:176|344:208|344:208,1,160,2|0
440,200,22974,1,0
440,104,23226,2,0,B|400:40|368:32|320:32|280:40|256:80|224:8|224:8,1,240
104,192,24955,6,0,B|16:192|16:192,1,80
104,192,25455,2,0,B|152:240|192:144|240:176|272:192|272:192,1,160,2|0
352,184,26205,2,0,B|352:136|320:128|224:120|312:40|312:40,1,160,2|0
392,56,26955,1,0
488,56,27205,2,0,B|488:304|488:304,1,240
408,352,28205,5,0
312,352,28455,2,0,B|240:352|216:328|192:288|184:256|184:256,1,160,2|0
144,184,29205,2,0,B|264:144|256:256|264:312|376:256|376:256,1,240,2|0
32,32,31705,5,0
120,72,31955,1,0
144,168,32205,1,0
104,256,32455,2,0,B|112:328|144:336|192:336|232:320|232:320,1,160,2|0
312,304,33205,2,0,B|312:248|272:216|232:224|176:248|176:248,1,160,2|0
32,144,34205,2,0,B|200:144|200:144,1,160
352,32,35205,2,0,B|176:32|176:32,1,160
352,136,36205,6,0,B|416:136|448:168|464:208|456:248|456:248,1,160,2|0
272,288,37205,2,0,B|257:284|295:299|337:290|374:264|385:201,1,160,2|0
208,288,38205,2,0,B|222:284|184:299|142:290|105:264|94:201,1,160,0|2
192,200,38955,1,0
424,32,39705,5,0
328,32,39955,1,0
136,32,40455,2,0,B|224:32|224:32|232:80|288:104|288:104,1,160,2|0
264,184,41205,1,0
264,376,41705,2,0,B|264:320|248:296|216:272|136:304|136:304,1,160
32,152,42705,1,2
88,224,42955,1,0
480,352,43705,5,0
408,288,43955,1,0
264,160,44430,2,0,B|256:224|272:248|320:264|376:240|376:240,1,160,2|0
352,152,45178,2,0,B|368:112|368:64|320:16|240:48|240:48,1,160,2|0
96,96,46177,2,0,B|264:96|264:96,1,160
256,96,46925,1,0
256,384,47674,5,0
256,288,47924,1,0
256,192,48423,12,0,52416
32,32,55661,6,0,B|200:32|200:32,1,160,2|0
488,32,56420,2,0,B|312:32|312:32,1,160,2|0
256,32,57170,5,0
80,192,57670,1,0
256,360,58170,1,2
432,192,58670,1,0
32,192,59670,6,0,B|72:224|104:232|160:224|200:168|200:168,1,160,2|0
480,192,60420,2,0,B|440:160|408:152|352:160|312:216|312:216,1,160,2|0
256,192,61170,5,0
56,56,61670,1,0
256,192,62170,2,0,B|336:208|328:256|320:312|384:304|384:304,1,160,2|0
128,360,63670,6,0,B|184:304|48:256|128:224|128:184|128:184,1,160,2|0
384,24,64420,2,0,B|328:80|464:128|384:160|384:200|384:200,1,160,2|0
256,192,65170,5,0
16,192,65670,2,0,B|72:192|104:176|128:144|120:96|120:96,1,160,0|2
360,96,66670,1,0
32,240,67420,5,0
32,32,67670,1,2
480,32,68170,5,0
480,272,68670,1,2
272,152,69170,1,0
64,32,69670,1,2
64,272,70170,2,0,B|64:328|104:360|144:352|192:336|192:336,1,160,0|2
179,339,70920,1,0
488,352,71670,6,0,B|424:352|392:336|384:304|384:256|384:256,1,160,2|0
488,32,72420,2,0,B|424:32|392:48|384:80|384:128|384:128,1,160,2|0
256,192,73170,5,0
64,48,73670,2,0,B|120:80|152:8|200:48|240:48|240:48,1,160,0|2
464,48,74670,1,0
32,32,75670,6,0,B|112:48|64:144|128:128|160:160|160:160,1,160,2|0
480,352,76420,2,0,B|400:336|448:240|384:256|352:224|352:224,1,160,2|0
256,192,77170,5,0
24,352,77670,1,0
32,32,78170,1,2
480,32,78670,1,0
480,192,78920,1,0
32,192,79670,6,0,B|32:368|32:368,1,160,2|0
256,192,80420,2,0,B|256:16|256:16,1,160,2|0
480,32,81170,5,0
256,352,81670,2,0,B|216:288|304:256|256:208|248:184|248:184,1,160,0|2
32,32,82670,1,0
480,352,83420,5,0
480,232,83670,1,2
32,304,84170,6,0,B|216:304|216:304,1,160,0|2
480,192,85170,2,0,B|464:152|424:120|376:128|344:208|344:208,1,160,0|2
32,32,86170,2,0,B|216:32|216:32,1,160,0|2
192,32,86920,1,0
256,192,96420,6,0,B|176:200|184:136|192:80|112:96|112:96,1,160,8|0
144,256,97170,1,0
464,256,97670,2,0,B|368:256|368:256,1,80,0|0
160,32,98420,6,0,B|216:72|272:-16|304:32|336:32|336:32,1,160,8|0
312,184,99170,1,0
32,184,99670,2,0,B|136:184|136:184,1,80,0|0
256,376,100420,6,0,B|256:344|256:344,1,20
256,192,101420,2,0,B|256:160|256:160,1,20
32,32,102420,2,0,B|64:32|64:32,1,20
480,32,103420,2,0,B|448:32|448:32,1,20
32,192,104924,5,0
120,152,105176,1,0
136,56,105428,1,2
328,56,105932,1,0
352,152,106184,1,2
344,344,106688,1,0
424,288,106941,1,0
440,192,107193,1,2
32,192,108957,6,0,B|32:96|32:96,1,80
88,192,109462,2,0,B|88:240|104:280|160:288|208:272|208:272,1,160,2|0
192,368,110218,2,0,B|368:368|368:368,1,160,2|0
448,368,110974,1,0
496,288,111226,1,0
32,192,112965,6,0,B|32:144|80:128|80:128,1,80
120,216,113465,2,0,B|256:320|256:320,1,160,2|0
344,312,114215,1,2
496,192,114715,1,0
400,192,114965,1,0
304,192,115215,1,0
32,32,116215,5,0
128,32,116465,2,0,B|128:208|128:208,1,160,2|0
224,192,117215,2,0,B|224:128|240:96|304:24|408:64|408:64,1,240,2|0
256,352,119715,5,0
256,256,119965,1,0
256,160,120215,1,0
256,64,120465,6,0,B|200:112|168:64|144:0|80:64|80:64,1,160,2|0
256,64,121215,2,0,B|312:112|344:64|368:0|432:64|432:64,1,160,2|0
256,168,122215,2,0,B|312:216|344:168|368:104|432:168|432:168,1,160,2|0
256,272,123215,1,0
64,272,123715,1,2
160,104,124215,6,0,B|192:160|160:208|104:224|184:272|184:272,1,160,0|2
352,256,125215,2,0,B|384:200|352:152|296:136|376:88|376:88,1,160,0|2
160,104,126215,2,0,B|200:72|240:56|280:72|320:120|320:120,1,160
232,168,126965,1,2
448,360,127715,5,0
488,272,127965,1,0
488,80,128465,2,0,B|432:112|400:80|368:48|312:80|312:80,1,160,2|0
240,72,129215,1,0
64,152,129715,1,0
160,320,130215,1,0
336,240,130715,1,0
432,240,130965,1,2
256,32,131715,5,0
256,128,131965,1,0
88,32,132465,2,0,B|56:72|48:112|72:152|112:192|112:192,1,160,2|0
104,272,133215,2,0,B|168:272|200:240|192:200|192:160|192:160,1,160
384,176,134215,2,0,B|384:169|384:209|376:249|408:281|472:281,1,160
464,184,134965,2,0,B|450:199|490:159|514:119|496:8|360:24,1,240,2|0
288,24,135965,1,0
256,192,136460,12,0,140426
184,192,143650,6,0,B|136:232|96:192|72:144|16:208|16:208,1,160,8|0
328,192,144430,2,0,B|376:232|416:192|440:144|496:208|496:208,1,160,8|0
480,288,145180,5,0
168,360,145680,1,0
224,48,146180,2,0,B|288:80|272:128|232:176|296:192|296:192,1,160,8|0
152,136,147680,6,0,B|152:80|128:56|88:32|32:40|32:40,1,160,8|0
360,248,148430,2,0,B|360:304|384:328|424:352|480:344|480:344,1,160,8|0
440,256,149180,5,0
128,192,149680,2,0,B|160:160|208:160|256:160|280:200|280:200,1,160,8|0
8,16,150675,1,0
328,360,151659,6,0,B|368:336|424:328|456:336|496:376|496:376,1,160,8|0
480,32,152390,2,0,B|440:56|384:64|352:56|312:16|312:16,1,160,8|0
232,32,153140,5,0
32,280,153640,2,0,B|56:320|88:344|128:352|184:352|184:352,1,160,8|0
488,352,154640,1,0
256,192,155390,5,0
256,32,155640,1,8
24,248,156140,6,0,B|16:296|48:336|80:360|120:360|120:360,1,160
416,248,157140,2,0,B|424:296|392:336|360:360|320:360|320:360,1,160,8|0
144,96,158140,2,0,B|141:99|166:68|205:59|256:60|288:97,1,160
288,97,158890,1,8
480,224,159640,6,0,B|480:408|480:408,1,160,8|0
480,168,160390,2,0,B|480:-8|480:-8,1,160,8|0
400,40,161146,5,0
80,40,161650,1,0
400,40,162154,1,8
184,280,162658,1,0
160,352,163667,6,0,B|128:320|72:312|40:320|8:360|8:360,1,160,8|0
352,352,164423,2,0,B|384:320|440:312|472:320|504:360|504:360,1,160,8|0
496,248,165179,6,0,B|496:192|480:144|424:128|384:128|384:128,1,160
112,248,166188,2,0,B|112:192|128:144|184:128|224:128|224:128,1,160,8|0
304,248,166944,1,0
32,32,167700,6,0,B|64:80|32:128|-16:168|56:208|56:208,1,160,8|0
33,186,168440,2,0,B|56:224|104:232|152:216|168:160|168:160,1,160,8|0
163,169,169183,5,0
480,176,169679,2,0,B|288:176|288:176,1,160,0|8
32,32,170671,1,0
256,360,171415,5,0
256,200,171663,1,8
32,32,172159,6,0,B|8:88|32:128|80:160|16:208|16:208,1,160
304,360,173150,2,0,B|352:328|368:272|344:232|328:192|328:192,1,160,8|0
16,192,174142,2,0,B|64:168|96:144|144:176|176:200|176:200,1,160
480,192,175640,6,0,B|456:168|456:168,1,20,0|2
272,192,176140,1,0
160,192,176390,2,0,B|160:144|192:96|240:88|288:96|288:96,1,160,2|0
376,96,177140,2,0,B|320:96|320:96|320:56|288:24|232:40|232:40,1,160,2|0
24,40,178140,2,0,B|200:40|200:40,1,160,2|0
256,352,179640,6,0,B|256:320|256:320,1,20,0|2
256,128,180140,1,0
256,16,180390,2,0,B|192:16|176:40|128:64|144:144|144:144,1,160,2|0
144,216,181140,2,0,B|184:272|144:304|80:336|160:384|160:384,1,160,2|0
360,368,182140,2,0,B|360:336|360:336,1,20,0|0
360,144,182640,1,2
32,192,183140,6,0,B|128:192|128:192,1,80
112,80,183640,2,0,B|144:80|144:80,1,20,0|2
328,80,184140,1,0
216,80,184390,2,0,B|216:256|216:256,1,160,2|0
104,240,185140,1,2
104,16,185640,1,0
104,240,186140,1,2
104,16,186640,1,0
392,192,187390,5,0
392,80,187640,2,0,B|392:112|392:112,1,20
392,304,188140,2,0,B|336:336|296:304|272:248|208:328|208:328,1,160,0|2
16,304,189140,2,0,B|72:336|112:304|136:248|200:328|200:328,1,160,0|2
200,80,190140,2,0,B|168:136|200:176|256:200|176:264|176:264,1,160,0|2
304,256,190890,5,8
304,144,191140,1,0
304,256,191390,1,8
304,80,191640,1,0
304,312,191890,1,8
304,16,192140,1,0
304,376,192390,6,0,B|120:376|120:376,1,160,8|0
48,312,193140,2,0,B|232:312|232:312,1,160,8|0
432,312,194140,2,0,B|400:288|400:288,1,20
240,192,194640,1,8
480,32,195640,6,0,B|480:64|480:64,1,20
280,32,196140,2,0,B|384:32|384:32,1,80,0|8
136,32,196890,2,0,B|224:32|224:32,1,80,0|8
56,192,197640,2,0,B|104:232|128:192|200:144|232:216|232:216,1,160
440,192,198640,1,8
24,24,199640,6,0,B|24:48|24:48,1,20
24,224,200140,1,0
136,224,200390,1,8
320,352,200890,1,0
208,352,201140,1,4
424,296,201640,1,0
432,72,202140,2,0,B|408:72|408:72,1,20
232,160,202640,1,8
24,352,203390,5,0
24,240,203640,2,0,B|24:216|24:216,1,20
160,360,204140,2,0,B|336:360|336:360,1,160,0|8
472,192,205140,2,0,B|288:192|288:192,1,160,0|0
88,192,206140,5,0
256,344,206640,1,0
256,344,206890,1,4
112,168,209640,6,0,B|200:136,1,80
192,256,210140,1,0
256,168,210425,2,0,B|352:136|352:136,1,80,4|0
320,256,210925,1,0
432,256,211175,1,0
32,192,211675,2,0,B|88:224|112:192|176:136|208:216|208:216,1,160
408,192,212675,1,4
32,32,213675,6,0,B|32:128|32:128,1,80
32,224,214175,1,0
120,160,214425,2,0,B|216:160|216:160,1,80,4|0
112,224,214925,1,0
224,224,215175,1,0
488,32,215675,2,0,B|424:32|392:56|384:88|408:144|408:144,1,160
200,32,216675,1,4
256,352,217675,6,0,B|256:288|320:296|320:296,1,80
256,192,218175,1,0
256,24,218440,2,0,B|256:80|256:128|320:152|352:128|352:128,1,160,4|0
448,136,219177,1,0
448,360,219669,1,0
448,136,220161,1,0
448,360,220653,1,4
160,192,221390,6,0,B|88:144|88:144,1,80
32,360,222128,1,4
488,360,222634,2,0,B|440:312|408:360|384:384|304:336|304:336,1,160
256,32,223651,2,0,B|224:96|256:120|296:152|248:208|248:208,1,160
104,32,224668,1,0
104,144,224922,1,4
480,352,225685,6,0,B|416:352|400:312|400:312,1,80
480,240,226193,1,0
480,128,226425,2,0,B|424:128|384:144|360:176|368:240|368:240,1,160,4|0
256,224,227175,2,0,B|256:48|256:48,1,160
40,128,228175,2,0,B|96:128|136:144|160:176|152:240|152:240,1,160,0|4
480,360,229675,6,0,B|480:264|480:264,1,80
480,168,230175,1,0
480,56,230425,2,0,B|288:56|288:56,1,160,4|0
224,112,231175,2,0,B|416:112|416:112,1,160
256,296,232175,2,0,B|224:344|192:352|144:336|112:304|112:304,1,160
118,309,232925,1,4
32,32,233675,6,0,B|128:32|128:32,1,80
112,144,234175,1,0
112,32,234425,2,0,B|216:24|248:64|256:104|256:104,1,160,4|0
360,88,235175,1,0
360,312,235675,1,0
360,88,236175,1,0
256,288,236675,1,4
32,160,237425,6,0,B|136:160|136:160,1,80
336,160,238175,2,0,B|296:128|248:120|216:128|184:168|184:168,1,160,0|4
416,160,239175,2,0,B|456:136|472:96|472:56|440:16|440:16,1,160
368,232,240175,2,0,B|346:272|353:315|373:349|421:367|417:364,1,160
417,365,240925,1,4
32,144,241675,6,0,B|80:112|96:88|88:32|16:16|16:16,1,160
32,240,242425,2,0,B|80:272|96:296|88:352|16:368|16:368,1,160,4|0
144,192,243173,5,8
256,32,243672,1,0
336,360,244172,1,8
440,24,244671,1,4
160,352,245669,6,0,B|120:312|88:304|40:320|16:360|16:360,1,160
352,352,246418,2,0,B|392:312|424:304|472:320|496:360|496:360,1,160,4|0
256,224,247167,5,8
24,32,247666,1,0
480,32,248165,1,8
24,96,248664,1,4
480,104,249662,6,0,B|480:272|480:272,1,160
192,352,250411,2,0,B|192:176|192:176,1,160,4|0
344,192,251160,5,8
32,32,251659,2,0,B|88:72|128:32|160:0|208:40|208:40,1,160,0|8
480,32,252657,1,4
256,360,253406,6,0,B|256:304|208:288|208:288,1,80
488,192,254155,2,0,B|304:192|304:192,1,160,4|0
488,40,255153,6,0,B|320:40|320:40,1,160,8|0
488,192,256152,2,0,B|416:192|384:208|360:240|368:304|368:304,1,160
368,271,256900,1,4
200,136,257649,6,0,B|72:24|72:24,1,160
312,248,258398,2,0,B|440:360|440:360,1,160,4|0
256,352,259147,5,8
32,192,259646,1,0
256,32,260145,1,8
480,192,260644,1,4
200,248,261642,6,0,B|72:360|72:360,1,160
312,136,262391,2,0,B|440:24|440:24,1,160,4|0
256,32,263140,5,8
32,192,263639,1,0
256,352,264138,1,8
32,192,264637,1,0
32,32,264887,1,4
480,192,265636,6,0,B|424:192|384:160|368:128|384:96|384:96,1,160
384,96,266385,2,0,B|383:33|359:17|304:-8|264:24|264:24,1,160,4|0
275,17,267133,6,0,B|96:16|96:16,1,160,8|0
112,192,268132,2,0,B|296:192|296:192,1,160,8|4
416,360,269380,6,0,B|464:344|480:304|480:304,1,80
248,128,270128,2,0,B|241:121|361:241,1,160,4|0
136,240,271162,6,0,B|255:120|248:127,1,160,8|0
24,128,272179,2,0,B|17:121|137:241,1,160
136,240,272942,1,4
