osu file format v11

[General]
AudioFilename: Angel Beats - Girls Dead Monster - 06 - Highest Life.mp3
AudioLeadIn: 0
PreviewTime: -1
Countdown: 1
SampleSet: None
StackLeniency: 0.7
Mode: 0
LetterboxInBreaks: 1

[Editor]
DistanceSpacing: 0.9
BeatDivisor: 8
GridSize: 16

[Metadata]
Title:Highest Life
TitleUnicode:Highest Life
Artist:Girls Dead Monster
ArtistUnicode:Girls Dead Monster
Creator:Firesucker
Version:Hard
Source:
Tags:Angel Beats Highest Life Girls Dead Monster
BeatmapID:213505
BeatmapSetID:75604

[Difficulty]
HPDrainRate:4
CircleSize:5
OverallDifficulty:5
ApproachRate:6
SliderMultiplier:1.90000000596046
SliderTickRate:4

[Events]
//Background and Video events
0,0,"AB_WB_HARD.jpg"
//Break Periods
2,124751,129767
2,351554,351634
//Storyboard Layer 0 (Background)
//Storyboard Layer 1 (Fail)
//Storyboard Layer 2 (Pass)
//Storyboard Layer 3 (Foreground)
//Storyboard Sound Samples
//Background Colour Transformations
3,100,255,0,0

[TimingPoints]
6260.11597894273,759.493670886076,4,1,1,100,1,0

[Colours]
Combo1 : 255,128,0
Combo2 : 5,240,5
Combo3 : 5,5,240
Combo4 : 240,5,5
Combo5 : 255,255,0

[HitObjects]
32,320,3317,1,0,0:0:0
160,320,4836,5,0,0:0:0
64,224,6355,5,0,0:0:0
192,192,7114,5,4,0:0:0
192,160,7874,1,0,0:0:0
224,160,8633,1,4,0:0:0
352,160,9393,5,0,0:0:0
256,64,10912,1,0,0:0:0
352,64,11671,5,4,0:0:0
448,64,12431,1,0,0:0:0
320,192,13190,5,4,0:0:0
192,192,13981,1,0,0:0:0
255,191,15468,5,0,0:0:0
318,193,16228,5,0,0:0:0
320,192,16987,5,0,0:0:0
256,192,17747,1,4,0:0:0
192,192,18506,1,0,0:0:0
256,192,19266,1,4,0:0:0
256,128,20025,1,0,0:0:0
256,256,20785,1,4,0:0:0
256,192,21544,1,0,0:0:0
249,191,22304,1,4,0:0:0
192,192,23063,1,0,0:0:0
320,192,23823,1,4,0:0:0
256,192,24582,1,0,0:0:0
192,128,25342,1,6,0:0:0
320,128,26101,1,0,0:0:0
192,256,26861,1,6,0:0:0
320,256,27620,1,6,0:0:0
96,352,30753,6,2,P|352:352,1,237.500000745057
352,352,31893,5,0,0:0:0
352,320,31987,1,0,0:0:0
352,288,32082,1,0,0:0:0
352,256,32177,1,0,0:0:0
352,224,32272,1,0,0:0:0
352,192,32367,1,0,0:0:0
352,160,32462,1,0,0:0:0
352,128,32557,1,0,0:0:0
256,128,33412,5,4,0:0:0
224,128,33601,1,2,0:0:0
192,128,33791,1,4,0:0:0
160,128,33981,1,2,0:0:0
128,128,34171,1,4,0:0:0
96,128,34361,1,2,0:0:0
64,128,34551,1,4,0:0:0
32,128,34741,1,2,0:0:0
32,192,35215,5,0,0:0:0
64,192,35310,1,0,0:0:0
96,192,35405,1,0,0:0:0
128,192,35500,1,0,0:0:0
160,192,35595,1,0,0:0:0
192,192,35690,1,0,0:0:0
224,192,35785,1,0,0:0:0
256,192,35880,1,0,0:0:0
288,192,35975,1,0,0:0:0
320,192,36070,1,0,0:0:0
320,192,36355,6,0,P|384:0|384:0|192:128|192:128|256:160,1,498.750001564622
256,192,39393,6,0,P|256:224,1,23.7500000745058
256,224,39582,2,0,P|224:224,1,23.7500000745058
224,224,39772,2,0,P|192:224,1,23.7500000745058
192,224,39962,2,0,P|224:224,1,23.7500000745058
224,224,40152,2,0,P|256:224,1,23.7500000745058
256,224,40342,2,0,P|256:192,1,23.7500000745058
256,192,40532,2,0,P|256:160,1,23.7500000745058
256,160,40722,2,0,P|224:160,1,23.7500000745058
224,160,40912,2,0,P|192:160,1,23.7500000745058
192,160,41101,2,0,P|160:160,1,23.7500000745058
160,160,41291,2,0,P|128:160,1,23.7500000745058
96,288,42051,5,0,0:0:0
96,96,42431,1,0,0:0:0
0,192,42810,6,0,P|512:192,1,498.750001564621
96,288,45753,5,0,0:0:0
96,224,46133,1,0,0:0:0
160,192,46228,1,0,0:0:0
160,256,46608,1,0,0:0:0
224,32,47367,5,4,0:0:0
160,64,47747,1,0,0:0:0
160,128,48127,1,0,0:0:0
352,192,48886,5,4,0:0:0
352,256,49266,1,0,0:0:0
288,288,49646,1,0,0:0:0
480,96,50405,5,4,0:0:0
416,32,50785,1,0,0:0:0
352,96,51165,1,0,0:0:0
416,160,51544,1,0,0:0:0
288,160,51924,1,4,0:0:0
352,224,52304,1,0,0:0:0
224,224,52684,1,0,0:0:0
288,288,53063,1,0,0:0:0
224,352,53443,1,4,0:0:0
160,288,53823,1,0,0:0:0
96,352,54203,1,0,0:0:0
64,352,54582,5,0,0:0:0
32,352,54962,1,4,0:0:0
256,192,55722,5,0,0:0:0
192,128,56101,1,0,0:0:0
320,256,56481,1,0,0:0:0
224,160,56861,1,0,0:0:0
288,224,57241,1,0,0:0:0
128,320,57620,6,0,P|416:96,1,356.250001117587
128,160,60374,5,8,0:0:0
160,160,60468,1,8,0:0:0
224,160,60753,1,8,0:0:0
288,160,60943,1,8,0:0:0
352,160,61133,1,8,0:0:0
384,160,61228,1,8,0:0:0
480,160,61418,2,0,P|64:160,1,403.750001266599
256,192,63981,12,0,71576,0:0:0
224,96,73190,5,4,0:0:0
256,128,73380,1,0,0:0:0
288,160,73570,1,0,0:0:0
320,192,73760,1,0,0:0:0
352,160,73949,1,4,0:0:0
320,128,74139,1,0,0:0:0
288,96,74329,1,0,0:0:0
256,64,74519,1,0,0:0:0
224,32,74709,1,4,0:0:0
192,64,74899,1,0,0:0:0
128,128,75468,1,0,0:0:0
96,160,75848,1,0,0:0:0
64,192,76038,1,4,0:0:0
160,288,76987,1,0,0:0:0
192,288,77367,1,4,0:0:0
256,288,78032,1,0,0:0:0
288,288,78222,2,0,P|384:288,1,95.0000002980233
384,288,79266,5,0,0:0:0
384,256,79456,1,0,0:0:0
384,224,79646,1,0,0:0:0
384,192,79836,1,0,0:0:0
384,160,80025,1,0,0:0:0
384,96,80405,5,0,0:0:0
384,64,80595,1,0,0:0:0
352,32,80785,1,0,0:0:0
320,32,80975,1,0,0:0:0
256,32,81449,1,0,0:0:0
192,32,81924,1,0,0:0:0
160,32,82209,6,0,P|32:32,1,118.750000372529
32,96,83063,6,2,P|320:288,1,332.500001043081
320,256,85057,1,0,0:0:0
308,280,85342,6,2,P|448:96|384:64,1,403.750001266599
256,32,88475,6,0,P|192:32|256:96|192:96|128:32|256:160|128:160|0:32|256:288|0:288|224:64|128:384|352:224|320:224,1,427.500001341105
448,32,91038,5,0,0:0:0
384,32,91418,1,4,0:0:0
384,96,91798,1,0,0:0:0
448,96,92177,1,0,0:0:0
64,32,92557,5,0,0:0:0
128,32,92937,1,4,0:0:0
128,96,93317,1,0,0:0:0
64,96,93696,1,0,0:0:0
64,352,94076,5,0,0:0:0
128,352,94456,1,4,0:0:0
64,288,94836,1,0,0:0:0
128,288,95215,1,0,0:0:0
480,352,95595,5,0,0:0:0
416,352,95975,1,4,0:0:0
480,288,96355,1,0,0:0:0
416,288,96734,1,0,0:0:0
256,256,97114,6,0,P|0:160|0:160|384:64|384:64,1,665.000002086161
256,128,99867,6,0,P|512:224|512:224|96:320|96:320,1,688.750002160667
256,96,103570,5,0,0:0:0
219,107,103665,1,8,0:0:0
201,141,103760,1,0,0:0:0
229,170,103855,1,8,0:0:0
273,185,103949,1,0,0:0:0
302,222,104044,1,8,0:0:0
271,259,104139,1,0,0:0:0
235,263,104234,1,14,0:0:0
107,110,105089,5,4,0:0:0
87,96,105468,1,0,0:0:0
107,75,105848,1,0,0:0:0
253,124,106228,5,4,0:0:0
253,92,106608,1,0,0:0:0
253,64,106987,1,0,0:0:0
389,126,107367,5,4,0:0:0
409,100,107747,1,0,0:0:0
386,71,108127,1,0,0:0:0
395,290,108506,5,4,0:0:0
407,269,108886,1,0,0:0:0
393,231,109266,1,0,0:0:0
256,224,109646,5,4,0:0:0
260,255,110025,1,0,0:0:0
256,288,110405,1,0,0:0:0
136,303,110785,5,4,0:0:0
119,282,111165,1,0,0:0:0
132,260,111544,1,0,0:0:0
292,232,111924,5,4,0:0:0
207,149,112304,1,0,0:0:0
293,155,112684,1,0,0:0:0
250,110,113063,1,4,0:0:0
246,279,113443,1,0,0:0:0
145,189,113823,1,0,0:0:0
336,198,114203,1,0,0:0:0
308,196,114962,5,4,0:0:0
290,220,115152,1,0,0:0:0
254,240,115342,1,8,0:0:0
223,230,115532,1,0,0:0:0
206,193,115722,1,4,0:0:0
223,160,115912,1,0,0:0:0
256,146,116101,1,8,0:0:0
291,159,116291,1,0,0:0:0
259,191,116481,1,4,0:0:0
259,191,116861,5,14,0:0:0
253,66,117241,5,4,0:0:0
352,93,117431,1,0,0:0:0
413,195,117620,1,8,0:0:0
351,287,117810,1,0,0:0:0
254,319,118000,1,4,0:0:0
159,289,118190,1,0,0:0:0
121,191,118380,1,8,0:0:0
160,95,118570,1,0,0:0:0
96,96,118760,6,2,P|32:192|32:192|128:192|128:192|32:320|32:320,1,356.250001117587
256,96,120943,6,2,P|192:192|192:192|288:192|288:192|192:320|192:320,1,356.250001117587
416,96,123127,6,2,P|352:192|352:192|448:192|448:192|352:320|352:320,1,356.250001117587
512,192,130817,6,0,P|0:192|256:32|256:32|256:320|256:320|32:192|32:192|128:128,1,1140.00000357628
0,192,136228,5,0,0:0:0
32,192,136608,1,0,0:0:0
64,192,136987,1,0,0:0:0
96,192,137367,1,0,0:0:0
128,192,137557,5,0,0:0:0
141,193,137747,1,0,0:0:0
160,192,137937,1,0,0:0:0
174,191,138127,1,0,0:0:0
192,192,138317,1,0,0:0:0
224,192,138506,5,0,0:0:0
227,193,138601,1,0,0:0:0
228,194,138696,1,0,0:0:0
231,197,138791,1,0,0:0:0
234,196,138886,1,0,0:0:0
238,197,138981,1,0,0:0:0
240,196,139076,1,0,0:0:0
243,195,139171,1,0,0:0:0
246,197,139266,1,0,0:0:0
248,196,139360,1,0,0:0:0
320,64,142589,6,0,P|224:64,1,95.000000298023
224,64,143063,6,0,P|64:320,1,285.000000894069
96,320,144298,2,0,P|416:64,1,403.750001266598
448,64,146101,6,0,P|32:32,1,403.750001266598
32,64,147810,5,0,0:0:0
64,128,147905,1,0,0:0:0
96,192,148000,1,0,0:0:0
128,256,148095,1,0,0:0:0
160,256,148380,6,0,P|352:128,1,213.750000670552
352,96,149234,1,0,0:0:0
320,96,149329,1,0,0:0:0
384,160,149424,1,0,0:0:0
384,192,149519,1,0,0:0:0
384,96,149614,1,0,0:0:0
416,128,149709,1,0,0:0:0
448,96,149804,1,0,0:0:0
416,64,149899,1,0,0:0:0
384,192,151323,5,0,0:0:0
352,224,151418,1,0,0:0:0
384,224,151513,1,0,0:0:0
352,256,151608,1,0,0:0:0
384,256,151703,1,0,0:0:0
384,288,151798,1,0,0:0:0
352,288,151987,2,0,P|128:128|224:96,1,617.500001937149
224,96,154836,5,0,0:0:0
256,160,155215,1,0,0:0:0
320,128,155595,1,0,0:0:0
288,64,155975,1,0,0:0:0
192,32,156355,1,0,0:0:0
160,96,156734,1,0,0:0:0
192,160,157114,1,0,0:0:0
256,192,157494,1,0,0:0:0
320,192,157874,1,0,0:0:0
384,160,158253,1,0,0:0:0
448,160,158633,1,0,0:0:0
448,224,159013,1,0,0:0:0
384,256,159393,1,0,0:0:0
416,320,159772,1,0,0:0:0
352,352,160152,1,0,0:0:0
288,352,160532,1,0,0:0:0
224,320,160912,1,0,0:0:0
256,256,161291,1,0,0:0:0
288,192,161671,1,0,0:0:0
256,128,162051,1,0,0:0:0
192,96,162431,1,0,0:0:0
128,96,162810,1,0,0:0:0
96,160,163190,1,0,0:0:0
128,224,163570,1,0,0:0:0
192,256,163949,1,0,0:0:0
224,192,164329,1,0,0:0:0
224,128,164709,1,0,0:0:0
224,64,165089,1,0,0:0:0
288,64,165468,1,0,0:0:0
320,128,165848,1,0,0:0:0
352,192,166228,1,0,0:0:0
288,224,166608,1,0,0:0:0
224,224,166987,5,0,0:0:0
192,224,167177,1,0,0:0:0
160,192,167367,1,0,0:0:0
160,160,167557,1,0,0:0:0
160,128,167747,1,0,0:0:0
160,96,167937,1,0,0:0:0
192,64,168127,1,0,0:0:0
224,64,168317,1,0,0:0:0
256,96,168506,1,0,0:0:0
256,128,168696,1,0,0:0:0
256,160,168886,1,0,0:0:0
256,192,169076,1,0,0:0:0
224,224,169266,1,0,0:0:0
192,256,169456,1,0,0:0:0
160,224,169646,1,0,0:0:0
192,192,169836,1,0,0:0:0
224,160,170025,1,0,0:0:0
224,128,170215,1,0,0:0:0
256,96,170405,1,0,0:0:0
288,96,170595,1,0,0:0:0
320,96,170785,1,0,0:0:0
352,96,170975,1,0,0:0:0
384,96,171165,1,0,0:0:0
384,128,171355,1,0,0:0:0
352,160,171544,1,0,0:0:0
384,192,171734,1,0,0:0:0
416,160,171924,1,0,0:0:0
448,128,172114,1,0,0:0:0
448,96,172304,1,0,0:0:0
448,64,172494,1,0,0:0:0
416,32,172684,1,0,0:0:0
384,32,172874,1,0,0:0:0
352,32,173063,1,0,0:0:0
320,32,173253,1,0,0:0:0
288,64,173443,1,0,0:0:0
288,96,173633,1,0,0:0:0
288,128,173823,1,0,0:0:0
256,160,174013,1,0,0:0:0
224,160,174203,1,0,0:0:0
192,128,174393,1,0,0:0:0
160,96,174582,1,0,0:0:0
128,96,174772,1,0,0:0:0
96,128,174962,1,0,0:0:0
96,160,175152,1,0,0:0:0
96,192,175342,1,0,0:0:0
128,224,175532,1,0,0:0:0
160,224,175722,1,0,0:0:0
192,224,175912,1,0,0:0:0
224,224,176101,1,0,0:0:0
256,224,176291,1,0,0:0:0
256,192,176481,1,0,0:0:0
224,160,176671,1,0,0:0:0
192,128,176861,1,0,0:0:0
160,96,177051,1,0,0:0:0
128,64,177241,1,0,0:0:0
96,32,177431,1,0,0:0:0
96,64,177620,1,0,0:0:0
96,96,177810,1,0,0:0:0
96,128,178000,1,0,0:0:0
64,160,178190,1,0,0:0:0
32,192,178380,1,0,0:0:0
0,224,178570,1,0,0:0:0
32,224,178760,5,0,0:0:0
64,224,178855,1,0,0:0:0
96,224,178949,1,0,0:0:0
128,224,179044,1,0,0:0:0
160,224,179139,1,0,0:0:0
192,224,179234,1,0,0:0:0
224,224,179329,1,0,0:0:0
256,224,179424,1,0,0:0:0
288,224,179519,1,0,0:0:0
320,224,179614,1,0,0:0:0
352,224,179709,1,0,0:0:0
384,224,179804,1,0,0:0:0
416,224,179899,1,0,0:0:0
448,224,179994,1,0,0:0:0
480,224,180089,1,0,0:0:0
512,224,180184,1,0,0:0:0
512,224,180279,6,0,P|160:0,1,403.750001266598
352,128,181038,1,0,0:0:0
128,48,182177,5,0,0:0:0
80,96,182557,1,0,0:0:0
80,160,182937,1,0,0:0:0
128,208,183317,1,0,0:0:0
176,160,183696,5,0,0:0:0
240,192,184076,1,0,0:0:0
256,256,184456,1,0,0:0:0
208,304,184836,1,0,0:0:0
144,288,185215,5,0,0:0:0
96,240,185595,1,0,0:0:0
112,176,185975,1,0,0:0:0
160,128,186355,1,0,0:0:0
208,80,186734,5,0,0:0:0
256,96,186924,1,0,0:0:0
288,144,187114,1,0,0:0:0
272,192,187304,1,0,0:0:0
224,224,187494,1,0,0:0:0
176,208,187684,1,0,0:0:0
144,160,187874,1,0,0:0:0
160,112,188063,1,0,0:0:0
16,192,188348,6,0,P|256:0|480:192|256:368|16:192,1,688.750002160667
16,192,191291,6,0,P|256:0|256:0|512:192|512:192,1,617.500001937149
496,192,194329,5,0,0:0:0
464,240,194519,1,0,0:0:0
416,256,194709,1,0,0:0:0
368,240,194899,1,0,0:0:0
336,192,195089,1,0,0:0:0
304,144,195279,1,0,0:0:0
256,112,195468,1,0,0:0:0
208,144,195658,1,0,0:0:0
176,192,195848,1,0,0:0:0
144,240,196038,1,0,0:0:0
96,256,196228,1,0,0:0:0
48,240,196418,1,0,0:0:0
16,192,196608,1,0,0:0:0
16,192,197367,5,0,0:0:0
48,144,197557,1,0,0:0:0
96,128,197747,1,0,0:0:0
144,144,197937,1,0,0:0:0
176,192,198127,1,0,0:0:0
208,240,198317,1,0,0:0:0
256,256,198506,1,0,0:0:0
304,240,198696,1,0,0:0:0
336,192,198886,1,0,0:0:0
368,144,199076,1,0,0:0:0
416,128,199266,1,0,0:0:0
464,144,199456,1,0,0:0:0
496,192,199646,1,0,0:0:0
496,192,200310,6,0,P|256:384|256:384|256:0|256:0|0:192|0:192|432:192|432:192,1,1425.00000447034
416,192,206671,5,0,0:0:0
400,192,206861,1,0,0:0:0
384,192,207051,1,0,0:0:0
368,192,207241,1,0,0:0:0
352,192,207431,1,0,0:0:0
336,192,207620,1,0,0:0:0
320,192,207810,1,0,0:0:0
304,192,208000,1,0,0:0:0
288,192,208190,1,0,0:0:0
272,192,208380,1,0,0:0:0
256,192,208570,1,0,0:0:0
240,192,208760,1,0,0:0:0
224,192,208949,1,0,0:0:0
208,192,209139,1,0,0:0:0
192,192,209329,1,0,0:0:0
176,192,209519,1,0,0:0:0
96,192,209899,6,0,P|256:0|416:192,1,570.000001788138
368,208,212937,5,0,0:0:0
336,224,213127,1,0,0:0:0
304,224,213317,1,0,0:0:0
272,208,213506,1,0,0:0:0
240,208,213696,5,0,0:0:0
208,224,213886,1,0,0:0:0
176,224,214076,1,0,0:0:0
144,208,214266,1,0,0:0:0
144,176,214456,5,0,0:0:0
176,160,214646,1,0,0:0:0
208,160,214836,1,0,0:0:0
240,176,215025,1,0,0:0:0
272,176,215215,5,0,0:0:0
304,160,215405,1,0,0:0:0
336,160,215595,1,0,0:0:0
368,176,215785,1,0,0:0:0
320,192,216734,5,0,0:0:0
192,192,217494,5,0,0:0:0
256,192,218253,5,0,0:0:0
0,192,218918,6,8,P|256:0|256:0|512:192|512:192|256:384|256:384|256:192|256:192|32:192,1,1353.75000424683
256,192,225089,5,0,0:0:0
192,192,225279,1,0,0:0:0
256,128,225468,1,0,0:0:0
320,192,225658,1,0,0:0:0
256,256,225848,1,0,0:0:0
192,128,226038,1,0,0:0:0
320,128,226228,1,0,0:0:0
320,256,226418,1,0,0:0:0
192,256,226608,1,0,0:0:0
128,192,226798,1,0,0:0:0
256,64,226987,1,0,0:0:0
384,192,227177,1,0,0:0:0
256,320,227367,1,0,0:0:0
256,256,227557,1,0,0:0:0
256,192,227747,1,0,0:0:0
256,128,227937,1,0,0:0:0
192,192,228317,5,0,0:0:0
320,192,228696,1,0,0:0:0
256,256,229076,1,0,0:0:0
256,128,229456,1,0,0:0:0
16,368,231165,2,0,P|512:0|512:0|0:0|0:0|0:272,1,1401.25000439584
0,384,237241,6,0,P|512:0|512:0|512:384|512:384|432:384|432:384|432:224,1,1258.7500039488
160,160,243317,5,0,0:0:0
192,160,243506,1,0,0:0:0
224,160,243696,1,0,0:0:0
288,224,243886,5,0,0:0:0
320,224,244076,1,0,0:0:0
352,224,244266,1,0,0:0:0
352,160,244456,5,0,0:0:0
320,160,244646,1,0,0:0:0
288,160,244836,1,0,0:0:0
224,224,245025,5,0,0:0:0
192,224,245215,1,0,0:0:0
160,224,245405,1,0,0:0:0
160,160,245595,5,0,0:0:0
128,128,245785,1,0,0:0:0
96,96,245975,1,0,0:0:0
352,160,246165,5,0,0:0:0
384,128,246355,1,0,0:0:0
416,96,246544,1,0,0:0:0
352,224,246734,5,0,0:0:0
384,256,246924,1,0,0:0:0
416,288,247114,1,0,0:0:0
160,224,247304,5,0,0:0:0
128,256,247494,1,0,0:0:0
96,288,247684,1,0,0:0:0
256,192,247874,5,0,0:0:0
256,192,248063,1,0,0:0:0
256,192,248253,1,0,0:0:0
256,192,248443,1,0,0:0:0
256,192,248633,1,0,0:0:0
256,192,248823,1,0,0:0:0
176,192,249393,6,0,P|336:192|320:208,1,475.000001490115
304,224,251576,5,0,0:0:0
288,288,251956,5,0,0:0:0
256,336,252431,5,0,0:0:0
224,288,253095,5,0,0:0:0
208,224,253570,2,0,P|208:64|304:64,1,285.000000894069
336,80,255089,5,0,0:0:0
352,80,255184,1,0,0:0:0
368,96,255279,1,0,0:0:0
368,112,255374,1,0,0:0:0
352,128,255468,1,0,0:0:0
336,128,255563,1,0,0:0:0
320,112,255658,1,0,0:0:0
320,96,255753,1,0,0:0:0
496,16,256228,6,0,P|0:16|0:16|80:192|80:192|144:64|208:192|256:192|256:192|304:192|384:64|432:192|432:192|496:32,1,1282.50000402331
496,80,261544,6,0,P|496:384|0:384,1,641.250002011655
0,384,264582,6,0,P|480:32,1,593.750001862644
432,16,267620,5,0,0:0:0
384,48,267810,1,0,0:0:0
352,96,268000,1,0,0:0:0
304,112,268190,1,0,0:0:0
320,176,268380,1,0,0:0:0
240,144,268570,1,0,0:0:0
304,240,268760,1,0,0:0:0
192,160,268949,1,0,0:0:0
144,176,269139,1,0,0:0:0
320,288,269329,1,0,0:0:0
96,176,269519,1,0,0:0:0
352,336,269709,1,0,0:0:0
16,368,270658,6,0,P|48:240|144:336|144:144|64:32|224:320|432:176|448:16|192:48,1,641.250002011655
256,96,273696,5,0,0:0:0
208,144,273886,1,0,0:0:0
304,144,274076,1,0,0:0:0
256,192,274266,1,0,0:0:0
208,240,274456,1,0,0:0:0
304,240,274646,1,0,0:0:0
256,288,274836,1,0,0:0:0
304,240,275025,1,0,0:0:0
208,240,275215,1,0,0:0:0
256,192,275405,1,0,0:0:0
304,144,275595,1,0,0:0:0
208,144,275785,1,0,0:0:0
256,96,275975,1,0,0:0:0
96,208,276734,2,0,P|256:0|400:208,1,593.750001862644
320,192,279772,5,0,0:0:0
288,192,279962,1,0,0:0:0
256,192,280152,1,0,0:0:0
224,192,280342,1,0,0:0:0
192,192,280532,1,0,0:0:0
192,224,280722,1,0,0:0:0
224,224,280912,1,0,0:0:0
256,224,281101,1,0,0:0:0
288,224,281291,1,0,0:0:0
320,224,281481,1,0,0:0:0
320,256,281671,1,0,0:0:0
288,256,281861,1,0,0:0:0
256,256,282051,1,0,0:0:0
224,256,282241,1,0,0:0:0
192,256,282431,1,0,0:0:0
112,352,282810,6,0,P|112:16|400:16|400:352,1,617.500001937149
368,336,285848,6,0,P|32:336|448:176,3,427.500001341103
416,176,291924,5,0,0:0:0
384,112,292114,1,0,0:0:0
320,80,292304,1,0,0:0:0
256,80,292494,1,0,0:0:0
192,80,292684,1,0,0:0:0
128,112,292874,1,0,0:0:0
96,176,293063,1,0,0:0:0
128,240,293253,1,0,0:0:0
192,272,293443,1,0,0:0:0
256,272,293633,1,0,0:0:0
320,272,293823,1,0,0:0:0
384,240,294013,1,0,0:0:0
416,176,294203,1,0,0:0:0
384,112,294393,1,0,0:0:0
320,80,294582,1,0,0:0:0
256,80,294772,1,0,0:0:0
192,80,294962,1,0,0:0:0
128,112,295152,1,0,0:0:0
96,176,295342,1,0,0:0:0
128,240,295532,1,0,0:0:0
192,272,295722,1,0,0:0:0
256,272,295912,1,0,0:0:0
320,272,296101,1,0,0:0:0
384,240,296291,1,0,0:0:0
416,176,296481,1,0,0:0:0
352,176,296671,5,0,0:0:0
288,176,296861,1,0,0:0:0
224,176,297051,1,0,0:0:0
160,176,297241,1,0,0:0:0
96,176,298000,6,0,P|96:0|96:0|416:0|416:0|416:192,1,688.750002160667
352,192,301038,5,0,0:0:0
320,144,301228,1,0,0:0:0
256,144,301418,1,0,0:0:0
224,192,301608,1,0,0:0:0
256,240,301798,1,0,0:0:0
320,240,301987,1,0,0:0:0
304,192,302177,1,0,0:0:0
272,192,302367,1,0,0:0:0
256,192,304076,12,0,339013,0:0:0
256,192,340532,5,0,0:0:0
16,192,340722,1,0,0:0:0
496,192,340912,1,0,0:0:0
256,16,341101,1,0,0:0:0
256,368,341291,1,0,0:0:0
80,192,341481,5,0,0:0:0
432,192,341671,1,0,0:0:0
256,80,341861,1,0,0:0:0
256,304,342051,1,0,0:0:0
144,192,342241,5,0,0:0:0
368,192,342431,1,0,0:0:0
256,144,342620,1,0,0:0:0
256,240,342810,1,0,0:0:0
208,192,343000,5,0,0:0:0
304,192,343190,1,0,0:0:0
256,192,343380,1,0,0:0:0
256,192,343570,1,0,0:0:0
256,192,343760,6,0,P|256:96|368:192|256:256|256:256|176:192|256:80|256:80|384:192|256:304|256:304|144:192|144:192|256:32|256:32|400:192|400:192|256:352|256:352|96:192|96:192|256:0,1,1900.00000596046
256,192,352684,5,0,0:0:0
208,192,352874,1,0,0:0:0
256,144,353063,5,0,0:0:0
304,192,353253,1,0,0:0:0
256,240,353443,1,0,0:0:0
160,192,353633,5,0,0:0:0
256,96,353823,1,0,0:0:0
352,192,354013,1,0,0:0:0
256,288,354203,1,0,0:0:0
0,128,354582,6,0,P|0:-16|0:-16|96:-16|96:-16|96:144|96:144|96:48|96:48|0:48|0:48|160:48|160:48|160:160|160:160|176:48|176:48|224:48|224:48|224:160|224:160|272:160|272:160|272:48|272:48|352:48|352:48|352:160|352:160|288:160|288:160|352:176|352:176|352:288|352:288|288:288|288:288|400:160|400:160|400:48|400:48|464:48|464:48|464:112|464:112|400:112|400:112|400:176|480:176|480:176|512:-16|512:-16|512:176,1,2755.00000864267
0,368,365975,6,0,P|0:192|0:192|64:192|64:192|64:288|64:288|0:288|0:288|80:288|80:288|80:384|80:384|0:384|0:384|112:384|112:384|112:256|112:256|192:256|192:256|192:304|192:304|112:304|112:304|112:368|112:368|192:368|192:368|224:368|224:368|224:256|224:256|288:256|288:256|288:368|288:368|240:368|240:368|336:368|336:368|336:176|336:176|336:272|336:272|384:272|384:272|336:288|336:288|336:352|336:352|416:368|416:368|464:336|464:336|416:304|416:304|464:256|464:256,1,2422.50000759959
0,192,376228,6,0,P|240:192|240:192|288:64|288:64|320:320|320:320|368:192|368:192|544:192,1,973.750003054736
240,192,377177,1,0,0:0:0
288,64,377747,1,0,0:0:0
320,320,378791,1,0,0:0:0
368,192,379361,1,0,0:0:0
