osu file format v14

[General]
AudioFilename: Crow Song (Yui ver.).mp3
AudioLeadIn: 0
PreviewTime: -1
Countdown: 1
SampleSet: None
StackLeniency: 0.7
Mode: 0
LetterboxInBreaks: 1
WidescreenStoryboard: 0

[Editor]
DistanceSpacing: 0.5
BeatDivisor: 4
GridSize: 32
TimelineZoom: 1

[Metadata]
Title:Crow Song (Yui ver.)
TitleUnicode:Crow Song (Yui ver.)
Artist:Girls Dead Monster
ArtistUnicode:Girls Dead Monster
Creator:pkhg
Version:yui <3
Source:
Tags:
BeatmapID:862020
BeatmapSetID:396187

[Difficulty]
HPDrainRate:5
CircleSize:4
OverallDifficulty:5
ApproachRate:9
SliderMultiplier:1.6
SliderTickRate:1

[Events]
//Background and Video events
0,0,"goddess.jpg",0,0
//Break Periods
//Storyboard Layer 0 (Background)
//Storyboard Layer 1 (Fail)
//Storyboard Layer 2 (Pass)
//Storyboard Layer 3 (Foreground)
//Storyboard Sound Samples

[TimingPoints]
221,344.827586206897,4,1,0,100,1,0

[HitObjects]
79,278,181,5,8,0:0:0:0:
93,249,267,1,0,0:0:0:0:
117,229,353,1,0,0:0:0:0:
148,219,439,1,0,0:0:0:0:
179,222,525,5,8,0:0:0:0:
211,245,611,1,0,0:0:0:0:
250,241,697,1,0,0:0:0:0:
275,212,783,1,0,0:0:0:0:
275,173,870,5,8,0:0:0:0:
254,131,956,1,0,0:0:0:0:
267,86,1042,1,0,0:0:0:0:
307,61,1128,1,0,0:0:0:0:
353,70,1215,5,8,0:0:0:0:
389,106,1301,1,0,0:0:0:0:
388,156,1387,1,0,0:0:0:0:
353,192,1473,1,0,0:0:0:0:
302,192,1560,6,0,L|221:187,1,80
77,272,1905,2,0,L|158:267,1,80,8|0,0:0|0:0,0:0:0:0:
269,317,2249,1,0,0:0:0:0:
302,192,2422,1,0,0:0:0:0:
200,100,2594,2,0,P|202:140|206:184,1,80,8|0,0:0|0:0,0:0:0:0:
269,317,2939,6,0,P|272:277|274:237,1,80
200,100,3284,1,8,0:0:0:0:
194,263,3456,1,0,0:0:0:0:
194,263,3543,1,8,0:0:0:0:
194,263,3629,1,0,0:0:0:0:
286,143,3801,1,0,0:0:0:0:
138,174,3974,2,0,P|96:170|57:167,1,80,8|0,0:0|0:0,0:0:0:0:
0,97,4232,1,0,0:0:0:0:
18,81,4318,6,0,P|57:77|97:74,1,80
206,136,4663,2,0,P|245:139|285:142,1,80,8|0,0:0|0:0,0:0:0:0:
383,68,5008,1,0,0:0:0:0:
295,157,5181,2,0,P|291:196|288:236,1,80,0|8,0:0|0:0,0:0:0:0:
383,333,5525,1,0,0:0:0:0:
453,198,5698,6,0,P|413:198|373:202,1,80
215,152,6043,2,0,P|254:152|294:156,1,80,8|0,0:0|0:0,0:0:0:0:
360,89,6301,1,8,0:0:0:0:
343,77,6387,2,0,P|303:77|263:81,1,80
135,147,6732,2,0,P|174:147|214:151,1,80,8|0,0:0|0:0,0:0:0:0:
226,161,6991,1,0,0:0:0:0:
236,170,7077,5,0,0:0:0:0:
170,310,7249,2,0,P|167:269|165:231,1,80
250,120,7594,1,0,0:0:0:0:
335,221,7767,2,0,L|295:219|255:217,1,80
135,147,8112,2,0,P|95:148|55:150,1,80
165,248,8456,5,0,0:0:0:0:
223,116,8629,2,0,P|221:73|219:31,1,80
338,141,8974,1,0,0:0:0:0:
338,141,9060,1,0,0:0:0:0:
338,141,9146,2,0,P|335:180|334:220,1,80
402,336,9491,1,0,0:0:0:0:
282,298,9663,1,0,0:0:0:0:
282,298,9749,1,0,0:0:0:0:
282,298,9835,6,0,P|242:295|202:294,1,80
48,344,10181,2,0,P|87:342|127:340,1,80
181,214,10525,1,0,0:0:0:0:
282,298,10698,1,0,0:0:0:0:
328,165,10870,2,0,P|326:123|323:76,1,80
256,19,11129,1,0,0:0:0:0:
246,37,11215,6,0,P|243:76|241:116,1,80
278,244,11560,1,0,0:0:0:0:
407,155,11732,1,0,0:0:0:0:
407,155,11818,1,0,0:0:0:0:
407,155,11905,2,0,P|367:159|328:165,1,80
191,240,12249,1,0,0:0:0:0:
156,259,12335,1,0,0:0:0:0:
117,258,12421,1,0,0:0:0:0:
83,237,12507,1,0,0:0:0:0:
66,201,12594,6,0,P|67:158|70:113,1,80
199,54,12939,2,0,P|200:93|202:133,1,80
117,258,13284,1,0,0:0:0:0:
216,323,13456,1,0,0:0:0:0:
339,222,13629,2,0,P|299:224|260:228,1,80
136,317,13974,6,0,P|175:319|215:322,1,80
325,384,14318,1,0,0:0:0:0:
378,266,14491,1,0,0:0:0:0:
378,266,14577,1,0,0:0:0:0:
378,266,14663,2,0,P|376:225|375:185,1,80
294,58,15008,2,0,P|292:97|291:137,1,80
244,213,15267,1,0,0:0:0:0:
229,199,15353,6,0,P|189:197|149:196,1,80
24,287,15698,2,0,P|63:285|103:284,1,80
223,347,16043,1,0,0:0:0:0:
323,215,16215,2,0,P|283:213|243:212,1,80
223,347,16560,1,0,0:0:0:0:
152,213,16732,6,0,P|156:171|162:122,1,80
266,55,17077,1,0,0:0:0:0:
320,195,17249,1,0,0:0:0:0:
320,195,17335,1,0,0:0:0:0:
320,195,17421,2,0,P|279:190|241:186,1,80
145,83,17767,1,0,0:0:0:0:
85,227,17939,1,0,0:0:0:0:
85,227,18025,1,0,0:0:0:0:
85,227,18112,6,0,P|87:267|91:306,1,80
223,347,18456,2,0,P|225:307|229:268,1,80
327,175,18801,1,0,0:0:0:0:
357,315,18974,1,0,0:0:0:0:
246,237,19146,2,0,P|204:233|163:231,1,80
51,128,19491,6,0,P|90:125|130:122,1,80
237,40,19836,2,0,P|276:42|316:45,1,80
378,123,20094,1,0,0:0:0:0:
360,116,20181,2,0,P|320:118|280:121,1,80
209,228,20525,1,0,0:0:0:0:
334,276,20698,1,0,0:0:0:0:
334,276,20784,1,0,0:0:0:0:
334,276,20870,6,0,P|332:237|330:197,1,80
382,43,21215,2,0,P|379:82|377:122,1,80
473,233,21560,1,0,0:0:0:0:
454,92,21732,1,0,0:0:0:0:
345,193,21905,2,0,P|303:190|264:187,1,80
121,130,22249,6,0,P|160:126|200:124,1,80
345,193,22594,1,0,0:0:0:0:
238,274,22767,1,0,0:0:0:0:
238,274,22853,1,0,0:0:0:0:
238,274,22939,1,0,0:0:0:0:
289,118,23112,1,0,0:0:0:0:
176,209,23284,1,0,0:0:0:0:
155,242,23370,1,0,0:0:0:0:
153,282,23456,1,0,0:0:0:0:
169,317,23542,1,0,0:0:0:0:
201,341,23629,6,0,P|241:344|288:348,1,80
434,274,23974,2,0,P|394:276|354:280,1,80
222,312,24318,1,0,0:0:0:0:
295,197,24491,2,0,P|292:157|288:117,1,80
203,15,24836,1,0,0:0:0:0:
216,158,25008,6,0,P|174:154|134:151,1,80
37,245,25353,2,0,P|76:241|116:238,1,80
222,312,25698,1,0,0:0:0:0:
295,197,25870,1,0,0:0:0:0:
193,101,26043,2,0,P|196:141|202:193,1,80
297,365,26387,6,0,P|300:325|304:285,1,80
374,160,26732,1,0,0:0:0:0:
444,292,26905,1,0,0:0:0:0:
309,254,27077,2,0,P|269:250|225:248,1,80
82,190,27422,2,0,P|122:186|166:184,1,80
301,226,27767,5,0,0:0:0:0:
256,358,27939,1,0,0:0:0:0:
157,263,28112,2,0,L|159:223|161:183,1,80
244,60,28456,2,0,P|246:99|248:139,1,80
296,305,28801,2,0,L|298:265|300:225,1,80
157,103,29146,6,0,P|159:142|161:182,1,80
67,298,29491,1,0,0:0:0:0:
81,156,29663,1,0,0:0:0:0:
209,219,29836,2,0,P|250:215|299:210,1,80
375,312,30181,2,0,P|335:308|296:305,1,80
193,221,30525,6,0,P|153:224|113:228,1,80
28,124,30870,2,0,P|67:127|107:131,1,80
208,61,31215,1,0,0:0:0:0:
273,175,31387,1,0,0:0:0:0:
202,300,31560,2,0,P|195:260|193:221,1,80
282,95,31905,6,0,P|279:134|272:174,1,80
174,255,32249,1,0,0:0:0:0:
199,124,32422,1,0,0:0:0:0:
91,225,32594,2,0,P|93:264|100:304,1,80
201,384,32939,1,0,0:0:0:0:
275,278,33112,1,0,0:0:0:0:
391,381,33284,6,0,P|350:376|311:371,1,80
193,301,33629,2,0,P|152:305|113:310,1,80
275,278,33974,1,0,0:0:0:0:
201,384,34147,1,0,0:0:0:0:
125,256,34318,1,0,0:0:0:0:
125,256,34405,1,0,0:0:0:0:
125,256,34491,1,0,0:0:0:0:
210,130,34663,6,0,P|208:171|205:209,1,80
270,357,35008,2,0,P|273:317|275:278,1,80
