osu file format v9

[General]
AudioFilename: Crow Song(Yui Ver.).mp3
AudioLeadIn: 0
PreviewTime: 41614
Countdown: 1
SampleSet: Normal
StackLeniency: 0.7
Mode: 0
LetterboxInBreaks: 1

[Editor]
Bookmarks: 23655,202275
DistanceSpacing: 1
BeatDivisor: 4
GridSize: 8

[Metadata]
Title:Crow Song (Yui Ver.)
Artist:Girls Dead Monster
Creator:Lybydose
Version:Insane
Source:Angel Beats!
Tags:

[Difficulty]
HPDrainRate:6
CircleSize:4
OverallDifficulty:8
ApproachRate:8
SliderMultiplier:1.6
SliderTickRate:2

[Events]
//Background and Video events
0,0,"bg.jpg"
//Break Periods
2,69400,79485
2,129400,139484
//Storyboard Layer 0 (Background)
//Storyboard Layer 1 (Fail)
//Storyboard Layer 2 (Pass)
//Storyboard Layer 3 (Foreground)
//Storyboard Sound Samples
//Background Colour Transformations
3,100,163,162,255

[TimingPoints]
235,344.827586206897,4,1,0,100,1,0
41528,-83.3333333333333,4,1,0,100,0,0
52562,-76.9230769230769,4,1,0,100,0,0
66355,-100,4,1,0,100,0,0
85666,-83.3333333333333,4,1,0,100,0,0
96700,-76.9230769230769,4,1,0,100,0,0
107821,-71.4285714285714,4,1,1,100,0,1
118166,344.827586206897,4,1,1,100,1,0
118166,-76.9230769230769,4,1,1,100,0,0
139890,-83.3333333333333,4,1,0,100,0,0
151528,-133.333333333333,4,1,0,100,0,0
159459,-100,4,1,0,100,0,0
169113,-83.3333333333333,4,1,0,100,0,0
180148,-76.9230769230769,4,1,0,100,0,0
191268,-71.4285714285714,4,1,0,100,0,1
212648,344.827586206897,4,1,0,100,1,1
212648,-76.9230769230769,4,1,0,100,0,1
223596,-100,4,1,0,100,0,0
235320,-100,4,2,0,5,0,0

[Colours]
Combo1 : 255,74,165
Combo2 : 235,206,1
Combo3 : 5,79,250
Combo4 : 250,22,62

[HitObjects]
256,80,23683,1,0
192,128,23855,1,0
112,136,24028,1,0
56,192,24200,1,0
48,273,24372,2,0,B|88:352|179:344,1,160
256,320,24890,1,0
332,344,25062,2,0,B|424:352|464:272,2,160
352,264,25924,1,0
408,200,26097,1,0
392,120,26269,1,0
320,88,26441,5,0
248,48,26614,2,0,B|80:48,1,160
216,128,27131,1,0
256,200,27303,2,0,B|424:200,1,160
296,280,27821,1,0
248,344,27993,2,0,B|80:344,1,160
56,272,28510,2,0,B|80:184,1,80
152,224,28855,2,0,B|216:144,1,80
256,104,29200,5,0
328,64,29372,1,0
400,104,29545,1,0
328,160,29717,1,0
328,160,29890,2,0,B|328:264|432:296,1,160
184,160,30579,2,0,B|184:264|80:296,1,160
256,344,31269,1,0
256,264,31441,1,0
256,184,31614,1,0
256,104,31786,1,0
368,56,31959,5,0
368,56,32131,2,0,B|414:125|367:207,1,160
144,208,32648,1,0
144,208,32821,2,0,B|96:127|143:57,1,160
288,40,33338,2,0,B|400:40,1,80
424,96,33683,1,0
456,168,33855,2,0,B|488:264|424:336,1,160
352,304,34372,1,0
312,296,34459,1,0
272,288,34545,1,0
184,320,34717,6,0,B|16:320,2,160
256,192,35752,1,0
328,64,36097,2,0,B|496:64,2,160
256,192,37131,1,0
96,192,37476,5,0
256,112,37821,1,0
416,192,38166,1,0
256,272,38510,1,0
120,64,38855,1,0
392,64,39200,1,0
392,320,39545,1,0
120,320,39890,1,0
40,184,40235,6,0,B|104:120,1,80
239,142,40752,1,0
280,64,40924,1,0
313,85,41010,1,0
342,113,41097,1,0
362,147,41183,1,0
374,184,41269,1,0
372,223,41355,1,0
360,261,41441,1,0
335,293,41528,1,0
301,320,41614,6,0,B|218:369|97:331,2,192.000004577637
264,232,42476,1,0
200,160,42648,1,0
24,240,42993,1,0
72,160,43166,1,0
136,88,43338,2,0,B|224:16|344:56,1,192.000004577637
336,144,43855,1,0
296,232,44028,2,0,B|384:304|504:264,2,192.000004577637
88,192,45062,5,0
120,96,45235,1,0
200,40,45407,1,0
376,64,45752,2,0,B|432:88|432:168,1,96.0000022888184
328,352,46097,2,0,B|272:328|272:248,1,96.0000022888184
440,216,46441,2,0,B|440:272|368:312,1,96.0000022888184
280,160,46786,1,0
280,160,46872,1,0
280,160,46959,1,0
136,48,47131,6,0,B|40:96|56:216,2,192.000004577637
232,24,47993,1,0
320,56,48166,1,0
472,168,48510,1,0
376,144,48683,1,0
320,224,48855,2,0,B|288:272|240:280|192:272|160:224,1,192.000004577637
240,168,49372,1,0
240,168,49545,2,0,B|240:360,2,192.000004577637
409,55,50579,6,0,B|437:7|487:8,2,96.0000022888184
103,55,51269,2,0,B|75:7|25:8,1,96.0000022888184
7,144,51614,2,0,B|104:144,1,96.0000022888184
104,240,51959,2,0,B|8:240,1,96.0000022888184
25,375,52303,2,0,B|75:377|103:328,1,96.0000022888184
232,183,52648,6,0,B|232:120|271:85|318:63|376:88,1,207.99999628067
480,272,53338,1,0
392,328,53510,1,0
288,344,53683,1,0
80,320,54028,1,0
24,232,54200,1,0
24,118,54372,2,0,B|72:8|190:22,1,207.99999628067
256,104,54890,1,0
321,22,55062,2,0,B|440:8|488:120,1,207.99999628067
487,117,55752,5,0
256,288,56097,1,0
336,160,56269,1,0
176,160,56441,1,0
336,308,56786,2,0,B|392:291|404:237,1,103.999998140335
304,76,57131,2,0,B|257:47|205:74,1,103.999998140335
107,237,57476,2,0,B|119:291|176:308,1,103.999998140335
256,192,57821,1,0
256,192,57907,1,0
256,192,57993,1,0
112,64,58166,6,0,B|8:112|8:240,1,207.99999628067
400,320,58855,2,0,B|504:272|504:144,1,207.99999628067
320,256,59545,1,0
320,256,59717,1,0
240,320,59890,2,0,B|136:272|136:144,1,207.99999628067
224,96,60407,1,0
312,40,60579,2,0,B|416:88|416:216,2,207.99999628067
104,48,61614,1,0
72,144,61786,1,0
88,248,61959,1,0
304,344,62303,6,0,B|408:344,1,103.999998140335
312,232,62648,2,0,B|208:232,1,103.999998140335
288,112,62993,2,0,B|392:112,1,103.999998140335
240,16,63338,1,0
240,16,63424,1,0
240,16,63510,1,0
344,32,63683,1,0
448,40,63855,5,0
480,128,64028,2,0,B|440:240,1,103.999998140335
368,176,64372,2,0,B|272:216,1,103.999998140335
216,144,64717,2,0,B|112:64,1,103.999998140335
48,48,65062,2,0,B|40:152,1,103.999998140335
120,184,65407,2,0,B|152:288,1,103.999998140335
232,264,65752,2,0,B|336:296,1,103.999998140335
368,216,66097,1,0
368,216,66269,1,0
456,192,66441,5,0
464,80,66786,1,0
352,88,67131,2,0,B|312:16,2,80
160,88,67821,2,0,B|200:16,2,80
256,96,68338,1,0
256,184,68510,1,0
256,216,68597,1,0
256,240,68683,1,0
256,264,68769,1,0
256,288,68855,1,0
336,352,69028,1,0
176,352,69200,1,0
120,88,80235,6,0,B|48:160|72:272,2,160
256,184,81269,1,0
312,120,81441,1,0
392,88,81614,2,0,B|464:160|440:272,2,160
256,56,82648,1,0
256,288,82993,6,0,B|96:264,1,160
256,288,83683,2,0,B|416:264,1,160
256,200,84372,2,0,B|232:104|144:88,1,160
256,200,85062,2,0,B|280:104|368:88,1,160
385,115,85493,1,0
408,142,85579,1,0
425,173,85666,1,0
437,206,85752,6,0,B|421:326|285:350,2,192.000004577637
498,131,86614,1,0
448,48,86786,1,0
256,128,87131,1,0
256,224,87304,1,0
190,295,87476,2,0,B|88:272|88:153,1,192.000004577637
128,64,87993,1,0
165,153,88166,2,0,B|165:271|61:295,2,192.000004577637
312,248,89200,5,0
296,152,89372,1,0
224,80,89545,1,0
56,320,89890,2,0,B|32:200,1,96.0000022888184
168,144,90235,2,0,B|184:240,1,96.0000022888184
120,344,90579,2,0,B|104:248,1,96.0000022888184
240,176,90924,1,0
240,176,91010,1,0
240,176,91097,1,0
332,343,91269,6,0,B|464:328|480:208,2,192.000004577637
240,320,92131,1,0
176,248,92304,1,0
304,112,92648,1,0
240,40,92821,1,0
160,96,92993,2,0,B|48:112|48:256,1,192.000004577637
104,312,93510,1,0
200,336,93683,2,0,B|379:265,2,192.000004577637
392,352,94717,5,0
464,288,94890,1,0
440,192,95062,1,0
256,128,95407,2,0,B|256:64|336:56,1,96.0000022888184
320,192,95752,2,0,B|384:192|392:272,1,96.0000022888184
256,256,96097,2,0,B|256:320|176:328,1,96.0000022888184
192,192,96441,2,0,B|128:192|120:112,1,96.0000022888184
280,32,96786,6,0,B|340:15|384:44|418:84|409:146,2,207.99999628067
184,64,97648,1,0
120,144,97821,1,0
168,344,98166,1,0
248,272,98338,1,0
322,362,98510,2,0,B|440:376|488:266,1,207.99999628067
408,192,99028,1,0
488,120,99200,2,0,B|440:10|321:24,1,207.99999628067
136,192,99890,5,0
80,360,100235,1,0
24,272,100407,1,0
32,168,100579,1,0
221,122,100924,2,0,B|241:191|320:192,1,103.999998140335
431,123,101269,2,0,B|467:87|432:24,1,103.999998140335
348,135,101614,2,0,B|400:224,1,103.999998140335
312,296,101959,1,0
312,296,102045,1,0
312,296,102131,1,0
144,344,102304,6,0,B|40:296|40:168,1,207.99999628067
368,344,102993,2,0,B|472:296|472:168,1,207.99999628067
256,256,103683,1,0
256,256,103855,1,0
168,208,104028,2,0,B|200:160|256:149|312:160|344:208,1,207.99999628067
424,256,104545,1,0
344,304,104717,2,0,B|312:352|256:363|200:352|168:304,2,207.99999628067
480,152,105752,2,0,B|432:48,2,103.999998140335
407,344,106441,6,0,B|360:368|307:345,1,103.999998140335
206,216,106786,2,0,B|258:193|306:217,1,103.999998140335
204,345,107131,2,0,B|152:368|104:344,1,103.999998140335
48,192,107476,1,0
48,192,107562,1,0
48,192,107648,1,0
176,56,107821,5,0
288,80,107993,1,0
208,160,108166,1,0
312,192,108338,1,0
232,272,108510,1,0
336,312,108683,1,0
440,240,108855,2,0,B|416:112,1,111.999997329712
92,129,109200,2,0,B|72:240,1,111.999997329712
368,264,109545,2,0,B|312:120,1,111.999997329712
184,160,109890,2,0,B|143:264,1,111.999997329712
256,328,110235,1,0
256,216,110407,1,0
256,104,110579,6,0,B|264:40|320:16,1,111.999997329712
256,104,110924,2,0,B|248:40|192:16,1,111.999997329712
96,72,111269,2,0,B|40:112|48:176,1,111.999997329712
120,328,111614,2,0,B|176:288|168:224,1,111.999997329712
168,120,111959,1,0
168,120,112131,1,0
256,248,112303,1,0
256,248,112476,1,0
344,120,112648,2,0,B|400:224,1,111.999997329712
384,344,112993,2,0,B|328:240,1,111.999997329712
488,224,113338,5,0
456,120,113510,1,0
368,48,113683,1,0
256,32,113855,1,0
144,48,114028,1,0
56,120,114200,1,0
24,224,114373,1,0
64,328,114545,2,0,B|112:384|200:360,1,111.999997329712
352,304,114890,1,0
168,264,115062,1,0
352,216,115235,1,0
168,184,115407,1,0
352,128,115579,2,0,B|304:72|216:96,1,111.999997329712
176,16,115924,1,0
72,24,116097,6,0,B|88:136,1,111.999997329712
176,272,116441,2,0,B|160:160,1,111.999997329712
224,8,116786,2,0,B|240:120,1,111.999997329712
344,248,117131,2,0,B|328:136,1,111.999997329712
360,48,117476,1,0
464,192,117648,1,0
256,192,117821,1,0
48,192,117993,1,0
184,328,118166,6,0,B|280:392|424:344,2,207.99999628067
152,216,119028,1,0
176,104,119200,1,0
328,56,119545,2,0,B|232:-8|88:40,2,207.99999628067
360,168,120407,1,0
336,280,120579,1,0
128,304,120924,6,0,B|48:216|96:88,2,207.99999628067
192,224,121786,1,0
240,136,121959,1,0
416,24,122303,1,0
464,120,122476,1,0
472,224,122648,2,0,B|464:336|336:352,2,155.999997210503
384,160,123338,2,0,B|376:96|320:80,1,103.999998140335
160,80,123683,6,0,B|80:176|128:288,2,207.99999628067
256,40,124545,1,0
256,40,124717,1,0
352,304,125062,2,0,B|432:208|384:96,2,207.99999628067
256,344,125924,1,0
256,344,126096,1,0
128,96,126441,5,0
384,96,126786,1,0
192,248,127131,1,0
320,248,127304,1,0
256,152,127476,1,0
40,224,127821,5,0
72,320,127993,1,0
72,320,128079,1,0
72,320,128166,1,0
168,352,128338,1,0
209,355,128424,1,0
250,351,128510,1,0
291,343,128597,1,0
331,332,128683,1,0
369,316,128769,1,0
399,287,128855,1,0
421,252,128941,1,0
435,212,129028,1,0
439,170,129114,1,0
439,128,129200,1,0
472,64,140234,6,0,B|428:152,1,96.0000022888184
384,56,140579,2,0,B|340:144,1,96.0000022888184
296,48,140924,2,0,B|252:136,1,96.0000022888184
208,40,141269,2,0,B|164:128,1,96.0000022888184
104,40,141614,1,0
104,40,141786,2,0,B|40:120|80:224,1,192.000004577637
0,224,142303,1,0
0,224,142476,2,0,B|224:224,1,192.000004577637
194,311,142993,6,0,B|304:304|289:175,1,192.000004577637
326,164,143424,1,0
362,177,143510,2,0,B|347:305|459:313,1,192.000004577637
488,224,144027,1,0
472,128,144200,1,0
408,56,144372,6,0,B|296:80,1,96.0000022888184
104,56,144717,2,0,B|197:76,1,96.0000022888184
256,152,145062,2,0,B|256:344,1,192.000004577637
160,328,145579,1,0
80,280,145752,6,0,B|16:184,1,96.0000022888184
96,136,146097,2,0,B|160:128,2,48.0000011444092
144,216,146441,2,0,B|248:256,1,96.0000022888184
328,256,146786,2,0,B|304:192,2,48.0000011444092
384,336,147131,2,0,B|448:248,1,96.0000022888184
448,160,147476,2,0,B|496:120,2,48.0000011444092
376,104,147820,1,0
288,72,147993,1,0
192,64,148165,1,0
96,96,148337,1,0
40,184,148510,6,0,B|24:370|197:376,1,288.000006866455
308,375,149200,2,0,B|480:369|464:177,1,288.000006866455
440,89,149889,5,0
414,54,149975,1,0
372,41,150062,1,0
332,59,150148,1,0
315,98,150234,1,0
319,140,150320,1,0
330,181,150406,1,0
315,222,150493,1,0
281,248,150579,1,0
238,249,150666,5,0
203,223,150752,1,0
188,182,150839,1,0
199,141,150925,1,0
203,99,151011,1,0
186,60,151097,1,0
146,42,151183,1,0
104,55,151269,2,0,B|56:72|40:128,1,96.0000022888184
48,192,151614,5,0
80,256,151786,1,0
128,312,151959,2,0,B|264:344,1,119.999996423721
312,312,152475,1,0
360,256,152648,2,0,B|421:128,2,119.999996423721
312,312,153510,1,0
272,256,153682,1,0
240,192,153855,1,0
208,128,154027,5,0
72,72,154544,1,0
72,72,154717,1,0
288,72,155234,1,0
424,120,155579,1,0
448,264,155924,1,0
448,264,156097,2,0,B|384:304,1,59.9999982118607
328,296,156441,2,0,B|264:336,1,59.9999982118607
204,327,156786,5,0
56,328,157303,1,0
56,328,157475,1,0
168,144,157993,1,0
304,96,158337,1,0
384,216,158682,1,0
384,216,158855,1,0
288,328,159200,1,0
112,256,159545,6,0,B|24:224|32:112,2,160
192,256,160406,1,0
192,256,160579,1,0
376,320,160924,2,0,B|464:288,1,80
496,216,161268,1,0
416,80,161614,2,0,B|336:32,1,80
272,64,161958,1,0
240,96,162044,1,0
200,104,162131,1,0
112,72,162303,6,0,B|48:136|96:248,2,160
256,200,163338,1,0
176,360,163682,1,0
256,328,163855,1,0
336,360,164028,6,0,B|400:296|352:184,1,160
336,128,164544,1,0
280,64,164717,1,0
256,280,165062,5,0
168,192,165406,1,0
256,104,165751,1,0
344,192,166097,1,0
448,328,166441,5,0
64,328,166786,1,0
256,104,167131,1,0
256,344,167475,1,0
256,344,167562,2,0,B|320:232,1,120
416,216,167993,5,0
416,216,168337,1,0
352,144,168510,1,0
317,156,168597,1,0
284,170,168683,1,0
251,184,168768,1,0
216,193,168855,1,0
180,200,168941,1,0
144,202,169027,1,0
101,195,169113,1,0
75,178,169200,6,0,B|91:58|227:34,2,192.000004577637
14,253,170062,1,0
64,336,170234,1,0
256,256,170579,1,0
256,160,170752,1,0
322,89,170924,2,0,B|424:112|424:231,1,192.000004577637
384,320,171441,1,0
344,232,171614,2,0,B|344:114|448:90,2,192.000004577637
200,136,172648,5,0
216,232,172820,1,0
288,304,172993,1,0
456,64,173338,2,0,B|480:184,1,96.0000022888184
344,240,173683,2,0,B|328:144,1,96.0000022888184
392,40,174027,2,0,B|408:136,1,96.0000022888184
272,208,174372,1,0
272,208,174458,1,0
272,208,174545,1,0
180,41,174717,6,0,B|48:56|32:176,2,192.000004577637
272,64,175579,1,0
336,136,175752,1,0
208,272,176096,1,0
272,344,176269,1,0
352,288,176441,2,0,B|464:272|464:128,1,192.000004577637
408,72,176958,1,0
312,48,177131,2,0,B|133:119,2,192.000004577637
120,32,178165,5,0
48,96,178338,1,0
72,192,178510,1,0
256,256,178855,2,0,B|256:320|176:328,1,96.0000022888184
192,192,179200,2,0,B|128:192|120:112,1,96.0000022888184
256,128,179545,2,0,B|256:64|336:56,1,96.0000022888184
320,192,179889,2,0,B|384:192|392:272,1,96.0000022888184
232,352,180234,6,0,B|172:369|128:340|94:300|103:238,2,207.99999628067
328,320,181096,1,0
392,240,181269,1,0
344,40,181614,1,0
264,112,181786,1,0
190,22,181958,2,0,B|72:8|24:118,1,207.99999628067
104,192,182476,1,0
24,264,182648,2,0,B|72:374|191:360,1,207.99999628067
376,192,183338,5,0
432,24,183683,1,0
488,112,183855,1,0
480,216,184027,1,0
291,262,184372,2,0,B|271:193|192:192,1,103.999998140335
81,261,184717,2,0,B|45:297|80:360,1,103.999998140335
164,249,185062,2,0,B|112:160,1,103.999998140335
200,88,185407,1,0
200,88,185493,1,0
200,88,185579,1,0
368,40,185752,6,0,B|472:88|472:216,1,207.99999628067
144,40,186441,2,0,B|40:88|40:216,1,207.99999628067
256,128,187131,1,0
256,128,187303,1,0
344,176,187476,2,0,B|312:224|256:235|200:224|168:176,1,207.99999628067
88,128,187993,1,0
168,80,188165,2,0,B|200:32|256:21|312:32|344:80,2,207.99999628067
32,232,189200,2,0,B|80:336,2,103.999998140335
105,40,189889,6,0,B|152:16|205:39,1,103.999998140335
306,168,190234,2,0,B|254:191|206:167,1,103.999998140335
308,39,190579,2,0,B|360:16|408:40,1,103.999998140335
464,192,190924,1,0
464,192,191010,1,0
464,192,191096,1,0
376,328,191269,5,0
360,216,191441,1,0
296,312,191614,1,0
280,200,191786,1,0
216,296,191959,1,0
200,184,192131,1,0
136,280,192303,2,0,B|64:296|24:240,1,111.999997329712
176,64,192648,2,0,B|248:48|288:104,1,111.999997329712
80,224,192993,2,0,B|8:192|16:104,1,111.999997329712
240,136,193338,2,0,B|312:168|304:256,1,111.999997329712
80,168,193683,2,0,B|48:104|96:56,1,111.999997329712
248,216,194028,6,0,B|280:280|232:328,1,111.999997329712
145,312,194372,1,0
65,232,194544,1,0
65,120,194717,1,0
145,40,194889,1,0
257,16,195062,1,0
369,40,195234,1,0
449,120,195406,1,0
449,232,195579,1,0
369,312,195751,1,0
257,336,195924,1,0
169,176,196096,1,0
337,176,196268,1,0
256,248,196441,1,0
256,248,196613,1,0
256,152,196786,6,0,B|168:64,1,111.999997329712
80,240,197131,2,0,B|160:320,1,111.999997329712
352,319,197476,2,0,B|432:240,1,111.999997329712
335,72,197821,2,0,B|256:152,1,111.999997329712
304,352,198165,1,0
416,320,198337,1,0
464,216,198510,1,0
464,104,198682,1,0
368,48,198855,2,0,B|248:48,1,111.999997329712
120,168,199200,2,0,B|240:168,1,111.999997329712
48,104,199545,5,0
48,216,199717,1,0
96,320,199890,1,0
208,352,200062,1,0
304,288,200234,2,0,B|381:209,1,111.999997329712
256,64,200579,2,0,B|256:184,1,111.999997329712
208,288,200924,2,0,B|131:209,1,111.999997329712
152,96,201268,1,0
256,16,201441,1,0
256,16,201527,1,0
256,16,201613,1,0
360,96,201786,1,0
256,184,201958,1,0
256,184,202044,1,0
256,184,202131,1,0
392,328,202303,6,0,B|459:316|488:231,1,111.999997329712
432,80,202648,2,0,B|376:40|296:80,1,111.999997329712
216,184,202993,2,0,B|199:250|266:310,1,111.999997329712
400,216,203338,1,0
331,128,203510,1,0
223,93,203683,1,0
113,113,203855,1,0
35,193,204027,1,0
40,305,204200,1,0
120,382,204372,2,0,B|202:282,1,111.999997329712
394,213,204717,2,0,B|312:313,1,111.999997329712
131,278,205062,6,0,B|172:231|212:181,1,111.999997329712
298,134,205406,1,0
409,146,205579,1,0
484,228,205751,1,0
445,333,205924,1,0
336,368,206097,2,0,B|216:368,1,111.999997329712
288,144,206441,2,0,B|408:144,1,111.999997329712
264,336,206786,2,0,B|168:264,1,111.999997329712
360,176,207131,2,0,B|456:248,1,111.999997329712
232,272,207476,2,0,B|200:152,1,111.999997329712
408,232,207821,6,0,B|440:352,1,111.999997329712
328,360,208165,1,0
216,344,208337,1,0
112,304,208510,1,0
64,200,208682,1,0
100,93,208855,2,0,B|134:39|196:37,1,111.999997329712
285,193,209200,2,0,B|251:247|189:249,1,111.999997329712
207,137,209544,1,0
312,98,209717,1,0
416,144,209889,1,0
416,144,210062,1,0
416,256,210234,1,0
416,256,210406,1,0
336,328,210579,6,0,B|288:368|200:344,1,111.999997329712
16,160,210924,2,0,B|64:120|152:144,1,111.999997329712
339,226,211269,2,0,B|237:268,1,111.999997329712
6,274,211614,2,0,B|118:224,1,111.999997329712
208,184,211958,1,0
184,336,212131,5,0
184,336,212217,1,0
184,336,212303,1,0
184,336,212389,1,0
184,336,212475,1,0
184,336,212562,1,0
184,336,212648,2,0,B|328:392|464:368|520:288|567:192|520:96|464:16|328:-8|184:48,2,831.999985122681
64,192,215751,5,0
272,192,216096,2,0,B|152:192,2,103.999998140335
424,288,216786,1,0
424,96,217131,1,0
408,192,217303,2,0,B|472:192,2,51.9999990701676
328,144,217648,1,0
328,240,217820,1,0
328,48,218165,6,0,B|184:-8|48:16|-8:96|-55:192|-8:288|48:368|184:392|328:336,2,831.999985122681
448,192,221268,5,0
240,192,221613,2,0,B|360:192,2,103.999998140335
88,288,222303,1,0
88,96,222648,1,0
104,192,222820,2,0,B|40:192,2,51.9999990701676
200,192,223165,1,0
240,192,223251,1,0
280,192,223337,1,0
320,192,223423,1,0
360,192,223510,1,0
400,192,223596,1,0
440,192,223682,5,0
481,293,223854,1,0
329,345,224199,1,0
249,334,224372,1,0
169,344,224544,1,0
89,337,224716,2,0,B|13:277|54:171,1,160
128,192,225234,5,0
183,39,225579,1,0
263,50,225752,1,0
343,40,225924,1,0
423,47,226096,2,0,B|499:107|458:213,1,160
384,192,226613,5,0
288,320,226958,1,0
216,288,227130,1,0
280,240,227303,1,0
208,208,227475,2,0,B|112:216|72:104,1,160
136,72,227992,1,0
208,40,228165,2,0,B|248:112,1,80
312,64,228510,2,0,B|360:144,1,80
424,96,228854,2,0,B|472:168,1,80
448,240,229199,5,0
448,240,229372,1,0
312,320,229716,1,0
272,248,229889,1,0
208,200,230061,1,0
128,176,230234,2,0,B|32:144|56:32,1,160
136,40,230751,5,0
296,40,231096,1,0
376,56,231269,1,0
320,112,231441,1,0
392,144,231614,2,0,B|488:176|464:288,2,160
336,200,232475,2,0,B|344:296|232:320,1,160
176,272,232992,1,0
120,112,233337,6,0,B|160:48|256:8|352:48|392:112,1,320
256,192,234372,1,0
172,302,234716,2,0,B|196:341|256:366|316:341|341:302,1,200
256,192,235406,12,0,240234
