osu file format v9

[General]
AudioFilename: Crow Song(Yui Ver.).mp3
AudioLeadIn: 0
PreviewTime: 41614
Countdown: 0
SampleSet: Normal
StackLeniency: 0.7
Mode: 0
LetterboxInBreaks: 1

[Editor]
Bookmarks: 151269,159545
DistanceSpacing: 1
BeatDivisor: 4
GridSize: 8

[Metadata]
Title:Crow Song (Yui Ver.)
Artist:Girls Dead Monster
Creator:Lybydose
Version:Clare
Source:Angel Beats!
Tags:Clare

[Difficulty]
HPDrainRate:5
CircleSize:4
OverallDifficulty:5
ApproachRate:8
SliderMultiplier:1.6
SliderTickRate:0.5

[Events]
//Background and Video events
0,0,"bg.jpg"
//Break Periods
2,128366,139484
2,151469,158795
//Storyboard Layer 0 (Background)
//Storyboard Layer 1 (Fail)
//Storyboard Layer 2 (Pass)
//Storyboard Layer 3 (Foreground)
//Storyboard Sound Samples
//Background Colour Transformations
3,100,163,162,255

[TimingPoints]
235,344.827586206897,4,1,1,50,1,0
107821,-100,4,1,1,60,0,1
118166,344.827586206897,4,1,1,50,1,0
191269,-100,4,1,1,60,0,1
212648,344.827586206897,4,1,1,60,1,1
223682,-100,4,1,1,60,0,0
234889,-100,4,1,1,5,0,0

[Colours]
Combo1 : 255,74,165
Combo2 : 235,206,1
Combo3 : 5,79,250
Combo4 : 250,22,62

[HitObjects]
96,88,22303,1,0
176,80,22476,1,0
240,128,22648,1,8
360,240,22993,1,0
224,320,23338,1,8
216,312,23424,1,0
224,304,23510,1,0
216,296,23597,1,0
224,288,23683,5,4
160,240,23855,1,0
200,168,24028,2,0,B|240:152|264:96,2,80,8|0|0
160,240,24545,1,0
128,312,24717,2,0,B|88:296|64:240,2,80,8|0|0
160,240,25235,1,0
240,248,25407,2,0,B|304:200|408:184,1,160,8|0
376,264,25924,2,0,B|376:304|392:352,2,80,0|8|0
385,187,26441,5,0
272,80,26786,1,8
120,128,27131,1,0
120,128,27303,1,0
120,128,27476,1,8
248,224,27821,1,0
248,224,27993,1,0
248,224,28166,1,8
416,136,28510,6,0,B|464:128|480:88,2,80,0|0|8
368,200,29028,2,0,B|368:296,1,80
368,200,29372,1,0
296,160,29545,2,0,B|248:168|232:208,2,80,8|0|0
320,80,30062,1,0
240,96,30235,6,0,B|224:48|168:32,2,80,8|0|0
208,168,30752,1,0
248,240,30924,2,0,B|176:256|98:296,1,160,8|0
98,296,31441,5,0
128,176,31614,1,8
224,112,31786,1,0
288,152,31959,2,0,B|336:224|416:264,1,160,0|8
264,336,32648,1,0
192,312,32821,1,0
112,328,32993,1,8
128,168,33338,1,0
208,168,33510,1,0
264,112,33683,1,8
440,328,34028,6,0,B|400:304|384:256,1,80
400,192,34372,1,8
392,184,34459,1,0
400,176,34545,1,0
392,168,34631,1,0
400,160,34717,5,4
256,88,35062,1,8
104,144,35407,1,0
104,144,35579,2,0,B|104:224,2,80,0|8|0
104,144,36097,1,0
256,200,36441,1,8
400,160,36786,1,0
400,160,36959,2,0,B|400:72,2,80,0|8|0
376,240,37476,5,0
248,144,37821,1,8
104,216,38166,1,0
72,288,38338,1,0
112,352,38510,2,0,B|80:280|72:192,1,160,8|0
224,256,39200,1,8
256,184,39372,1,0
264,104,39545,1,0
312,256,39890,2,0,B|384:296|496:280,2,160,8|0|8
160,216,40924,6,0,B|112:224,7,40
160,216,41614,1,4
312,272,41959,1,8
136,312,42303,2,0,B|88:304|56:248,2,80,0|0|8
160,72,42993,6,0,B|264:72,1,80
392,112,43338,2,0,B|312:112,1,80,8|0
168,184,43683,2,0,B|248:184,1,80
400,240,44028,2,0,B|320:240,1,80,8|0
152,304,44372,5,0
152,304,44717,1,8
304,264,45062,2,0,B|335:234|392:224,1,80
448,200,45407,1,8
304,264,45752,1,0
144,256,46097,2,0,B|68:283,1,80,8|0
120,224,46441,2,0,B|44:251,1,80
64,176,46786,1,8
71,172,46872,1,0
78,168,46959,1,0
85,165,47045,1,0
92,161,47131,6,0,B|242:87,1,160,4|8
248,248,47821,2,0,B|200:336,2,80,0|0|8
376,152,48510,6,0,B|360:248,1,80
232,320,48855,2,0,B|280:248,1,80,8|0
256,96,49200,2,0,B|240:192,1,80
96,240,49545,2,0,B|144:168,1,80,8|0
312,248,49890,6,0,B|351:177|352:64,1,160,0|8
432,232,50579,2,0,B|424:336,2,80,0|0|8
208,184,51269,6,0,B|224:296,1,80
152,120,51614,2,0,B|168:232,1,80,8|0
96,56,51959,2,0,B|112:168,1,80
24,0,52303,2,0,B|40:112,1,80,8|0
104,280,52648,6,0,B|176:248|232:184,1,160,0|8
384,240,53338,1,0
456,208,53510,1,0
464,128,53683,1,8
256,72,54028,6,0,B|244:151,1,80
192,304,54372,2,0,B|184:224,1,80,8|0
152,64,54717,2,0,B|140:143,1,80
88,296,55061,2,0,B|80:216,1,80,8|0
312,200,55407,6,0,B|152:200,1,160,4|8
224,336,56097,1,0
240,256,56269,1,0
232,176,56442,1,8
104,80,56786,2,0,B|128:184,1,80
56,200,57131,2,0,B|48:296,1,80,8|0
128,272,57476,2,0,B|152:360,1,80
208,296,57821,5,8
216,296,57907,1,0
224,296,57993,1,0
232,296,58079,1,0
240,296,58166,5,4
400,264,58510,1,8
240,248,58855,1,0
320,232,59028,1,0
248,200,59200,1,8
80,264,59545,6,0,B|176:248,1,80
264,128,59890,2,0,B|200:176,1,80,8|0
184,336,60235,2,0,B|262:322,1,80,0|0
352,192,60580,2,0,B|287:239,1,80,8|0
32,144,60924,6,0,B|112:160|190:133,1,160,4|8
312,232,61614,2,0,B|360:232|392:264,2,80,0|0|8
80,352,62303,6,0,B|80:272,1,80
152,304,62648,2,0,B|152:224,1,80,8|0
232,248,62993,2,0,B|232:168,1,80
312,176,63338,2,0,B|312:88,1,80,8|0
152,136,63855,5,0
208,192,64028,2,0,B|217:228|249:260,1,80,8|0
320,288,64372,1,0
392,320,64545,1,0
320,288,64717,1,8
352,216,64890,1,0
336,136,65062,1,0
272,88,65235,1,0
200,56,65407,2,0,B|152:56|104:32,1,80,8|0
122,40,65752,1,0
72,104,65925,5,8
232,136,66097,1,8
136,264,66269,1,8
152,264,66614,6,0,B|256:264,1,80,0|8
344,152,67131,2,0,B|384:136|424:152,2,80,0|0|8
192,96,67821,2,0,B|168:144|192:200,2,80,0|0|8
264,136,68338,1,0
320,80,68510,1,0
320,80,68597,1,0
320,80,68683,1,0
320,80,68769,1,0
320,80,68855,1,8
352,240,69200,5,0
272,264,69372,1,0
208,320,69545,2,0,B|182:350|134:350,2,80,8|0|0
144,272,70062,1,0
64,256,70234,2,0,B|75:211|128:192,2,80,8|0|0
56,176,70752,1,0
128,216,70924,2,0,B|204:213|296:152,1,160,8|0
208,120,71441,2,0,B|179:87|184:32,2,80,0|8|0
216,200,71959,5,0
344,288,72303,1,8
456,176,72648,2,0,B|504:88,2,80,0|0|8
296,192,73338,2,0,B|248:104,2,80,0|0|8
144,240,74027,2,0,B|111:313,1,80
56,256,74372,2,0,B|16:176,2,80,8|0|0
136,72,74889,5,0
216,72,75062,1,8
280,120,75235,1,0
320,192,75407,1,0
320,192,75752,1,8
264,248,75924,2,0,B|240:288|264:328,2,80
344,232,76441,2,0,B|376:160|344:40,1,160,8|0
288,120,76958,1,0
360,160,77131,1,8
432,128,77303,1,0
432,128,77476,5,0
296,48,77821,1,8
200,176,78165,1,0
136,224,78338,1,0
176,296,78508,2,0,B|200:208|160:112,1,160,8|0
120,72,79027,1,0
120,72,79200,1,8
280,56,79545,1,0
392,168,79890,1,8
384,176,79977,1,0
376,184,80063,1,0
368,192,80149,1,0
360,200,80235,5,4
240,304,80579,1,8
80,280,80924,1,0
24,128,81269,2,0,B|8:168|32:208,1,80,8|0
224,88,81614,5,0
368,152,81958,1,8
416,304,82303,1,0
96,336,82993,5,0
200,208,83338,1,8
256,360,83683,1,0
320,312,83855,1,0
344,232,84028,2,0,B|420:198|504:192,1,160,8|0
392,72,84717,1,8
232,48,85062,1,0
96,136,85407,1,8
96,136,85579,1,0
96,136,85752,5,4
144,288,86097,2,0,B|224:232|320:208,1,160,8|0
408,288,86614,2,0,B|380:315|332:315,1,80,0|8
72,144,87131,6,0,B|176:128,1,80
264,248,87476,2,0,B|189:223,1,80,8|0
320,136,87821,2,0,B|249:172,1,80
400,224,88166,2,0,B|496:248,1,80,8|0
272,312,88510,5,4
224,160,88855,1,8
384,176,89200,2,0,B|408:264,1,80
344,304,89545,1,8
40,272,89890,6,0,B|144:232,1,80
136,168,90235,2,0,B|60:195,1,80,8|0
0,147,90579,2,0,B|88:115,1,80
128,64,90924,1,8
136,64,91010,1,0
144,64,91097,1,0
152,64,91183,1,0
160,64,91269,6,0,B|320:64,1,160,4|8
368,216,91959,2,0,B|368:264|400:304,2,80,0|0|8
248,320,92648,6,0,B|175:286,1,80
264,152,92993,2,0,B|191:185,1,80,8|0
344,232,93338,2,0,B|264:239,1,80
320,88,93683,2,0,B|240:80,1,80,8|0
80,192,94028,6,0,B|256:192,1,160,4|8
80,192,94717,2,0,B|64:232|80:288,2,80,0|0|8
408,48,95407,6,0,B|448:72|432:120,1,80
352,112,95752,2,0,B|312:136|328:184,1,80,8|0
408,176,96097,2,0,B|448:200|432:248,1,80
352,248,96441,2,0,B|312:272|328:320,1,80,8|0
80,304,96786,6,0,B|160:272|208:208,1,160,4|8
152,56,97476,1,0
136,136,97648,1,0
160,208,97821,1,8
360,80,98166,6,0,B|348:159,1,80
200,96,98510,2,0,B|212:175,1,80,8|0
312,296,98855,2,0,B|300:217,1,80
456,208,99199,2,0,B|468:129,1,80,8|0
256,56,99545,6,0,B|232:120|280:168|256:232,1,160,4|8
104,224,100235,1,0
104,224,100407,1,0
104,224,100580,1,8
136,64,100924,6,0,B|160:168,1,80
232,120,101269,2,0,B|224:216,1,80,8|0
304,208,101614,2,0,B|264:304,1,80
336,328,101959,1,8
344,320,102045,1,0
352,328,102131,1,0
360,320,102217,1,0
368,328,102304,5,4
424,176,102648,1,8
264,200,102993,1,0
264,200,103166,1,0
264,200,103338,1,8
32,320,103683,6,0,B|128:280,1,80
232,328,104028,2,0,B|296:280,1,80,8|0
328,112,104373,2,0,B|408:80,1,80
464,304,104717,2,0,B|496:208,1,80,8|0
240,224,105062,6,0,B|168:248|80:231,1,160,4|8
112,72,105752,2,0,B|72:48|72:0,2,80,0|0|8
272,64,106441,6,0,B|256:104|288:144,1,80
368,128,106786,2,0,B|368:240,1,80,8|0
440,248,107131,2,0,B|421:288|368:296,1,80
304,264,107476,1,8
296,264,107562,1,0
288,264,107648,1,0
280,264,107735,1,0
272,264,107821,5,0
200,296,107993,1,0
128,264,108166,1,8
200,224,108338,1,0
128,192,108510,2,0,B|80:112,1,80,8|0
160,88,108855,1,8
240,80,109028,1,0
320,104,109200,1,8
384,152,109372,5,0
432,216,109545,1,8
432,296,109717,1,0
432,296,109890,1,8
360,256,110062,1,0
288,224,110235,2,0,B|248:208|200:224,1,80,8|0
72,304,110579,6,0,B|112:320|160:304,1,80,8|0
174,154,110924,2,0,B|134:138|86:154,1,80,8|0
32,200,111269,1,8
96,152,111441,1,0
32,200,111614,1,8
16,120,111786,2,0,B|8:48,2,40,0|0|8
88,88,112131,5,0
168,112,112303,2,0,B|208:128|234:163,1,80,8|0
288,216,112648,1,8
320,288,112821,1,0
384,336,112993,2,0,B|416:368|480:368,1,80,12|0
464,288,113338,5,8
488,208,113510,1,0
464,288,113683,1,12
480,208,113855,1,0
464,288,114028,1,12
472,208,114200,1,0
400,176,114372,2,0,B|357:160|344:112,2,80,12|0|8
424,96,114890,6,0,B|424:16,1,80,0|12
344,32,115235,1,0
272,56,115407,1,12
232,128,115579,1,0
200,200,115752,2,0,B|192:240|144:272,1,80,12|0
155,264,116097,6,0,B|115:272|83:320,1,80,12|0
64,232,116441,1,12
64,152,116614,1,0
72,232,116786,1,12
72,152,116959,1,0
80,232,117131,1,8
80,152,117303,2,0,B|80:64,1,80,0|8
144,24,117648,6,0,B|168:120,1,80,0|8
216,160,117993,1,0
264,224,118166,2,0,B|317:287|416:320,1,160,4|8
320,168,118855,1,0
272,104,119028,1,0
200,72,119200,1,8
224,336,119545,6,0,B|152:288|128:184,1,160,0|8
296,192,120234,2,0,B|392:192,2,80,0|0|8
440,112,120924,2,0,B|463:187|448:287,1,160,0|8
288,288,121614,1,0
272,208,121786,1,0
304,136,121959,1,8
160,200,122303,5,0
232,160,122476,1,0
312,168,122648,2,0,B|352:184|400:168,1,80,8|0
390,170,122907,1,0
390,170,122993,1,0
472,176,123166,1,0
440,104,123338,1,8
128,56,123683,6,0,B|120:136|136:240,1,160,4|8
272,296,124372,1,0
272,216,124545,1,0
320,152,124717,1,8
440,40,125062,2,0,B|479:105|497:206,1,160,0|8
336,192,125752,1,0
256,200,125924,1,0
192,248,126097,1,8
64,152,126441,6,0,B|152:152,1,80
216,112,126786,2,0,B|232:152|216:192,1,80,8|0
144,232,127131,1,0
216,256,127303,1,0
296,248,127476,2,0,B|336:264|384:248,1,80,8|0
424,192,127821,1,0
424,192,127993,1,0
424,192,128166,1,8
120,80,140234,6,0,B|224:80,1,80,4|0
272,120,140579,2,0,B|192:132,1,80,8|0
128,176,140924,2,0,B|232:208,1,80
280,232,141269,2,0,B|208:296,1,80,8|0
160,336,141614,2,0,B|104:280|104:280|72:176,1,160,0|8
160,224,142131,1,0
232,200,142303,2,0,B|288:136|288:136|316:63,1,160,0|8
360,136,142821,1,0
328,208,142993,2,0,B|312:250|312:250|328:296,1,80
256,328,143338,5,8
256,328,143424,1,0
256,328,143510,2,0,B|160:304,1,80
200,232,143855,1,0
280,256,144028,2,0,B|280:160,1,80,8|0
208,136,144372,2,0,B|288:64,1,80
344,104,144717,1,8
408,152,144890,1,0
328,176,145062,2,0,B|401:130|401:130|457:82,2,160,0|8|4
232,304,146097,5,8
72,336,146441,2,0,B|96:296|96:296|112:248,1,80
24,264,146786,2,0,B|24:184,1,80,8|0
104,208,147131,2,0,B|180:217|180:217|280:208,1,160,0|8
424,192,147821,2,0,B|424:288,1,80
352,240,148166,5,0
352,240,148252,1,8
352,240,148338,2,0,B|192:240,1,160,0|0
192,240,148855,1,8
144,312,149028,2,0,B|120:272|120:272|120:208|120:208|144:160,1,160
192,240,149545,2,0,B|288:240,1,80,8|0
256,192,149890,12,4,151269
104,128,159545,5,0
104,128,159890,1,8
104,128,160234,1,0
104,208,160407,1,0
152,272,160579,1,8
296,352,160924,2,0,B|320:320|317:275,2,80,0|0|8
456,320,161614,1,0
416,248,161786,1,0
440,168,161959,2,0,B|480:152,2,40,8|0|0
440,168,162303,5,4
304,88,162648,1,8
144,88,162993,2,0,B|104:104|80:144,2,80,0|0|8
80,232,163683,5,0
232,296,164028,1,8
392,264,164372,1,0
376,184,164545,1,0
456,208,164717,1,8
128,56,165062,6,0,B|128:136|168:224,1,160,0|8
312,272,165752,1,0
160,320,166097,1,8
216,168,166441,2,0,B|136:144|40:160,1,160,0|8
216,168,167131,1,0
376,136,167476,1,8
248,40,167821,5,0
248,40,167993,1,0
96,80,168338,1,0
96,80,168510,2,0,B|96:144,8,40,0|0|0|0|0|0|0|0|4
88,240,169545,5,8
240,296,169889,2,0,B|272:264|312:264,1,80
392,280,170234,1,8
216,112,170579,6,0,B|200:56|104:56|88:112,3,160,0|8|0|8
160,248,171958,5,0
312,296,172303,1,8
440,200,172648,2,0,B|450:162|488:128,1,80
424,80,172993,1,8
272,128,173338,6,0,B|200:176|96:176,2,160,0|8|0
224,288,174372,2,0,B|224:352,3,40,8|0|0|0
224,288,174717,6,0,B|232:208|168:128,1,160,4|8
320,64,175407,2,0,B|292:91|272:152,2,80,0|0|8
296,224,176096,6,0,B|384:224,1,80
296,224,176441,2,0,B|296:136,1,80,8|0
216,224,176786,2,0,B|312:224,1,80
296,304,177131,2,0,B|296:224,1,80,8|0
24,168,177476,6,0,B|56:80|136:56,1,160,4|8
112,216,178165,2,0,B|140:251|136:312,2,80,0|0|8
240,120,178855,6,0,B|312:88|416:112,3,160,0|8|0|8
104,328,180234,6,0,B|184:296|232:232,1,160,4|8
80,184,180924,1,0
104,264,181096,1,0
176,304,181269,1,8
280,184,181614,6,0,B|344:128|448:120,1,160,0|8
456,200,182131,1,0
376,176,182303,1,0
264,64,182648,1,8
80,312,182993,6,0,B|144:248|144:160,1,160,4|8
304,184,183683,1,0
232,160,183855,1,0
288,104,184028,1,8
48,0,184372,6,0,B|72:104,1,80
136,120,184717,2,0,B|128:216,1,80,8|0
200,240,185062,2,0,B|144:328,1,80
232,320,185407,1,8
240,320,185493,1,0
248,320,185579,1,0
256,320,185665,1,0
264,320,185752,5,4
376,208,186096,1,8
352,48,186441,1,0
272,40,186614,1,0
304,112,186786,1,8
128,304,187131,6,0,B|136:224|83:154,1,160,0|8
240,136,187821,1,0
240,136,187993,1,0
240,136,188166,1,8
384,304,188510,6,0,B|376:224|428:154,1,160,4|8
240,136,189200,2,0,B|240:216,2,80,0|0|8
96,64,189889,6,0,B|104:176,1,80
168,184,190234,2,0,B|160:280,1,80,8|0
240,288,190579,2,0,B|256:376,1,80
320,320,190924,2,0,B|360:232,1,80,8|0
384,176,191269,5,0
344,104,191441,1,0
304,176,191614,2,0,B|256:96,1,80,8|0
192,64,191958,1,0
192,64,192045,1,0
192,64,192131,1,0
200,144,192303,1,8
56,56,192476,5,0
0,112,192648,1,0
56,56,192821,1,0
0,112,192993,2,0,B|0:200,1,80,8|0
72,216,193338,1,0
72,216,193511,1,0
144,184,193683,2,0,B|184:168|232:184,1,80,8|0
384,304,194028,5,0
384,304,194200,1,0
368,224,194372,1,8
416,160,194545,1,0
416,160,194717,2,0,B|384:120|400:72,1,80
320,88,195062,1,8
312,88,195148,1,0
304,88,195234,1,0
128,88,195407,5,0
48,88,195579,2,0,B|144:88,1,80,0|8
128,168,195924,1,0
72,232,196097,1,0
72,232,196269,1,0
288,336,196786,5,0
368,336,196959,1,0
328,264,197131,1,8
408,264,197303,1,0
368,200,197476,1,8
448,200,197648,1,0
400,136,197821,1,8
480,136,197993,1,0
328,112,198338,5,0
248,88,198510,1,8
272,168,198683,1,0
192,152,198855,1,8
112,128,199027,1,0
136,208,199200,1,8
216,232,199372,1,0
136,208,199544,5,8
160,288,199717,1,0
80,272,199890,1,8
0,248,200062,1,0
24,328,200235,1,8
80,272,200407,1,0
0,248,200579,1,8
24,328,200752,1,0
288,256,201097,5,0
336,192,201269,1,8
288,256,201441,1,0
336,192,201614,2,0,B|336:96,1,80,8|0
288,48,201959,1,8
288,48,202045,1,0
288,48,202131,1,0
208,64,202303,6,0,B|168:64|128:76,1,80,8|0
80,208,202648,2,0,B|120:208|159:195,1,80,8|0
184,120,202993,2,0,B|144:120|104:132,1,80,8|0
120,280,203338,1,8
120,280,203510,1,0
208,264,203683,2,0,B|248:256|275:221,1,80,8|0
248,144,204028,2,0,B|288:128|352:128,1,80,8|0
360,200,204373,2,0,B|389:227|448:232,1,80,8|0
144,80,205063,6,0,B|136:120|144:168,1,80,8|0
272,256,205407,2,0,B|280:216|272:168,1,80,8|0
120,120,205752,2,0,B|112:160|120:208,1,80,8|0
248,288,206097,1,8
248,288,206269,1,0
328,304,206442,2,0,B|375:311|416:288,1,80,8|0
360,224,206787,2,0,B|351:185|375:145,1,80,8|0
440,192,207132,2,0,B|466:158|506:150,1,80,8|0
64,104,207821,5,8
112,168,207993,1,0
192,192,208166,1,8
272,192,208338,1,0
352,192,208510,1,8
432,216,208683,1,0
496,264,208855,1,8
496,264,209028,2,0,B|496:344,1,80,0|8
416,328,209372,5,0
352,280,209544,1,8
272,256,209717,1,0
216,200,209889,1,8
176,128,210061,1,0
104,88,210234,1,8
24,80,210407,1,0
80,152,210579,6,0,B|168:192,1,80,8|0
105,324,210924,2,0,B|64:256,1,80,8|0
224,264,211269,2,0,B|295:299,1,80,8|0
408,184,211614,1,8
312,56,211786,1,0
312,56,211872,1,0
312,56,211959,1,0
312,56,212045,1,0
312,56,212131,2,0,B|312:112,5,40
312,56,212648,6,0,B|232:72|176:144,1,160,0|8
320,216,213337,2,0,B|312:261|256:304,2,80,0|0|8
72,208,214027,2,0,B|232:208,1,160,0|8
392,200,214716,1,0
320,168,214889,1,0
288,96,215061,1,8
144,168,215406,6,0,B|208:232|216:344,1,160,0|8
336,208,216095,2,0,B|352:168|321:130,2,80,0|0|8
376,56,216785,2,0,B|302:67|216:56,1,160,0|8
112,112,217389,1,0
112,112,217474,1,8
96,192,217647,1,0
136,264,217819,1,8
424,240,218165,6,0,B|344:248|265:218,1,160,0|8
184,80,218854,2,0,B|177:121|120:168,2,80,0|0|8
248,224,219544,2,0,B|323:243|392:312,1,160,0|8
264,312,220148,1,0
264,312,220233,1,8
192,272,220406,1,0
184,192,220578,1,8
256,192,220923,8,4,223682
256,200,223854,5,0
184,168,224027,1,8
112,200,224199,1,0
184,232,224372,2,0,B|184:312,2,80,0|0|8
184,72,225061,5,0
240,128,225234,1,0
296,72,225406,1,8
240,128,225579,1,0
240,128,225665,1,0
240,128,225751,1,8
200,200,225923,1,0
280,200,226096,1,8
184,327,226441,6,0,B|128:264|120:184,1,160,0|8
224,64,227130,1,0
224,64,227303,1,0
224,64,227475,1,8
376,112,227820,5,0
424,176,227993,1,0
368,240,228165,1,8
416,304,228338,1,0
416,304,228424,1,0
416,304,228510,1,8
368,240,228682,1,0
296,264,228854,1,8
136,232,229199,6,0,B|224:216|296:144,1,160,0|8
136,232,229889,2,0,B|136:336,2,80,0|0|8
32,112,230579,2,0,B|32:32,2,80,0|0|8
152,128,231182,1,0
152,128,231268,1,8
232,128,231441,1,0
304,160,231613,1,8
400,288,231958,6,0,B|384:216|400:120,1,160,0|8
240,104,232648,1,0
208,176,232820,1,0
144,224,232992,1,8
304,256,233337,2,0,B|352:192|456:152,1,160,0|8
272,136,234027,2,0,B|200:168|116:173,2,160,0|8|4
256,192,234889,12,0,240234
