osu file format v7

[General]
AudioFilename: Crow Song (TV Size).mp3
AudioLeadIn: 1000
PreviewTime: 32048
Countdown: 0
SampleSet: Normal
StackLeniency: 0.4
Mode: 0
LetterboxInBreaks: 0

[Editor]
Bookmarks: 3082,14117,25151,32048,43082,54117,65151,75496,86530,97565
DistanceSpacing: 0.800000011920929
BeatDivisor: 4
GridSize: 64

[Metadata]
Title:Crow Song (TV Size)
Artist:Girls Dead Monster
Creator:DJPop
Version:Normal
Source:Angel Beats!
Tags:Sawashiro Miyuki Iwasawa

[Difficulty]
HPDrainRate:3
CircleSize:4
OverallDifficulty:4
SliderMultiplier:1.28
SliderTickRate:2

[Events]
//Background and Video events
Video,-50,"Crow Song (TV Size).avi"
0,0,"Crow Song (TV Size).png"
//Break Periods
//Storyboard Layer 0 (Background)
//Storyboard Layer 1 (Fail)
//Storyboard Layer 2 (Pass)
//Storyboard Layer 3 (Foreground)
//Storyboard Sound Samples
//Background Colour Transformations
3,100,0,0,0

[TimingPoints]
324,344.827586206897,4,1,1,70,1,0
14203,-100,4,1,2,70,0,0
19289,-100,4,2,2,70,0,0
19375,-100,4,1,2,70,0,0
25410,-100,4,2,2,70,0,0
25582,-100,4,1,2,70,0,0
26789,-100,4,2,2,70,0,0
26961,-100,4,1,2,70,0,0
28168,-100,4,2,2,70,0,0
28341,-100,4,1,2,70,0,0
28858,-100,4,2,2,70,0,0
29030,-100,4,1,2,70,0,0
29548,-100,4,2,2,70,0,0
29720,-100,4,1,2,70,0,0
30237,-100,4,2,2,70,0,0
30410,-100,4,1,2,70,0,0
30668,-100,4,2,2,0,0,0
31358,-100,4,1,2,70,0,0
32048,-100,4,1,2,70,0,1
32306,-100,4,2,2,70,0,1
32479,-100,4,1,2,70,0,1
32996,-100,4,2,2,70,0,1
33168,-100,4,1,2,70,0,1
35065,-100,4,2,2,70,0,1
35237,-100,4,1,2,70,0,1
35755,-100,4,2,2,70,0,1
35927,-100,4,1,2,70,0,1
37824,-100,4,2,2,70,0,1
37996,-100,4,1,2,70,0,1
38513,-100,4,2,2,70,0,1
38686,-100,4,1,2,70,0,1
40582,-100,4,2,2,70,0,1
40755,-100,4,1,2,70,0,1
41272,-100,4,2,2,70,0,1
41444,-100,4,1,2,70,0,1
43081,-100,4,1,2,70,0,0
43082,-100,4,1,2,70,0,1
54116,-100,4,1,2,70,0,0
54117,-100,4,1,2,70,0,1
65150,-100,4,1,2,70,0,0
65151,-100,4,1,2,70,0,1
75324,-100,4,1,1,70,0,0
75497,344.827586206897,4,1,1,70,1,0
84979,-100,4,1,2,70,0,0
96444,-100,4,2,2,70,0,0
96617,-100,4,1,2,70,0,0
96789,-100,4,2,2,70,0,0
97134,-100,4,1,2,70,0,0
97393,-400,4,1,2,70,0,0
98255,-400,4,2,2,0,0,0

[Colours]
Combo1 : 0,255,0
Combo2 : 0,255,255
Combo3 : 255,0,255
Combo4 : 255,255,0

[HitObjects]
128,256,3082,6,0,C|128:128,3,128,4|8|0|8
192,64,4461,2,0,C|320:64,3,128,0|8|0|8
384,128,5841,2,0,C|384:256,3,128,0|8|0|8
320,320,7220,2,0,C|192:320,3,128,0|8|0|8
256,192,8599,6,0,C|160:96,3,128,0|8|0|8
256,192,9978,2,0,C|352:96,3,128,0|8|0|8
256,192,11358,2,0,C|352:288,3,128,0|8|0|8
256,192,12737,2,0,C|160:288,3,128,0|8|0|8
64,352,14117,5,4
32,256,14461,1,8
64,160,14806,2,0,C|64:32,1,128,0|8
160,32,15496,5,0
256,32,15841,2,0,C|384:32,2,128,8|0|8
256,128,16875,5,0
160,160,17220,1,8
160,256,17565,1,0
256,288,17910,1,8
352,256,18255,5,0
352,160,18599,1,8
448,128,18944,1,0
448,128,19117,2,0,B|472:136|488:152|487:176|488:200|472:216|448:224,1,128,2|2
352,352,19979,5,8
256,352,20324,1,0
160,352,20668,1,8
64,352,21013,6,0,B|48:336|32:320|34:296|32:272|48:256|64:240,1,128,0|8
63,143,21703,2,0,B|48:128|32:112|34:88|32:64|48:48|64:32,1,128,0|8
160,32,22392,5,0
256,32,22737,1,8
352,32,23082,1,0
448,32,23427,1,8
480,128,23772,5,0
448,224,24117,1,8
448,224,24289,2,0,C|320:224,1,128,2|0
192,128,25151,6,0,B|192:96|192:64|176:40|152:24|128:31|104:24|80:40|64:64|64:96|64:128,1,256,4|0
128,192,26186,1,8
64,256,26530,2,0,B|64:288|64:320|80:344|104:360|128:353|152:360|176:344|192:320|192:288|192:256,1,256
256,192,27565,1,8
352,156,27910,6,0,B|400:128|424:136|448:152|483:192|448:232|424:248|400:256|352:228,4,256
64,192,32048,6,0,B|67:33|224:32,2,256,4|0|0
160,192,33772,1,8
256,192,34117,1,0
352,192,34461,1,8
448,192,34806,6,0,B|445:33|288:32,2,256,4|0|0
352,192,36530,1,8
256,192,36875,1,0
160,192,37219,1,8
64,192,37565,6,0,B|67:351|224:352,2,256,4|0|0
160,192,39289,1,8
256,192,39634,1,0
352,192,39978,1,8
448,192,40324,6,0,B|445:351|288:352,2,256,4|0|0
352,192,42048,1,8
256,192,42393,1,0
160,192,42737,1,8
64,192,43082,6,0,C|64:64,1,128,4|8
160,32,43771,2,0,C|288:32,1,128,0|8
384,64,44461,5,0
464,128,44806,1,8
384,192,45151,1,0
464,256,45496,1,8
384,320,45841,6,0,C|256:320,1,128,4|8
160,320,46530,2,0,C|160:192,1,128,0|8
256,192,47220,5,0
352,160,47565,1,8
352,64,47910,1,0
256,32,48255,1,8
160,32,48599,6,0,C|32:32,1,128,4|8
32,128,49288,2,0,C|32:256,1,128,0|8
64,352,49978,5,0
160,320,50323,1,8
256,352,50668,1,0
352,320,51013,1,8
448,352,51358,6,0,C|448:224,1,128,4|8
480,128,52047,2,0,C|352:128,1,128,0|8
256,128,52737,5,0
224,224,53082,1,8
128,224,53427,1,0
96,128,53772,1,8
80,32,54117,6,0,C|208:32,3,128,4|8|8|8
304,32,55496,2,0,C|432:32,3,128,8|8|8|8
464,128,56875,6,0,C|464:256,3,128,8|8|8|8
432,352,58255,2,0,C|304:352,3,128,8|8|8|8
208,352,59634,6,0,C|80:352,3,128,12|12|12|12
48,256,61013,2,0,C|48:128,3,128,12|12|12|12
152,128,62392,6,0,C|152:256,3,128,12|12|12|12
256,256,63771,2,0,C|256:128,3,128,12|12|12|12
360,128,65151,6,0,C|360:256,1,128,12|12
464,256,65841,2,0,C|464:128,1,128,12|12
416,32,66530,2,0,C|288:32,1,128,12|12
192,32,67220,2,0,C|64:32,1,128,12|12
32,128,67910,6,0,C|32:256,1,128,12|12
64,352,68600,2,0,C|192:352,1,128,12|12
256,272,69289,2,0,C|128:272,1,128,12|12
192,192,69979,2,0,C|192:64,1,128,12|12
288,32,70668,5,12
384,64,71013,1,12
480,96,71358,1,12
448,192,71703,1,12
480,288,72048,5,12
384,320,72392,1,12
288,352,72737,1,12
192,320,73082,1,12
96,288,73427,5,12
64,192,73772,1,12
96,96,74117,1,12
192,64,74461,1,12
288,32,74806,5,8
288,128,75151,1,8
384,128,75497,6,0,C|384:256,3,128,4|8|0|8
320,320,76876,2,0,C|192:320,3,128,0|8|0|8
128,256,78255,2,0,C|128:128,3,128,0|8|0|8
192,64,79634,2,0,C|320:64,3,128,0|8|0|8
256,192,81014,6,0,C|352:288,3,128,4|8|0|8
256,192,82393,2,0,C|160:288,3,128,0|8|0|8
256,192,83772,2,0,C|160:96,3,128,0|8|0|8
256,192,85151,2,0,C|352:96,3,128,8|8|8|8
416,32,86531,5,4
480,112,86875,1,8
416,192,87221,1,0
480,272,87565,1,8
416,352,87910,5,0
320,320,88255,1,8
224,288,88600,1,0
256,192,88945,1,8
288,96,89290,5,0
192,64,89634,1,8
96,32,89979,1,0
32,112,90324,1,8
96,192,90668,5,0
32,272,91013,1,8
96,352,91358,1,0
192,320,91703,1,8
288,288,92048,5,4
256,192,92392,1,8
224,96,92738,1,0
320,64,93082,1,8
416,32,93428,5,0
448,128,93772,1,8
368,192,94117,1,0
448,256,94462,1,8
416,352,94807,5,0
320,352,95152,1,8
224,352,95496,1,0
128,352,95841,1,8
112,256,96186,6,0,B|80:248|64:240|48:224|40:192|48:160|64:144|80:136|112:128,2,192,8|8|8
192,192,97565,2,0,C|256:192,1,64,4|0
256,192,98830,12,0,103083
