osu file format v7

[General]
AudioFilename: Crow Song (TV Size).mp3
AudioLeadIn: 1000
PreviewTime: 32048
Countdown: 0
SampleSet: Normal
StackLeniency: 0.4
Mode: 0
LetterboxInBreaks: 0

[Editor]
Bookmarks: 3082,14117,25151,32048,43082,54117,65151,75496,86530,97565
DistanceSpacing: 0.800000011920929
BeatDivisor: 4
GridSize: 32

[Metadata]
Title:Crow Song (TV Size)
Artist:Girls Dead Monster
Creator:DJPop
Version:Insane
Source:Angel Beats!
Tags:Sawashiro Miyuki Iwasawa

[Difficulty]
HPDrainRate:6
CircleSize:5
OverallDifficulty:8
SliderMultiplier:1.92
SliderTickRate:2

[Events]
//Background and Video events
Video,-50,"Crow Song (TV Size).avi"
0,0,"Crow Song (TV Size).png"
//Break Periods
//Storyboard Layer 0 (Background)
//Storyboard Layer 1 (Fail)
//Storyboard Layer 2 (Pass)
//Storyboard Layer 3 (Foreground)
//Storyboard Sound Samples
//Background Colour Transformations
3,100,0,0,0

[TimingPoints]
324,344.827586206897,4,1,1,70,1,0
1778,-100,4,1,1,50,0,0
1865,-100,4,1,1,30,0,0
1952,-100,4,1,1,50,0,0
2039,-100,4,1,1,70,0,0
2126,-100,4,1,1,50,0,0
2213,-100,4,1,1,30,0,0
2300,-100,4,1,1,50,0,0
2387,-100,4,1,1,70,0,0
2474,-100,4,1,1,50,0,0
2561,-100,4,1,1,30,0,0
2648,-100,4,1,1,50,0,0
2735,-100,4,1,1,70,0,0
2822,-100,4,1,1,50,0,0
2909,-100,4,1,1,30,0,0
2996,-100,4,1,1,50,0,0
3082,-100,4,1,1,70,0,0
14203,-100,4,1,2,70,0,0
25237,-100,4,1,1,70,0,0
27996,-100,4,1,2,70,0,0
28168,-100,4,1,1,70,0,0
31439,-100,4,1,1,50,0,0
31526,-100,4,1,1,30,0,0
31613,-100,4,1,1,50,0,0
31700,-100,4,1,1,70,0,0
31787,-100,4,1,1,50,0,0
31874,-100,4,1,1,30,0,0
31961,-100,4,1,1,50,0,0
32048,-100,4,1,1,70,0,1
43081,-100,4,1,1,70,0,0
43082,-100,4,1,1,70,0,1
54116,-100,4,1,1,70,0,0
54117,-100,4,1,1,70,0,1
65150,-100,4,1,1,70,0,0
65151,-100,4,1,1,70,0,1
75063,-100,4,1,1,50,0,1
75150,-100,4,1,1,30,0,1
75237,-100,4,1,1,50,0,1
75324,-100,4,1,1,70,0,1
75497,344.827586206897,4,1,1,70,1,0
85924,-100,4,1,1,50,0,0
86011,-100,4,1,1,30,0,0
86098,-100,4,1,1,50,0,0
86185,-100,4,1,1,70,0,0
86272,-100,4,1,1,50,0,0
86359,-100,4,1,1,30,0,0
86445,-100,4,1,1,50,0,0
86531,-100,4,1,1,70,0,0
96956,-100,4,1,1,50,0,0
97043,-100,4,1,1,30,0,0
97130,-100,4,1,1,50,0,0
97217,-100,4,1,1,70,0,0
97304,-100,4,1,1,50,0,0
97391,-100,4,1,1,30,0,0
97478,-100,4,1,1,50,0,0
97565,-100,4,1,1,70,0,0
97738,-400,4,2,1,50,0,0
98772,-400,4,2,2,0,0,0

[Colours]
Combo1 : 0,255,0
Combo2 : 0,255,255
Combo3 : 255,0,255
Combo4 : 255,255,0

[HitObjects]
256,32,1703,5,8
240,40,1789,1,8
224,48,1875,1,8
240,56,1961,1,8
256,64,2048,1,8
272,72,2134,1,8
288,80,2220,1,8
272,88,2306,1,8
256,96,2392,1,8
240,104,2479,1,8
224,112,2565,1,8
240,120,2651,1,8
256,128,2737,1,8
272,136,2824,1,8
288,144,2910,1,8
272,152,2996,1,8
256,160,3082,5,4
192,192,3255,2,0,C|192:288,1,96,2|8
256,320,3599,1,2
256,256,3772,1,0
320,224,3944,2,0,C|320:320,1,96,2|8
384,352,4289,1,2
384,288,4461,5,0
448,320,4634,2,0,C|448:224,1,96,2|8
480,160,4979,1,2
480,144,5065,1,8
480,128,5151,1,0
480,64,5324,2,0,C|384:64,1,96,2|8
416,128,5668,1,2
400,128,5755,1,0
384,128,5841,5,0
320,128,6013,2,0,C|320:32,1,96,2|8
256,64,6358,1,2
256,128,6530,1,0
192,96,6703,2,0,C|192:192,1,96,2|8
256,192,7048,1,2
320,192,7220,5,0
288,256,7392,1,2
320,320,7565,1,8
256,320,7737,1,2
240,320,7824,1,8
224,320,7910,1,0
192,256,8082,1,2
128,256,8255,1,8
96,320,8427,1,2
80,320,8513,1,0
64,320,8599,5,0
32,256,8772,2,0,C|32:160,1,96,2|8
32,96,9117,1,2
32,32,9289,1,0
96,32,9461,2,0,C|96:128,1,96,2|8
128,192,9806,1,2
192,192,9979,5,0
256,192,10151,2,0,C|256:96,1,96,2|8
192,96,10496,1,2
176,96,10582,1,8
160,96,10668,1,0
160,32,10841,2,0,C|256:32,1,96,2|8
256,96,11186,1,2
272,96,11272,1,0
288,96,11358,5,0
352,96,11530,2,0,C|352:192,1,96,2|8
416,160,11875,1,2
416,96,12048,1,0
480,64,12220,2,0,C|480:160,1,96,2|8
448,224,12565,1,2
480,288,12737,5,0
448,352,12910,1,2
384,320,13082,1,8
320,352,13255,1,2
304,352,13341,1,8
288,352,13427,1,0
256,288,13599,1,2
224,352,13772,1,8
208,352,13858,1,8
192,352,13944,1,8
176,352,14030,1,8
160,352,14117,5,4
96,320,14289,1,0
32,288,14461,1,8
96,256,14634,1,0
32,224,14806,2,0,C|32:128,1,96
32,64,15151,1,8
96,32,15324,1,0
96,96,15496,6,0,C|96:192,1,96
160,192,15841,2,0,C|352:192,1,192,8|0
416,192,16358,1,0
480,160,16530,1,8
416,128,16703,1,0
416,64,16875,5,0
352,32,17048,2,0,C|256:32,1,96,0|8
192,64,17392,1,0
128,96,17565,1,0
192,128,17737,2,0,C|288:128,1,96,0|8
352,160,18082,1,0
288,192,18255,5,0
224,224,18427,2,0,C|128:224,1,96,0|8
64,256,18772,1,0
128,288,18944,1,0
192,320,19117,2,0,C|288:320,1,96,2|8
352,352,19461,2,0,C|448:352,1,96,2|0
480,288,19806,5,0
448,224,19979,1,8
416,288,20151,1,0
384,224,20324,2,0,B|332:215|320:160,1,96
320,96,20668,2,0,B|311:44|256:32,1,96,8|0
192,32,21013,6,0,B|141:40|128:96,1,96
128,160,21358,2,0,B|116:215|64:224,1,96,8|0
32,288,21703,1,0
64,352,21875,1,0
96,288,22048,1,8
128,352,22220,2,0,C|224:352,1,96
256,288,22565,6,0,C|160:288,1,96,0|8
192,224,22910,1,0
256,224,23082,1,0
320,192,23255,2,0,C|320:288,1,96,0|8
288,352,23599,1,0
352,352,23772,5,0
416,320,23944,1,0
480,288,24117,1,8
416,256,24289,1,2
384,192,24461,1,0
416,128,24634,1,0
480,96,24806,1,8
480,80,24892,1,8
480,64,24979,1,0
416,32,25151,6,0,C|320:32,1,96,4|0
352,96,25496,2,0,C|256:96,1,96,10|2
288,160,25841,2,0,C|96:160,1,192,0|8
32,192,26358,1,2
96,224,26530,6,0,C|192:224,1,96
160,288,26875,2,0,C|256:288,1,96,10|2
224,352,27220,2,0,C|416:352,1,192,0|8
480,320,27737,1,2
432,272,27910,6,0,B|464:256|480:224|483:191|480:160|464:128|432:112,2,192,0|10|0
384,224,28772,1,2
320,192,28944,2,0,C|224:192,1,96,8|2
160,192,29289,5,0
128,256,29461,1,0
96,192,29634,1,10
64,256,29806,1,2
32,192,29979,1,0
64,128,30151,1,2
128,128,30324,2,0,C|146:112,1,24,8|8
256,32,30668,5,8
288,96,30841,1,0
320,32,31013,1,8
352,96,31186,1,0
384,32,31358,1,8
400,40,31444,1,8
416,48,31530,1,8
432,56,31617,1,8
448,64,31703,1,8
456,80,31789,1,8
464,96,31875,1,8
472,112,31961,1,8
480,128,32048,6,0,B|461:244|384:288,1,192,4|8
320,240,32565,1,2
254,192,32737,2,0,B|179:236|160:352,1,192,0|8
80,352,33255,1,2
32,288,33427,6,0,C|32:192,1,96,0|2
96,96,33772,2,0,C|96:192,1,96,8|2
160,288,34117,2,0,C|160:192,1,96,0|2
224,96,34462,2,0,C|224:192,1,96,8|2
288,288,34806,6,0,B|304:320|336:336|368:339|400:336|432:320|448:288,1,192,4|8
368,240,35323,1,2
447,191,35496,2,0,B|432:160|400:144|368:141|336:144|304:160|288:192,1,192,0|8
208,240,36013,1,2
128,288,36185,6,0,C|32:288,1,96,0|2
128,224,36530,2,0,C|32:224,1,96,8|2
128,160,36875,2,0,C|32:160,1,96,0|2
128,96,37220,1,8
128,80,37306,1,8
128,64,37392,1,0
192,32,37565,6,0,B|315:33|288:160,1,192,4|8
208,192,38082,1,2
127,225,38255,2,0,B|101:351|224:352,1,192,0|8
304,352,38772,1,2
384,352,38944,6,0,C|480:352,1,96,0|2
384,288,39289,2,0,C|288:288,1,96,8|2
384,224,39634,2,0,C|480:224,1,96,0|2
384,160,39979,2,0,C|288:160,1,96,8|2
384,96,40324,6,0,B|350:8|288:24|224:32,1,192,4|8
144,32,40841,1,2
64,32,41013,2,0,B|98:120|160:104|224:96,1,192,0|8
304,128,41531,1,2
224,160,41703,6,0,C|224:256,1,96,0|2
160,160,42048,2,0,B|171:224|128:224|112:224,1,96,8|2
96,224,42306,1,8
79,224,42392,2,0,B|64:224|21:224|32:288,1,96,8|2
32,304,42651,1,0
32,320,42737,1,8
96,352,42910,1,8
160,352,43082,6,0,C|352:352,1,192,4|8
416,320,43599,1,2
480,288,43771,2,0,C|480:96,1,192,0|8
416,64,44289,1,2
352,32,44461,6,0,C|256:32,1,96,0|2
160,96,44806,2,0,C|256:96,1,96,8|2
352,160,45151,2,0,C|256:160,1,96,0|2
160,224,45496,2,0,C|256:224,1,96,8|2
352,288,45841,6,0,C|160:288,1,192,4|8
96,320,46358,1,2
32,288,46530,2,0,C|32:96,1,192,0|8
96,64,47048,1,2
160,96,47220,6,0,C|256:96,1,96,0|2
320,32,47565,2,0,C|416:32,1,96,8|2
480,96,47910,2,0,C|480:192,1,96,0|2
416,256,48255,1,8
416,272,48341,1,8
416,288,48427,1,0
384,352,48599,6,0,B|352:352|256:379|256:288|256:256,1,192,4|8
256,192,49116,1,2
255,127,49289,2,0,B|256:96|256:5|160:32|128:32,1,192,0|8
64,32,49806,1,2
32,96,49978,6,0,C|32:192,1,96,0|2
96,96,50323,2,0,C|96:192,1,96,8|2
32,256,50668,2,0,C|32:352,1,96,0|2
96,256,51013,2,0,C|96:352,1,96,8|2
160,256,51358,6,0,B|256:276|352:256,1,192,4|8
416,208,51875,1,2
350,159,52048,2,0,B|256:140|160:160,1,192,0|8
96,208,52565,1,2
32,160,52737,5,8
96,128,52910,1,2
128,64,53082,1,8
192,32,53255,1,2
256,64,53427,1,8
320,32,53599,1,2
384,64,53772,1,8
400,96,53858,1,8
416,128,53944,1,0
480,160,54117,5,4
480,224,54289,1,0
416,224,54461,1,8
416,288,54634,1,0
352,288,54806,1,8
352,352,54979,1,0
288,352,55151,1,8
288,288,55324,6,0,B|236:297|224:352,1,96,0|8
160,352,55668,1,0
160,288,55841,1,8
96,288,56013,1,0
96,224,56186,1,8
32,224,56358,2,0,C|32:128,1,96,0|8
160,32,56875,6,0,C|160:128,1,96,8|0
192,192,57220,1,8
224,256,57392,1,0
256,192,57565,1,8
288,256,57737,1,0
320,192,57910,1,8
352,128,58082,6,0,C|352:32,1,96,0|8
416,32,58427,1,0
480,64,58599,1,8
480,128,58772,1,0
416,160,58944,1,8
416,224,59117,1,8
480,256,59289,1,12
352,352,59634,5,4
288,320,59806,1,0
224,352,59979,1,12
160,320,60151,1,0
96,288,60324,1,12
64,224,60496,1,0
32,160,60668,1,12
64,96,60841,6,0,B|77:40|128:32,1,96,0|12
192,32,61186,1,0
224,96,61358,1,12
288,96,61530,1,0
320,32,61703,1,12
384,32,61875,2,0,B|435:40|448:96,1,96,0|12
480,256,62392,5,12
416,224,62565,1,0
352,192,62737,1,12
320,256,62910,1,0
256,224,63082,1,12
192,192,63255,1,0
160,256,63427,1,12
96,224,63599,2,0,B|43:234|32:288,1,96,0|12
64,352,63944,5,0
128,352,64117,1,12
192,328,64289,1,0
208,352,64375,1,0
224,328,64461,1,12
288,352,64634,1,4
352,328,64806,1,12
368,352,64892,1,8
384,328,64979,1,0
448,352,65151,5,12
488,288,65324,1,0
416,272,65496,1,12
456,208,65668,1,0
384,192,65841,1,12
424,128,66013,1,0
352,112,66186,1,12
392,48,66358,1,0
320,32,66530,5,12
240,32,66703,1,0
272,104,66875,1,12
192,104,67048,1,0
224,176,67220,1,12
144,176,67392,1,0
176,248,67565,1,12
96,248,67737,1,0
48,320,67910,5,12
112,352,68082,1,0
176,320,68255,1,12
240,352,68427,1,0
272,288,68599,1,12
336,320,68772,1,0
400,288,68944,1,12
464,320,69117,1,0
480,248,69289,5,12
464,176,69461,1,0
448,104,69634,1,12
384,64,69806,1,0
320,104,69979,1,12
304,176,70151,1,0
288,248,70324,1,12
216,272,70496,1,0
144,248,70668,5,12
80,208,70841,1,0
32,152,71013,1,12
80,96,71186,1,0
144,64,71358,1,12
208,32,71530,1,0
256,88,71703,1,12
304,32,71875,1,0
368,64,72048,5,12
432,32,72220,1,0
464,96,72392,1,12
400,128,72565,1,0
368,192,72737,1,12
432,224,72910,1,0
400,288,73082,1,12
336,256,73255,1,0
272,288,73427,5,12
224,344,73599,1,0
176,288,73772,1,12
128,344,73944,1,0
80,288,74117,1,12
32,232,74289,1,0
80,176,74461,1,12
128,232,74634,1,0
176,176,74806,5,8
224,232,74979,1,8
240,216,75065,1,8
256,200,75151,1,8
272,184,75237,1,8
288,168,75324,1,8
304,152,75410,1,8
320,136,75497,6,0,B|384:72|412:40|480:40,2,192,4|8|0
272,84,76359,1,2
224,32,76531,2,0,C|128:32,1,96,8|2
160,96,76876,6,0,B|144:112|89:152|32:112|32:64|32:32,2,192,0|8|0
192,160,77738,1,2
224,224,77910,2,0,C|320:224,1,96,8|2
352,288,78255,6,0,B|400:336|451:315|480:288|480:224,2,192,0|8|0
288,320,79117,1,2
224,352,79290,2,0,C|128:352,1,96,8|2
64,320,79634,5,0
32,256,79807,1,2
64,192,79979,1,8
128,160,80152,1,2
144,160,80238,1,8
160,160,80324,1,0
224,192,80497,1,2
288,224,80669,2,0,C|384:224,1,96,8|2
352,160,81014,6,0,B|400:112|449:133|480:160|480:224,2,192,4|8|0
288,160,81876,1,2
224,128,82048,1,8
160,96,82221,1,2
192,32,82393,6,0,B|280:16|296:88|376:72,2,192,0|8|0
128,32,83255,1,2
64,64,83428,1,8
32,128,83600,1,2
32,192,83772,6,0,B|8:264|64:272|120:280|96:354,2,192,0|8|0
96,160,84634,1,2
128,224,84807,1,8
192,192,84979,1,2
224,256,85152,5,8
256,320,85324,1,2
320,352,85497,1,8
384,320,85669,1,2
392,304,85755,1,0
408,296,85841,1,8
416,280,85928,1,8
432,272,86014,1,8
440,256,86100,1,8
456,248,86186,1,8
464,232,86272,1,8
480,224,86359,1,8
488,208,86445,1,8
480,192,86531,5,4
448,128,86703,2,0,C|448:32,1,96,0|8
384,128,87048,1,0
352,192,87221,1,0
320,128,87393,1,0
256,128,87565,2,0,C|256:32,1,96,8|0
192,128,87910,5,0
160,64,88083,2,0,C|64:64,1,96,0|8
32,128,88428,1,0
32,128,88514,1,8
32,128,88600,1,0
64,192,88772,1,0
128,192,88945,1,8
176,240,89117,1,0
128,288,89290,5,0
64,288,89462,2,0,B|75:342|128:352,1,96,0|8
192,352,89807,1,0
256,352,89979,1,0
256,288,90152,1,0
320,288,90324,1,8
320,224,90497,1,0
256,192,90669,5,0
240,192,90755,1,0
224,192,90841,1,0
160,160,91014,1,8
224,128,91186,1,0
240,128,91272,1,8
256,128,91359,1,0
320,96,91531,1,0
256,64,91703,1,8
320,32,91876,1,0
384,32,92048,5,4
448,32,92221,2,0,C|448:128,1,96,0|8
384,192,92565,1,0
448,192,92738,1,0
448,256,92910,2,0,C|448:352,1,96,0|8
384,288,93255,1,0
368,288,93341,1,0
352,288,93428,5,0
320,352,93600,2,0,C|224:352,1,96,0|8
192,288,93945,1,0
176,288,94031,1,8
160,288,94117,1,0
128,352,94290,1,0
64,352,94462,1,8
32,288,94634,1,0
32,272,94721,1,0
32,256,94807,5,0
32,192,94979,1,2
32,128,95152,1,8
64,64,95324,1,2
128,32,95497,1,0
192,64,95669,1,2
256,96,95841,1,8
320,64,96014,1,2
384,32,96186,5,8
448,64,96359,1,0
480,128,96531,1,8
480,192,96703,1,0
468,208,96790,1,8
456,224,96876,1,8
444,240,96962,1,8
432,256,97048,1,8
420,272,97134,1,8
408,288,97221,1,8
396,304,97307,1,8
384,320,97393,1,8
372,336,97479,1,8
360,352,97565,5,4
256,288,97968,1,0
256,288,98140,2,0,C|256:192,1,96
256,192,98859,12,0,103083
