osu file format v7

[General]
AudioFilename: Crow Song (TV Size).mp3
AudioLeadIn: 1000
PreviewTime: 32048
Countdown: 0
SampleSet: Normal
StackLeniency: 0.4
Mode: 0
LetterboxInBreaks: 0

[Editor]
Bookmarks: 3082,14117,25151,32048,43082,54117,65151,75496,86530,97565
DistanceSpacing: 0.800000011920929
BeatDivisor: 4
GridSize: 32

[Metadata]
Title:Crow Song (TV Size)
Artist:Girls Dead Monster
Creator:DJPop
Version:Hard
Source:Angel Beats!
Tags:Sawashiro Miyuki Iwasawa

[Difficulty]
HPDrainRate:5
CircleSize:4
OverallDifficulty:6
SliderMultiplier:1.6
SliderTickRate:2

[Events]
//Background and Video events
Video,-50,"Crow Song (TV Size).avi"
0,0,"Crow Song (TV Size).png"
//Break Periods
//Storyboard Layer 0 (Background)
//Storyboard Layer 1 (Fail)
//Storyboard Layer 2 (Pass)
//Storyboard Layer 3 (Foreground)
//Storyboard Sound Samples
//Background Colour Transformations
3,100,0,0,0

[TimingPoints]
324,344.827586206897,4,1,1,70,1,0
14203,-100,4,1,2,70,0,0
31875,-100,4,1,1,70,0,0
32048,-100,4,1,1,70,0,1
43081,-100,4,1,1,70,0,0
43082,-100,4,1,1,70,0,1
54116,-100,4,1,1,70,0,0
54117,-100,4,1,1,70,0,1
54203,-100,4,1,2,70,0,1
55496,-100,4,2,2,70,0,1
55582,-100,4,1,2,70,0,1
58255,-100,4,2,2,70,0,1
58341,-100,4,1,2,70,0,1
65150,-100,4,1,1,70,0,0
65151,-100,4,1,1,70,0,1
75324,-100,4,1,1,70,0,0
75497,344.827586206897,4,1,1,70,1,0
97738,-400,4,2,1,50,0,0
98772,-400,4,2,2,0,0,0

[Colours]
Combo1 : 0,255,0
Combo2 : 0,255,255
Combo3 : 255,0,255
Combo4 : 255,255,0

[HitObjects]
352,96,1703,5,8
352,288,2048,1,8
160,288,2392,1,8
160,96,2737,1,8
256,352,3082,5,4
256,288,3255,1,2
256,160,3599,1,2
256,96,3772,1,0
256,32,3944,1,2
384,32,4289,1,2
448,64,4461,5,0
480,128,4634,1,2
480,256,4979,1,2
448,320,5151,1,0
384,352,5324,1,2
256,352,5668,1,2
192,352,5841,5,0
128,352,6013,1,2
32,256,6358,1,2
96,224,6530,1,0
160,192,6703,1,2
64,96,7048,1,2
128,64,7220,6,0,C|200:24,1,80,0|2
208,96,7565,2,0,C|280:56,1,80,0|2
288,128,7910,2,0,C|360:88,1,80,0|2
368,160,8255,2,0,C|440:120,1,80,0|2
448,192,8599,5,0
480,256,8772,1,2
384,352,9117,1,2
320,320,9289,1,0
288,256,9461,1,2
160,256,9806,1,2
128,320,9979,5,0
64,352,10151,1,2
32,224,10496,1,2
32,160,10668,1,0
32,96,10841,1,2
160,64,11186,1,2
224,32,11358,5,0
288,64,11530,1,2
384,160,11875,1,2
448,192,12048,1,0
480,256,12220,1,2
384,352,12565,1,2
352,288,12737,6,0,C|312:216,1,80,0|2
272,288,13082,2,0,C|232:216,1,80,0|2
192,288,13427,2,0,C|152:216,1,80,0|2
112,288,13772,2,0,C|72:216,1,80,0|2
32,160,14117,6,0,B|24:120|24:66|72:56|112:48,1,160,4|8
176,32,14634,1,0
240,48,14806,2,0,B|280:56|328:66|328:120|320:160,1,160,0|8
304,224,15324,1,0
288,288,15496,6,0,B|280:320|256:360|200:362|160:352,2,160,0|8|0
352,320,16358,1,0
416,352,16530,2,0,C|480:304,1,80,8|0
416,256,16875,5,0
416,256,17048,1,0
416,128,17392,1,0
416,128,17565,1,0
416,128,17737,1,0
288,128,18082,1,0
288,128,18255,5,0
288,128,18427,1,0
288,256,18772,1,0
288,256,18944,1,0
288,256,19117,2,0,C|128:256,1,160,2|2
32,160,19806,5,0
64,96,19979,1,8
128,64,20151,1,0
192,32,20324,2,0,C|352:32,1,160,0|8
352,160,21013,6,0,C|192:160,1,160,0|8
192,288,21703,1,0
128,320,21875,1,0
192,352,22048,1,8
256,320,22220,2,0,C|416:320,1,160
480,208,22910,5,0
480,208,23082,1,0
480,208,23255,1,0
416,96,23599,1,0
352,64,23772,5,0
288,32,23944,1,0
224,64,24117,1,0
160,96,24289,2,0,B|96:128|42:100|32:48,2,160,2|0|0
192,160,25151,6,0,B|208:192|224:200|256:210|288:200|304:192|320:160,2,160,4|8|0
319,160,26186,1,8
320,320,26530,6,0,B|304:288|288:280|256:270|224:280|208:288|192:320,2,160,0|8|0
192,319,27565,1,8
128,192,27910,6,0,B|102:96|192:64,3,160,0|8|0|8
321,64,29289,6,0,B|410:96|384:192,3,160,0|8|0|8
448,320,30668,5,8
320,320,31013,1,8
192,320,31358,1,8
64,320,31703,1,8
32,192,32048,6,0,C|128:64,1,160,4|8
192,96,32565,1,2
256,128,32737,2,0,C|160:256,1,160,0|8
96,224,33255,1,2
136,168,33427,6,0,C|232:40,3,160,0|8|0|8
304,32,34634,1,2
376,40,34806,6,0,C|472:168,1,160,4|8
480,240,35323,1,2
424,288,35495,2,0,C|272:232,1,160,0|8
232,296,36013,1,2
192,360,36185,6,0,C|40:304,3,160,0|8|0|8
32,232,37392,1,0
48,160,37565,6,0,B|62:72|160:64,1,160,4|8
192,128,38082,1,2
224,192,38255,2,0,B|256:192|321:198|320:128|320:96,1,160,0|8
384,64,38772,1,2
448,96,38944,6,0,B|480:112|488:136|502:158|488:184|480:208|448:224,3,160,0|8|0|8
384,256,40151,1,2
320,288,40323,6,0,B|256:320|197:336|168:336,1,160,4|8
176,264,40840,1,2
183,192,41013,2,0,B|154:192|95:208|32:240,1,160,0|8
24,168,41530,1,2
32,96,41702,6,0,B|48:64|72:56|96:42|120:56|144:64|160:96,3,160,0|8|0|8
224,128,42909,1,8
288,96,43082,6,0,C|440:40,1,160,4|8
488,96,43599,1,2
470,168,43771,2,0,C|320:224,1,160,0|8
256,192,44289,1,2
184,192,44461,6,0,C|104:192,1,80,0|2
32,192,44806,2,0,C|32:272,1,80,8|2
32,344,45151,2,0,C|112:344,1,80,0|2
184,344,45496,2,0,C|184:264,1,80,8|2
256,264,45841,6,0,B|294:336|384:352,1,160,4|8
448,320,46358,1,2
480,256,46530,2,0,B|442:184|352:168,1,160,0|8
288,192,47048,1,2
216,192,47220,6,0,C|136:192,1,80,0|2
64,192,47565,2,0,C|64:112,1,80,8|2
64,40,47910,2,0,C|144:40,1,80,0|2
216,40,48255,2,0,C|216:120,1,80,8|0
288,120,48599,6,0,B|375:108|448:128,1,160,4|8
480,192,49116,1,2
446,256,49289,2,0,B|375:276|288:264,1,160,0|8
240,320,49806,1,2
176,352,49978,6,0,C|96:352,1,80,0|2
80,280,50323,2,0,C|160:280,1,80,8|2
144,208,50668,2,0,C|64:208,1,80,0|2
48,136,51013,2,0,C|128:136,1,80,8|2
96,64,51358,6,0,B|136:40|174:28|216:48|224:96,1,160,4|8
240,168,51875,1,2
256,240,52047,2,0,B|282:352|336:352|352:352,1,160,0|8
416,320,52565,1,2
448,256,52737,6,0,C|488:184,1,80,8|2
438,122,53082,2,0,C|400:192,1,80,8|2
344,144,53427,2,0,C|384:72,1,80,8|2
326,26,53772,2,0,C|288:96,1,80,8|2
224,64,54117,6,0,C|64:64,3,160,4|8|8|8
32,128,55324,2,0,B|64:144|72:168|86:192|72:216|64:240|32:256,1,160
64,320,55841,2,0,C|224:320,2,160,8|8|8
160,224,56875,6,0,B|160:192|156:124|224:128|256:128,3,160,8|8|8|8
320,160,58082,2,0,C|320:320,1,160
384,352,58599,2,0,B|416:352|484:356|480:288|480:256,2,160,8|8|4
416,224,59634,6,0,C|416:64,3,160,12|12|12|12
352,32,60841,1,0
288,64,61013,2,0,C|128:64,3,160,12|12|12|12
96,192,62392,6,0,B|80:192|40:192|20:240|40:288|80:288|96:288,3,160,12|12|12|12
152,240,63599,1,0
208,192,63772,2,0,B|224:192|264:192|284:240|264:288|224:288|208:288,3,160,12|12|12|12
320,352,65151,5,12
448,320,65496,1,12
480,192,65841,1,12
448,64,66186,1,12
320,32,66530,5,12
192,32,66875,1,12
64,64,67220,1,12
32,192,67565,1,12
64,320,67910,5,12
192,352,68255,1,12
320,352,68599,1,12
312,224,68944,1,12
200,160,69289,5,12
192,32,69634,1,12
320,32,69979,1,12
448,64,70324,1,12
480,192,70668,5,12
448,320,71013,1,12
320,352,71358,1,12
192,352,71703,1,12
64,320,72048,5,12
32,192,72392,1,12
64,64,72737,1,12
192,32,73082,1,12
320,32,73427,5,12
320,160,73772,1,12
192,160,74117,1,12
192,288,74461,1,12
320,288,74806,5,8
384,320,74979,1,8
448,352,75151,1,8
480,224,75497,6,0,C|480:64,3,160,4|8|0|8
352,64,76876,2,0,C|352:224,3,160,0|8|0|8
224,224,78255,6,0,C|224:64,3,160,0|8|0|8
96,64,79634,2,0,C|96:224,2,160,0|8|0
160,32,80497,1,2
224,64,80668,1,8
320,160,81014,6,0,C|480:160,3,160,4|8|0|8
480,288,82393,2,0,C|320:288,3,160,0|8|0|8
192,288,83772,6,0,C|32:288,3,160,0|8|0|8
32,160,85152,1,8
80,40,85497,1,8
128,160,85841,1,8
176,40,86186,1,8
224,160,86531,5,4
288,160,86703,1,0
288,32,87048,1,0
352,64,87221,1,0
416,96,87393,1,0
480,128,87565,1,0
480,256,87910,5,0
480,320,88082,1,0
352,352,88428,1,0
288,320,88600,1,0
224,288,88772,1,0
160,320,88945,1,0
96,352,89117,1,0
32,320,89290,5,0
32,256,89461,1,0
32,128,89807,1,0
64,64,89979,1,0
128,32,90152,1,0
192,64,90324,1,0
224,128,90497,1,0
256,192,90668,6,0,C|336:192,1,80
336,272,91013,2,0,C|336:192,1,80
416,192,91358,2,0,C|336:192,1,80
336,112,91703,2,0,C|336:192,1,80
256,192,92048,5,4
224,256,92220,1,0
96,256,92565,1,0
64,192,92738,1,0
32,128,92910,1,0
128,32,93255,1,0
192,64,93428,5,0
256,96,93599,1,0
368,32,93945,1,0
480,96,94290,1,0
448,160,94462,1,0
416,224,94634,1,0
352,256,94807,5,0
288,288,94979,1,2
224,320,95152,1,0
160,352,95324,1,2
48,288,95669,1,2
160,224,96014,1,2
192,160,96186,6,0,B|152:120|146:75|192:40|224:40,1,160,8|8
290,40,96703,2,0,B|320:40|366:75|360:120|320:160,1,160,0|8
256,192,97220,1,8
256,352,97565,5,4
256,272,97968,1,0
256,272,98141,2,0,C|256:192,1,80
256,192,98859,12,0,103083
