osu file format v9

[General]
AudioFilename: Alchemy.mp3
AudioLeadIn: 0
PreviewTime: 144089
Countdown: 0
SampleSet: Normal
StackLeniency: 0.8
Mode: 0
LetterboxInBreaks: 0

[Editor]
Bookmarks: 97347
DistanceSpacing: 1
BeatDivisor: 4
GridSize: 8

[Metadata]
Title:Alchemy (Yui ver.)
Artist:Girls Dead Monster
Creator:Clare
Version:Insane
Source:Angel Beats!
Tags:Impossiblexu [Shalon] banvi

[Difficulty]
HPDrainRate:6
CircleSize:4
OverallDifficulty:8
ApproachRate:8
SliderMultiplier:2
SliderTickRate:1

[Events]
//Background and Video events
0,0,"Alchemy.jpg"
//Break Periods
2,86475,96799
2,167930,178071
//Storyboard Layer 0 (Background)
//Storyboard Layer 1 (Fail)
//Storyboard Layer 2 (Pass)
//Storyboard Layer 3 (Foreground)
//Storyboard Sound Samples
//Background Colour Transformations
3,100,163,162,255

[TimingPoints]
14640,363.636363636364,4,1,1,50,1,0
84821,-100,4,1,1,30,0,0
97367,-100,4,1,1,50,0,0
144003,-100,4,1,1,60,0,0
144094,-100,4,1,1,60,0,1
165912,-100,4,1,1,60,0,0
166276,-100,4,1,1,30,0,0
178639,-100,4,1,1,50,0,0
193549,-100,4,1,1,0,0,0
194185,-100,4,1,1,20,0,0
194549,-100,4,1,1,50,0,0
194912,-100,4,1,1,60,0,0
195003,-100,4,1,1,60,0,1
218276,-100,4,1,1,60,0,0
218458,-100,4,1,1,50,0,0

[Colours]
Combo1 : 77,116,253
Combo2 : 183,33,6

[HitObjects]
376,96,14639,5,4
400,192,14821,1,0
360,280,15003,1,8
312,296,15094,1,0
280,336,15185,1,0
184,344,15367,1,0
112,272,15549,1,8
64,264,15639,1,0
32,224,15730,1,8
160,72,16094,5,4
160,72,16276,2,0,B|224:64|272:104,1,100,0|8
208,176,16639,2,0,B|256:264|360:320,1,200
440,264,17185,1,8
456,168,17367,5,0
408,80,17549,1,0
360,56,17639,1,0
312,56,17730,1,0
216,72,17912,1,8
216,72,18094,2,0,B|192:160|64:224,1,200
16,288,18639,1,8
96,352,18821,1,0
288,352,19003,6,0,B|360:280|392:168,1,200,0|8
320,112,19549,1,0
320,112,19730,2,0,B|248:40|136:8,1,200,0|8
56,48,20276,5,0
16,136,20458,1,0
24,184,20549,1,0
48,224,20639,1,0
48,224,20821,1,8
128,280,21003,2,0,B|200:344|336:344,1,200
408,312,21549,1,8
440,216,21730,1,0
368,144,21912,5,0
368,144,22003,1,0
368,144,22094,2,0,B|320:112|240:160,1,100,0|8
120,272,22639,1,0
176,352,22821,1,0
280,352,23003,1,8
440,312,23367,1,0
368,248,23549,2,0,B|416:216|480:224,1,100,0|8
384,160,23912,2,0,B|331:183|280:160,1,100
232,80,24276,5,8
232,80,24458,1,8
232,80,24821,2,0,B|216:192|112:272,1,200,0|8
208,320,25367,1,0
304,312,25549,1,0
368,240,25730,2,0,B|408:200|464:192,1,100,0|8
280,96,26276,6,0,B|176:88|64:128,1,200,0|8
16,200,26821,1,0
112,232,27003,1,0
208,200,27185,2,0,B|256:184|312:208,1,100,8|8
472,184,27730,5,0
472,184,27912,2,0,B|448:128|368:88,2,100,0|8|0
376,216,28458,1,0
320,296,28640,1,0
320,296,28821,2,0,B|216:296,1,100,8|0
120,288,29185,5,0
96,240,29276,1,0
104,192,29367,1,0
104,192,29549,1,8
128,96,29730,2,0,B|184:96|232:56,1,100
320,72,30094,1,0
320,72,30276,1,8
360,264,30640,6,0,B|432:264,2,50
272,312,31003,2,0,B|168:312|48:264,1,200,8|0
56,176,31549,1,0
56,176,31640,1,0
56,176,31730,1,8
152,208,31912,5,0
224,144,32094,1,0
320,160,32276,1,0
408,112,32458,1,8
464,192,32640,2,0,B|416:224|400:296,1,100
320,320,33003,2,0,B|271:321|226:284,1,100,0|8
136,328,33367,1,0
56,264,33549,6,0,B|41:212|72:144,1,100
112,80,33912,1,8
312,56,34276,1,0
384,120,34458,1,0
408,216,34640,1,8
224,144,35003,1,0
128,136,35185,1,0
32,160,35367,1,8
296,312,35730,5,0
296,312,35912,1,8
392,280,36094,1,8
432,192,36276,1,0
440,144,36367,1,0
416,96,36458,1,0
416,96,36639,1,0
320,112,36821,2,0,B|200:112,1,100,8|0
120,112,37185,1,0
120,112,37367,1,0
64,192,37549,2,0,B|168:192,1,100,8|0
264,192,37912,5,0
264,192,38094,1,0
336,256,38276,2,0,B|376:288|456:320,1,100,8|0
504,248,38639,1,0
448,168,38821,1,0
408,136,38912,1,8
368,112,39003,1,8
368,112,39185,1,0
272,88,39367,5,4
224,96,39458,1,0
184,128,39549,2,0,B|144:160|56:128,1,100,0|8
40,224,39912,2,0,B|64:272|128:296,1,100
216,296,40276,1,0
216,296,40458,1,8
296,232,40639,6,0,B|288:176|320:112,1,100
392,80,41003,2,0,B|360:32|288:24,1,100,0|8
224,80,41367,1,0
224,80,41549,2,0,B|176:112|184:192,1,100
176,216,41821,1,0
152,256,41912,1,8
232,320,42094,1,0
328,328,42276,6,0,B|376:344|432:312,1,100
448,216,42639,1,8
448,216,42821,2,0,B|432:160|384:120,1,100
304,96,43185,1,0
304,200,43367,2,0,B|176:200,1,100,8|0
216,296,43730,6,0,B|88:296,1,100
64,208,44094,1,8
64,208,44276,2,0,B|80:152|144:104,1,100
200,64,44639,1,0
304,64,44821,1,8
384,128,45003,1,0
408,224,45185,6,0,B|480:224,2,50
352,304,45549,1,8
256,328,45730,1,0
160,304,45912,2,0,B|120:344,2,50,8|0|8
128,208,46276,1,8
256,56,46639,5,0
256,104,46730,1,0
256,152,46821,1,0
256,256,47003,1,8
256,360,47185,1,0
160,352,47367,1,0
168,304,47458,1,0
192,256,47549,1,0
232,232,47639,1,8
280,216,47730,1,8
128,120,47912,6,0,B|160:80|216:80,1,100
304,120,48276,2,0,B|272:80|216:80,1,100,0|8
224,184,48639,2,0,B|256:144|312:144,1,100
400,184,49003,2,0,B|368:144|312:144,1,100,0|8
224,184,49367,2,0,B|192:144|136:144,1,100
48,184,49730,2,0,B|80:144|136:144,1,100,0|8
136,144,50276,1,8
136,248,50458,2,0,B|136:368,1,100,0|8
232,336,50821,5,0
384,320,51003,1,4
440,184,51185,1,0
384,48,51367,1,8
232,48,51549,1,0
232,48,51730,2,0,B|176:72|168:152,2,100,0|0|8
384,48,52276,5,0
440,184,52458,1,0
384,320,52639,1,0
232,336,52821,1,8
88,304,53003,1,0
88,304,53185,2,0,B|88:256|136:208,2,100,0|0|8
232,264,53730,6,0,B|288:256|304:184,1,100
168,264,54094,2,0,B|112:256|96:184,1,100,0|8
160,64,54458,2,0,B|216:72|232:144,1,100
96,64,54821,2,0,B|40:72|24:144,1,100,0|8
232,264,55185,2,0,B|288:256|304:184,1,100
168,264,55549,2,0,B|112:256|96:184,1,100,0|8
99,198,56094,1,8
160,120,56276,2,0,B|208:96|280:112,1,100,0|8
360,120,56639,5,0
224,184,56821,1,4
376,184,57003,1,0
224,184,57185,1,8
328,288,57367,1,0
224,184,57549,1,0
144,312,57730,1,0
224,184,57912,1,8
256,192,58094,12,8,59367
256,192,59549,12,8,60821
176,128,61185,5,0
176,232,61367,1,0
176,232,61458,1,0
176,232,61549,1,8
176,232,61639,1,0
176,232,61730,1,0
80,288,61912,1,0
120,320,62003,1,0
168,336,62094,1,0
216,320,62185,1,8
256,296,62276,1,8
352,328,62458,1,0
432,264,62639,6,0,B|480:216|448:152,1,100,4|0
392,96,63003,1,8
296,72,63185,1,0
200,80,63367,2,0,B|104:136|64:224,1,200,0|8
64,222,63912,1,0
152,264,64094,6,0,B|264:288,1,100
256,184,64458,2,0,B|353:161,1,100,8|0
384,256,64821,1,0
296,312,65003,2,0,B|196:319,1,100,0|8
176,224,65367,2,0,B|80:272,1,100
96,168,65730,2,0,B|120:40,1,100,0|8
216,56,66094,1,0
216,56,66276,1,0
296,120,66458,5,0
368,184,66639,2,0,B|336:232|344:288,1,100,8|0
248,248,67003,2,0,B|216:288|164:298,1,100
112,216,67367,1,8
112,216,67549,1,0
96,120,67730,2,0,B|120:72|176:56,1,100,8|8
170,57,68003,1,0
170,57,68094,2,0,B|218:89|290:97,1,100,8|0
168,304,68458,5,4
240,232,68639,1,0
144,200,68821,1,8
216,128,69003,1,0
128,80,69185,1,0
208,24,69367,5,0
256,40,69458,1,0
304,64,69549,1,8
288,160,69730,2,0,B|400:128,1,100
480,96,70094,2,0,B|450:191,1,100,0|8
376,256,70458,1,0
192,344,70821,5,0
96,336,71003,1,8
48,248,71185,1,0
248,280,71549,1,8
344,264,71730,1,8
392,240,71821,1,0
432,208,71912,1,0
336,168,72094,1,8
336,168,72276,5,0
192,120,72458,1,8
48,168,72639,1,0
16,264,72821,2,0,B|8:320|56:360,2,100,0|0|8
48,168,73367,1,4
112,240,73549,2,0,B|216:240,1,100
304,288,73912,1,8
328,240,74003,1,0
304,192,74094,1,0
216,144,74276,6,0,B|184:96|96:96,2,100,0|0|8
304,96,74821,1,0
304,96,75185,1,0
400,104,75367,2,0,B|456:128|456:200,1,100,8|0
424,272,75730,5,0
344,328,75912,1,0
248,312,76094,1,8
152,336,76276,1,0
64,296,76458,2,0,B|8:264|32:184,1,100
24,160,76730,1,0
48,112,76821,1,8
136,72,77003,1,0
136,72,77185,1,0
232,64,77367,6,0,B|280:40|352:80,1,100,0|8
416,120,77730,1,0
416,120,77912,1,0
448,216,78094,2,0,B|440:272|403:305,1,100,0|8
352,216,78458,2,0,B|297:207|240:152,1,100,0|8
72,104,79003,5,8
40,304,79367,1,8
128,344,79549,1,0
224,328,79730,1,8
224,328,79821,1,0
224,328,79912,1,0
320,344,80094,5,0
416,312,80276,1,0
416,312,80458,2,0,B|456:264|416:200,1,100,8|0
360,144,80821,1,0
272,192,81003,1,0
200,120,81185,2,0,B|152:88|88:88,1,100,8|0
16,136,81549,5,0
16,136,81730,1,0
56,224,81912,2,0,B|104:256|168:256,1,100,8|0
224,320,82276,1,0
320,296,82458,1,0
368,280,82549,1,0
400,240,82639,1,8
416,144,82821,1,0
336,80,83003,5,0
232,248,83367,1,8
208,48,83730,1,8
104,48,83912,1,8
64,144,84094,1,8
232,248,84458,1,8
408,336,85003,6,0,B|472:280|392:232|496:136,1,200
477,155,85549,1,8
477,155,85730,1,0
477,155,85912,2,0,B|421:91|373:171|277:67,1,200
184,72,97549,5,4
280,64,97730,1,0
368,112,97912,2,0,B|424:208|352:304,1,200,8|0
264,344,98458,1,0
168,352,98639,2,0,B|112:352|64:304,1,100,8|0
40,224,99003,5,0
72,128,99185,2,0,B|88:72|16:16,2,100,0|8|0
168,112,99730,1,0
264,88,99912,1,0
336,160,100094,1,8
256,344,100458,5,0
152,344,100639,2,0,B|88:344|48:272,1,100,0|8
160,264,101003,2,0,B|216:184|368:184,1,200
336,184,101549,1,8
432,200,101730,5,0
280,328,102094,1,0
184,320,102276,1,8
96,272,102458,1,0
48,80,102821,6,0,B|96:48|160:64,1,100,0|8
240,80,103185,1,0
288,96,103276,1,0
320,128,103367,2,0,B|368:160|368:232,1,100,8|0
272,232,103730,1,0
272,232,103912,2,8,B|224:208|128:240,1,100
120,312,104276,1,0
120,312,104458,1,8
96,112,104821,1,0
224,264,105185,1,8
416,136,105549,5,0
392,280,105730,1,8
256,336,105912,1,8
256,336,106094,2,8,B|160:264|64:256,1,200
40,168,106639,1,8
40,168,106821,2,0,B|144:184|248:120,1,200
312,64,107367,1,8
432,192,107730,5,0
296,352,108094,1,8
432,192,108458,1,0
336,200,108639,1,0
256,256,108821,1,8
96,312,109185,5,4
40,232,109367,2,0,B|80:192|152:200,1,100,0|8
232,224,109730,2,0,B|191:114|87:98,1,200
89,99,110276,1,8
176,48,110458,5,0
264,96,110639,1,0
264,96,110730,1,0
264,96,110821,1,0
296,192,111003,1,8
392,216,111185,2,0,B|284:263|260:359,1,200
176,304,111730,1,8
136,216,111912,1,0
176,128,112094,6,0,B|280:104|392:128,1,200,0|8
392,224,112639,1,0
392,224,112821,2,0,B|288:224|184:280,1,200,0|8
104,240,113367,5,0
136,144,113549,1,0
216,80,113730,1,0
312,120,113912,1,8
400,168,114094,2,0,B|320:224|200:208,1,200
128,264,114639,1,8
152,360,114821,1,0
248,360,115003,5,0
296,352,115094,1,0
344,336,115185,2,0,B|408:320|408:216,1,100,0|8
208,288,115730,1,0
112,256,115912,1,0
56,176,116094,1,8
256,200,116458,1,0
352,168,116639,1,0
408,88,116821,1,8
240,32,117185,5,8
160,96,117367,1,0
248,136,117549,1,8
168,192,117730,1,0
256,240,117912,1,8
168,296,118094,2,0,B|184:336|272:368,1,100,0|8
344,336,118458,1,0
464,152,118821,6,0,B|472:88|408:48,1,100,0|8
224,56,119367,1,0
128,72,119549,2,0,B|72:88|40:152,1,100,0|8
40,232,119912,1,0
40,232,120276,1,8
88,320,120458,1,8
184,336,120639,2,0,B|232:360|296:344,1,100
376,320,121003,5,0
440,240,121185,1,8
448,144,121367,2,0,B|432:96|376:64,1,100
384,69,121730,1,0
344,160,121912,2,0,B|244:160,1,100,8|0
160,112,122276,1,0
120,136,122367,1,0
88,168,122458,2,0,B|48:208|40:280,1,100,0|8
352,264,123003,5,0
272,328,123185,1,0
168,328,123367,1,8
96,256,123549,1,0
112,160,123730,1,0
176,88,123912,2,0,B|216:56|304:72,1,100,0|8
336,144,124276,2,0,B|448:232,1,100
414,205,124639,1,0
320,240,124821,6,0,B|272:352,1,100,8|0
192,280,125185,2,0,B|80:312,1,100
112,208,125549,2,0,B|16:178,1,100,8|0
96,112,125912,2,0,B|32:24,1,100
96,112,126276,1,8
256,192,126458,12,8,127730
256,192,127912,12,8,129185
256,192,129367,5,0
64,144,129730,1,0
264,128,130094,1,0
456,176,130458,1,0
256,192,130821,1,0
128,344,131185,1,0
128,344,131367,1,8
40,160,131730,1,0
216,40,132094,5,8
312,56,132276,2,0,B|369:59|408:120,1,100,0|4
344,184,132639,2,0,B|256:240|208:328,1,200,0|0
72,136,133549,5,8
72,136,133730,2,0,B|80:192|152:216,1,100
216,264,134094,1,0
312,296,134276,1,8
408,272,134458,1,0
472,192,134639,2,0,B|472:136|440:72,2,100,0|0|8
408,272,135185,5,4
312,96,135549,1,0
216,272,135912,1,0
112,96,136276,1,0
16,272,136639,1,0
112,96,137003,1,0
112,96,137185,1,8
312,96,137549,1,0
152,352,138094,6,0,B|112:320|112:256,1,100,0|4
264,288,138458,2,0,B|300:245|288:184,2,100,0|8|0
152,192,139003,1,0
248,72,139185,1,0
400,80,139367,1,8
480,208,139549,1,0
440,296,139730,6,0,B|360:368|240:336,1,200,0|8
56,328,140458,2,0,B|120:256|248:248,1,200,0|8
253,340,141003,2,0,B|253:132,1,200
256,40,141549,1,8
256,40,141912,1,0
432,128,142276,1,8
432,232,142458,1,8
352,296,142639,1,0
160,344,143003,5,8
112,328,143094,1,0
80,288,143185,1,0
32,200,143367,1,0
128,232,143549,1,0
176,216,143639,1,0
216,184,143730,1,8
288,112,143912,1,0
192,128,144094,6,0,B|136:128|88:64,2,100,0|0|8
224,32,144639,1,0
224,32,145003,1,0
328,32,145185,2,0,B|384:56|384:128,1,100,8|0
400,208,145549,5,0
296,200,145730,1,0
240,280,145912,1,8
144,256,146094,1,0
64,312,146276,2,0,B|8:264|32:184,2,100,0|0|8
144,256,146821,1,0
144,256,147003,5,0
160,160,147185,2,0,B|208:136|280:176,1,100,0|8
256,164,147549,1,0
256,164,147730,1,0
264,264,147912,2,0,B|296:320|376:328,1,100,0|8
352,224,148276,2,0,B|384:176|352:96,1,100
360,328,148821,5,8
160,304,149185,1,0
88,240,149367,1,0
56,144,149549,2,0,B|16:104,2,50,8|0|0
144,96,149912,5,0
208,176,150094,1,0
280,112,150276,2,0,B|320:80|392:120,2,100,8|0|0
344,192,150821,1,0
424,248,151003,2,0,B|432:312|368:344,1,100,8|0
288,352,151367,5,0
288,352,151549,1,0
192,344,151730,2,0,B|146:344|98:312,1,100,8|0
176,248,152094,1,0
272,232,152276,1,8
320,224,152367,1,8
360,200,152458,1,8
416,120,152639,1,0
328,80,152821,5,0
128,88,153185,1,8
128,88,153367,1,0
64,280,153730,2,0,B|88:336|144:344,1,100,0|8
240,344,154094,1,0
344,344,154276,2,0,B|416:344|432:280,2,100,0|0|8
240,344,154821,1,4
240,40,155367,5,8
240,40,155458,1,0
240,40,155549,1,0
240,136,155730,2,0,B|240:256,1,100
320,288,156094,1,8
240,344,156276,1,0
152,288,156458,2,0,B|32:272|0:120,1,200,0|8
56,72,157003,1,0
112,176,157185,6,0,B|155:209|224:200,1,100
280,136,157549,2,0,B|336:128|384:160,1,100,8|0
440,232,157912,1,0
376,312,158094,2,0,B|322:284|320:216,1,100,0|8
224,208,158458,2,0,B|240:144|208:104,1,100
128,168,158821,2,0,B|88:136|0:144,1,100,0|8
56,240,159185,1,0
152,232,159367,5,0
232,288,159549,1,0
328,312,159730,2,0,B|384:304|424:248,1,100,8|0
336,200,160094,2,0,B|291:196|251:148,1,100
344,104,160458,2,0,B|389:100|429:52,1,100,8|0
328,40,160821,2,0,B|280:32|200:80,1,100,8|8
192,88,161094,1,0
168,128,161185,2,0,B|152:184|64:192,1,100,8|0
184,232,161549,5,0
224,320,161730,1,0
120,320,161912,1,8
120,320,162094,1,0
88,224,162276,1,0
152,152,162458,6,0,B|120:88,2,50,0|0|8
256,152,162821,2,0,B|304:160|368:120,1,100
416,208,163185,2,0,B|388:247|386:303,1,100,0|8
312,368,163549,1,0
416,208,163912,5,0
376,120,164094,1,8
288,80,164276,1,0
88,80,164639,1,0
80,176,164821,2,0,B|32:184,2,50,8|0|0
136,256,165185,1,0
320,328,165549,1,8
320,328,165912,1,0
200,64,166458,6,0,B|112:88|112:184|40:192,1,200
152,208,167003,2,0,B|144:264|216:304,1,100,8|0
256,208,167367,2,0,B|320:136|472:120,1,200
40,168,178821,6,0,B|88:192|144:168,1,100
234,168,179185,2,0,B|186:192|130:168,1,100,0|8
184,256,179549,2,0,B|232:280|288:256,1,100
378,256,179912,2,0,B|330:280|274:256,1,100,0|8
312,160,180276,2,0,B|360:136|416:160,1,100
506,160,180639,2,0,B|458:136|402:160,1,100,0|8
116,296,181185,5,0
80,200,181367,2,0,B|40:160|88:88,1,100,0|8
160,168,181730,2,0,B|208:184|258:151,1,100
304,64,182094,2,0,B|360:72|400:136,1,100,0|8
416,216,182458,1,0
368,304,182639,1,0
272,328,182821,1,0
192,272,183003,5,8
96,256,183185,2,0,B|128:296|136:360,1,100
96,256,183549,2,0,B|48:288|-32:256,1,100,0|8
56,184,183912,2,0,B|64:128|0:96,1,100
112,112,184276,2,0,B|144:72|216:72,1,100,0|8
296,112,184639,6,0,B|208:176,1,100
296,229,185003,2,0,B|215:170,1,100,0|8
296,229,185367,2,0,B|208:293,1,100
296,346,185730,2,0,B|215:287,1,100,0|8
296,232,186094,2,0,B|384:296,1,100
296,349,186458,2,0,B|377:290,1,100,0|8
480,168,187003,5,0
480,168,187185,2,0,B|480:220|432:252,1,100,0|8
312,344,187549,1,0
160,344,187730,1,0
16,304,187912,1,0
168,304,188094,1,8
312,264,188276,1,0
160,264,188458,1,8
16,224,188639,1,0
168,224,188821,1,8
256,192,189003,12,8,190276
256,192,190458,12,0,193549
240,120,194276,6,0,B|240:256,1,100
240,220,194639,1,8
136,224,195003,6,0,B|80:224|32:160,2,100,0|0|8
192,312,195549,1,0
392,288,195912,1,0
392,288,196094,2,0,B|393:234|337:210,1,100,8|0
408,136,196458,5,0
224,56,196821,1,8
56,168,197185,2,0,B|32:216|72:264,2,100,0|0|8
176,312,197912,1,0
216,216,198094,6,0,B|264:192|336:232,1,100,0|8
312,220,198639,1,0
216,216,198821,2,0,B|169:214|137:158,1,100,0|8
48,200,199185,2,0,B|48:300,1,100
248,336,199730,5,8
440,272,200094,1,8
488,184,200276,1,8
488,184,200458,2,0,B|496:128,2,50,8|0|0
392,200,200821,5,0
296,232,201003,1,0
200,200,201185,2,0,B|88:200,2,100,8|0|0
296,176,201730,1,0
392,200,201912,2,0,B|400:264|336:296,1,100,8|0
280,352,202276,5,0
280,352,202458,1,0
184,336,202639,2,0,B|138:336|90:304,1,100,8|0
40,216,203003,1,0
144,48,203367,1,8
240,24,203549,1,0
336,56,203730,5,0
384,248,204094,1,8
320,320,204276,1,0
120,336,204639,2,0,B|71:329|47:273,1,100,0|8
144,248,205003,1,0
248,248,205185,2,0,B|320:248|336:184,2,100,0|0|8
192,168,205730,1,4
192,168,206094,1,0
192,168,206276,1,8
192,168,206458,1,0
120,272,206639,6,0,B|48:200|104:144|32:72,2,200,0|8|0
208,320,207549,1,0
312,320,207730,2,0,B|313:266|257:242,1,100,8|0
176,184,208094,2,0,B|168:136|207:89,1,100
280,160,208458,2,0,B|312:208|365:211,1,100,8|0
384,112,208821,2,0,B|440:128|472:72,2,100,0|0|8
448,192,209367,6,0,B|432:304|320:368,1,200
240,360,209912,1,8
56,280,210276,1,0
48,184,210458,2,0,B|49:137|105:105,1,100,0|8
152,192,210821,2,0,B|211:178|240:104,1,100
360,280,211367,5,8
360,280,211730,1,8
352,184,211912,1,8
288,104,212094,2,0,B|248:64|160:72,1,100,8|0
120,144,212458,5,4
184,224,212639,1,0
280,216,212821,2,0,B|318:185|373:217,3,100
472,216,213549,2,0,B|518:193|510:129,1,100,8|0
424,176,213912,5,0
368,256,214094,1,0
288,320,214276,2,0,B|242:320|194:288,1,100,8|0
168,192,214639,1,0
112,280,214821,1,0
80,240,214912,1,0
72,192,215003,1,8
168,192,215185,1,0
168,88,215367,5,0
360,144,215730,1,8
408,232,215912,1,0
208,208,216276,2,0,B|232:264|288:272,1,100,0|8
280,270,216821,2,0,B|352:270|360:350,2,100,0|0|8
376,232,217367,5,0
320,40,217730,2,0,B|320:160,1,100,0|8
320,140,218276,1,4
144,320,218639,5,8
144,320,218821,2,0,B|192:344|248:320,2,100
64,264,219367,1,8
64,264,219730,2,0,B|75:211|152:176,1,100,8|0
400,72,220276,5,0
96,80,220639,2,0,B|48:112|40:184,1,100,0|0
112,296,221003,1,0
264,304,221185,1,8
400,160,221549,5,8
400,160,221730,2,0,B|456:160|480:80,2,100
400,264,222276,1,8
400,64,222639,2,0,B|400:168,1,100,8|0
112,64,223185,6,0,B|96:112|136:168,1,100
248,256,223549,1,0
400,264,223730,2,0,B|448:300|448:368,1,100
400,264,224094,5,8
256,128,224458,1,8
256,128,224639,2,0,B|224:88|152:96,2,100
176,192,225185,1,8
368,128,225549,2,0,B|488:128,1,100,8|0
360,296,226094,6,0,B|335:341|264:360,1,100
136,320,226458,2,0,B|72:328|32:240,1,100
80,128,226821,2,0,B|88:72|160:40,1,100,0|4
432,104,227367,1,8
416,256,227549,1,0
288,328,227730,1,0
144,272,227912,2,0,B|8:240,1,100,0|8
144,136,228276,2,0,B|99:46,1,100,0|8
296,104,228821,5,8
336,128,228912,1,0
360,176,229003,1,0
360,176,229185,1,0
416,256,229367,2,0,B|432:312|376:352,1,100,0|8
288,344,229730,1,0
96,296,230094,5,0
64,200,230276,2,0,B|112:192|161:224,1,100,8|8
64,200,230639,1,0
104,112,230821,2,0,B|160:120|208:64,1,100,0|8
224,176,231185,2,0,B|336:200,1,100
440,32,231730,5,8
376,224,232094,2,0,B|376:328,2,100,0|0|8
280,224,232639,2,0,B|384:280,1,100,8|0
456,224,233003,2,0,B|360:272,1,100,0|8
376,168,233367,2,0,B|376:64,1,100
304,144,233730,2,0,B|248:48,1,100,0|8
184,128,234094,2,0,B|80:128,1,100
88,328,234639,5,8
288,312,235003,2,0,B|368:252,1,100
288,192,235367,2,0,B|274:92,1,100,8|8
274,92,235730,1,0
256,192,235912,12,0,237730
256,192,237912,5,0
160,216,238094,2,0,B|128:304|40:288|8:360,2,200
256,192,239003,2,0,B|296:328,1,100,8|0
368,232,239367,2,0,B|448:328,1,100,8|0
480,224,239730,2,0,B|472:112,1,100,8|0
376,152,240094,2,0,B|256:128,1,100,8|0
176,128,240458,6,0,B|152:80,2,50,8|0|0
80,168,240821,2,0,B|48:240,2,50,8|0|0
168,216,241185,1,8
208,240,241276,1,0
256,240,241367,1,0
376,152,241549,5,4
