osu file format v7

[General]
AudioFilename: 02 - Alchemy (short version).mp3
AudioLeadIn: 0
PreviewTime: 62020
Countdown: 0
SampleSet: Normal
StackLeniency: 0.7
Mode: 0
LetterboxInBreaks: 1

[Editor]
DistanceSpacing: 0.600000023841858
BeatDivisor: 4
GridSize: 8

[Metadata]
Title:Alchemy
Artist:Girls Dead Monster
Creator:Vikon
Version:Normal
Source:Angel Beats!
Tags:iwasawa marina climbb65588

[Difficulty]
HPDrainRate:3
CircleSize:3
OverallDifficulty:4
SliderMultiplier:1.3
SliderTickRate:1

[Events]
//Background and Video events
0,0,"Iwasawa + Yuri 2.jpg"
//Break Periods
//Storyboard Layer 0 (Background)
//Storyboard Layer 1 (Fail)
//Storyboard Layer 2 (Pass)
//Storyboard Layer 3 (Foreground)
//Storyboard Sound Samples
//Background Colour Transformations
3,100,163,162,255

[TimingPoints]
4212,363.636363636364,4,1,1,50,1,0
21471,-100,4,1,0,50,0,0
21838,-100,4,1,1,50,0,0
47475,-100,4,1,1,50,0,1
47657,-100,4,1,1,50,0,0
62384,-100,4,1,1,50,0,1
62566,-100,4,1,1,60,0,0
84384,-100,4,2,0,70,0,0
85700,363.636363636364,4,2,0,70,1,0
88518,-100,4,1,1,70,0,0
89972,-100,4,2,0,70,0,0
91475,-100,4,1,1,50,0,0
92881,-100,4,2,0,70,0,0
95656,-100,4,1,0,60,0,0

[Colours]
Combo1 : 249,214,149
Combo2 : 79,253,249
Combo3 : 177,136,255
Combo4 : 245,80,184

[HitObjects]
144,328,15848,2,0,B|72:208|152:64,2,260
241,263,17666,1,0
241,145,18030,1,0
406,291,18757,6,0,B|478:171|398:27,2,260
299,242,20575,1,0
299,124,20939,1,0
181,124,21302,1,0
181,240,21666,1,4
307,118,24030,6,0,B|235:70|171:126,1,130,0|0
185,173,24575,1,0
185,231,24757,2,0,B|257:279|321:223,1,130,0|0
80,96,27484,6,0,B|200:120|104:264|256:288,2,260
200,96,29302,1,0
320,96,29666,1,0
424,305,30393,6,0,B|304:281|400:137|248:113,2,260
424,187,32212,2,0,B|408:112|352:72,1,130,0|0
242,77,32939,2,0,B|258:152|314:192,1,130,0|4
64,88,35666,6,0,B|136:40|200:96,1,130,0|0
185,143,36212,1,0
185,201,36393,1,0
185,317,36757,2,0,B|279:380|419:285,2,195
318,121,38575,5,0
259,121,38757,2,0,B|204:55|135:135,1,130,0|0
88,121,39302,1,0
39,227,39666,2,0,B|39:350|184:349,1,195,0|0
220,348,40393,1,0
302,265,40757,1,0
288,56,41484,5,0
288,56,41666,1,8
180,108,42030,2,0,B|27:109,1,130,0|8
50,167,42575,1,0
50,225,42757,2,0,B|203:226,1,130,0|8
238,225,43302,1,0
325,308,43666,1,0
409,223,44030,1,8
324,138,44393,1,8
256,192,44757,12,0,46757
432,252,47121,6,0,B|432:343,2,65
432,192,47666,5,8
311,192,48030,1,0
206,132,48393,1,8
206,251,48757,1,0
123,168,49121,2,0,B|186:130|277:182,1,130,8|0
247,225,49666,2,0,B|184:263|93:211,1,130,8|0
332,329,50575,5,0
332,329,50757,2,0,B|332:62,2,260,8|8|8
332,330,52393,2,0,B|256:330,2,65
338,53,53484,5,8
253,137,53848,1,0
168,52,54211,1,8
252,136,54575,1,0
169,218,54939,2,0,B|221:168|321:224,1,130,8|0
290,268,55484,2,0,B|360:255|388:363,1,130,8|0
144,190,56393,5,0
144,190,56575,2,0,B|249:132|352:256|427:156,2,260,0|0|0
105,304,58393,1,0
60,192,58757,1,0
105,80,59121,1,4
256,192,59302,12,4,61666
90,108,62393,6,0,B|213:34|361:119,2,260,4|8|8
172,190,64211,2,0,B|118:246|182:311,1,130,8|8
293,304,64939,1,0
413,304,65302,2,0,B|417:106|191:105,1,325,8|0
92,105,66575,1,8
267,105,67121,6,0,B|413:106,1,130
314,188,67848,2,0,B|480:187,1,130,0|4
443,304,68575,2,0,B|366:406|277:296,1,195,0|0
199,219,69484,6,0,B|97:142|207:53,2,195,0|0|0
281,301,70939,1,0
270,59,71666,6,0,B|481:59|482:286,1,325,0|0
366,227,72939,1,0
261,174,73302,1,0
160,115,73666,1,8
56,58,74030,6,0,B|2:190|57:326,2,260,4|0|8
154,120,75848,1,0
251,185,76211,1,0
346,252,76575,1,8
447,310,76939,2,0,B|451:112|225:111,1,325,8|0
160,194,78211,1,4
59,317,78757,5,0
176,317,79121,2,0,B|176:230,2,65
293,317,79848,6,0,B|331:258|291:192,1,130,4|0
250,152,80393,2,0,B|191:114|125:154,1,130,0|8
44,235,81121,2,0,B|20:265|57:320,4,65,0|8|0|8|0
158,261,82211,1,4
274,261,82575,1,4
71,96,84757,5,2
71,135,84939,2,0,B|70:223,1,65
71,245,85302,1,2
71,284,85484,1,0
256,192,85666,12,4,87154
160,56,87699,5,2
199,56,87881,2,0,B|287:57,1,65
309,56,88244,1,2
348,56,88427,2,0,B|328:385|111:392|111:13,1,585,0|4
441,96,90609,5,2
441,133,90790,2,0,B|441:245,1,75
441,245,91154,1,2
441,284,91336,2,0,B|112:264|105:47|484:47,1,585,0|4
439,162,93518,5,0
401,162,93699,1,2
363,162,93881,1,0
330,162,94063,1,2
256,192,94245,12,0,95881
256,88,96609,5,0
256,328,97336,1,4
