osu file format v7

[General]
AudioFilename: 02 - Alchemy (short version).mp3
AudioLeadIn: 0
PreviewTime: 62020
Countdown: 0
SampleSet: Normal
StackLeniency: 0.7
Mode: 0
LetterboxInBreaks: 1

[Editor]
Bookmarks: 3475,9656,15838,27475,47475,62020,85475
DistanceSpacing: 0.899999976158142
BeatDivisor: 4
GridSize: 8

[Metadata]
Title:Alchemy
Artist:Girls Dead Monster
Creator:Vikon
Version:Hard
Source:Angel Beats!
Tags:iwasawa marina climbb65588

[Difficulty]
HPDrainRate:5
CircleSize:4
OverallDifficulty:6
SliderMultiplier:1.7
SliderTickRate:2

[Events]
//Background and Video events
0,0,"Iwasawa + Yuri 2.jpg"
//Break Periods
//Storyboard Layer 0 (Background)
//Storyboard Layer 1 (Fail)
//Storyboard Layer 2 (Pass)
//Storyboard Layer 3 (Foreground)
//Storyboard Sound Samples
//Background Colour Transformations
3,100,163,162,255

[TimingPoints]
4212,363.636363636364,4,2,0,50,1,0
14565,-100,4,1,1,40,0,0
14929,-100,4,1,1,50,0,0
41293,-100,4,1,1,45,0,0
41566,-100,4,1,1,40,0,0
41929,-100,4,1,1,35,0,0
42384,-100,4,1,1,40,0,0
42747,-100,4,1,1,45,0,0
43111,-100,4,1,1,50,0,0
43475,-100,4,1,1,55,0,0
43838,-100,4,1,1,60,0,0
47475,-100,4,1,1,50,0,1
47656,-100,4,1,1,50,0,0
50202,-100,4,2,2,55,0,0
53384,-100,4,1,1,50,0,0
56020,-100,4,2,2,60,0,0
56475,-100,4,2,2,50,0,0
59020,-100,4,1,0,55,0,0
62384,-100,4,2,2,50,0,1
62566,-100,4,2,2,50,0,0
69202,-100,4,2,1,50,0,0
69384,-100,4,2,2,50,0,0
70293,-100,4,2,2,50,0,0
70475,-100,4,2,1,50,0,0
71020,-100,4,2,2,50,0,0
71429,-100,4,2,2,50,0,0
77384,-100,4,1,1,50,0,0
77566,-100,4,2,2,50,0,0
80838,-100,4,2,1,50,0,0
81020,-100,4,2,2,50,0,0
82293,-100,4,2,1,50,0,0
82475,-100,4,2,2,50,0,0
84111,-100,4,1,2,50,0,0
84656,-100,4,2,2,50,0,0
85700,363.636363636364,4,2,2,50,1,0
96881,-100,4,1,0,50,0,0
97063,-100,4,2,2,50,0,0
97245,-100,4,1,2,50,0,0

[Colours]
Combo1 : 249,214,149
Combo2 : 79,253,249
Combo3 : 177,136,255
Combo4 : 245,80,184

[HitObjects]
64,104,9666,1,2
64,291,10030,1,2
223,192,10393,1,0
270,112,10575,1,0
318,191,10757,1,2
272,272,10939,1,0
456,239,11302,1,0
456,145,11484,1,2
274,192,11848,1,0
86,192,12212,1,2
272,192,12575,1,0
108,100,12939,5,2
276,58,13302,1,0
210,123,13484,1,0
143,189,13666,1,2
76,255,13848,1,0
259,217,14212,1,0
437,271,14575,1,2
370,337,14757,1,2
405,153,15121,5,2
338,219,15302,1,2
272,284,15484,1,2
272,97,15848,5,0
272,97,16030,2,0,B|176:72|104:128,1,170,8|0
37,258,16757,1,8
170,182,17121,2,0,B|266:207|338:151,1,170,0|8
386,101,17666,1,0
386,102,17848,1,8
461,234,18211,1,8
461,233,18393,1,8
353,340,18757,5,0
353,340,18939,2,0,B|242:337|154:289,1,170,8|0
39,267,19666,2,0,B|15:187|63:99,1,170,8|0
204,48,20393,1,8
204,48,20575,1,0
204,48,20757,1,0
357,48,21121,2,0,B|528:80|464:272,1,255,8|0
366,342,22030,5,8
257,233,22393,2,0,B|211:189|151:259,1,85,8|0
126,286,22757,1,8
180,341,22939,2,0,B|226:385|286:315,1,85,0|8
103,342,23484,2,0,B|102:156,1,170,0|8
102,78,24030,6,0,B|149:31|205:103,1,85,8|0
177,151,24393,2,0,B|224:198|280:126,1,85,8|0
252,230,24757,2,0,B|325:167|413:231,1,170,8|0
471,352,25484,5,8
471,352,25666,1,0
471,352,25848,1,8
471,198,26211,1,8
471,198,26393,1,0
471,45,26757,1,0
471,45,26939,1,0
471,45,27121,1,8
317,45,27484,6,0,B|272:48|256:112,1,85,0|8
186,234,28030,2,0,B|147:322|35:282,2,170,0|8|0
77,125,29121,2,0,B|8:64,2,85,8|0|0
185,233,29848,1,8
185,233,30030,1,8
293,341,30393,5,0
293,341,30575,1,8
446,341,30939,2,0,B|480:240|432:144,1,170,0|8
336,66,31666,2,0,B|247:30|159:71,1,170,0|8
170,65,32211,1,0
170,65,32393,1,0
62,173,32757,2,0,B|32:256|72:360,1,170,8|8
64,339,33302,1,8
217,339,33666,5,8
370,339,34030,2,0,B|464:304,1,85,8|0
449,232,34393,2,0,B|355:197,1,85,8|0
369,125,34757,2,0,B|288:72|208:128,2,170,8|2|8
314,179,35666,6,0,B|296:288,1,85,0|2
223,262,36030,2,0,B|205:153,1,85,0|2
132,178,36393,2,0,B|102:349,2,170
208,178,37302,1,0
284,178,37484,2,0,B|400:185|400:49,2,170,0|8|0
176,70,38575,6,0,B|134:29|80:94,1,85,2|2
176,70,38939,2,0,B|218:29|272:94,1,85,2|2
175,67,39302,2,0,B|175:247,2,170
251,67,40211,2,0,B|251:160,1,85,0|0
359,260,40757,1,0
142,95,41484,5,0
195,148,41666,1,0
249,202,41848,1,0
303,256,42030,1,0
357,310,42211,1,0
204,297,42575,5,0
195,148,42939,1,0
348,142,43302,1,0
195,148,43666,1,0
333,282,44030,5,0
280,102,44393,1,0
148,233,44757,1,0
352,316,45121,5,0
406,261,45302,2,0,B|453:295,2,42.5
296,68,45848,5,0
219,68,46030,2,0,B|221:-5,2,42.5
62,224,46575,5,0
116,278,46757,2,0,B|50:324,2,42.5
170,332,47121,6,0,B|246:333,4,42.5
248,253,47666,6,0,B|408:184,1,170,0|8
404,339,48393,1,0
475,204,48757,1,8
475,50,49121,1,0
320,48,49484,2,0,B|272:16|224:60,1,85,8|0
240,123,49848,2,0,B|288:155|336:111,1,85,0|8
89,123,50384,5,2
89,123,50475,1,0
89,123,50575,2,0,B|70:172|93:222,1,85,8|0
163,206,50939,2,0,B|261:205,1,85,8|0
324,205,51302,1,8
479,49,51657,5,2
479,49,51748,1,0
479,49,51848,1,2
479,159,52030,6,0,B|479:272,1,85,8|0
479,320,52393,2,0,B|441:361|379:303,1,85,8|0
402,245,52757,1,8
299,48,53112,5,10
299,48,53202,1,0
299,48,53302,1,2
221,125,53484,5,8
221,278,53848,1,2
221,124,54212,1,8
221,276,54575,1,2
221,122,54939,1,8
221,275,55302,1,8
221,198,55484,2,0,B|408:198,1,170,8|4
234,354,56202,5,2
234,354,56293,1,2
234,354,56393,1,2
157,354,56575,6,0,B|114:328|122:264,1,85,4|0
214,281,56939,2,0,B|222:230|169:193,1,85,4|0
90,205,57302,2,0,B|60:164|92:108,1,85,4|0
177,124,57666,1,4
256,192,58030,12,4,59302
256,192,59484,12,4,62030
104,296,62393,6,0,C|104:192,1,85,4|0
104,117,62757,1,4
25,66,62939,2,0,B|104:-8|195:75,2,170
102,118,63848,1,4
168,184,64030,1,0
234,250,64212,5,4
300,316,64393,2,0,B|380:372|470:307,3,170
458,221,65666,1,4
458,221,65848,1,0
458,127,66030,1,4
458,127,66212,2,0,B|384:88|336:160|288:112,1,170
295,119,66757,6,0,B|221:80|173:152|125:104,1,170,4|4
43,76,67302,1,0
43,169,67484,1,4
43,262,67666,1,4
43,355,67848,1,4
230,355,68212,6,0,B|321:354,1,85,4|0
408,354,68575,1,8
408,260,68757,2,0,B|225:259,2,170
408,164,69666,1,4
314,164,69848,1,0
220,164,70030,1,8
126,164,70212,6,0,B|55:244|127:323,3,170
187,250,71484,1,8
253,183,71666,2,0,B|333:239|423:174,1,170
411,87,72212,1,8
411,87,72393,5,4
253,186,72757,1,4
253,186,72939,1,8
412,283,73302,1,4
412,283,73484,1,4
412,283,73666,1,8
224,283,74030,5,4
157,216,74211,1,0
90,149,74393,1,4
24,83,74575,2,0,B|117:24|205:91,2,170
24,176,75484,1,4
24,269,75666,1,0
90,335,75848,1,4
184,336,76030,6,0,B|256:288|296:368|352:328,3,170
413,265,77302,2,0,B|365:193|445:153|405:97,1,170,4|8
342,36,77848,1,8
296,120,78030,1,4
248,36,78211,1,8
202,120,78393,6,0,B|130:72|90:152|34:112,1,170,8|8
39,192,78939,1,8
39,268,79121,2,0,B|111:220|151:300|207:260,1,170,8|4
382,296,79848,5,4
448,229,80030,1,2
381,162,80211,1,8
314,228,80393,2,0,B|253:144|325:64,2,170,2|2|2
247,294,81302,1,4
162,332,81484,1,2
75,295,81666,1,8
160,256,81848,2,0,B|99:172|171:92,2,170,2|2|2
226,189,82757,5,6
292,123,82939,1,2
358,56,83121,1,10
424,122,83302,1,2
357,188,83484,2,0,B|223:321,2,170,6|10|6
40,352,84757,5,2
40,241,84939,1,2
118,319,85121,1,2
118,208,85302,1,2
195,285,85484,1,2
208,192,85700,5,4
223,101,85881,2,0,B|324:130|305:237,3,170,8|8|8|8
215,237,87154,2,0,B|157:224|181:159,2,85,4|4|4
338,299,87699,5,4
443,265,87881,1,2
338,227,88063,1,4
443,194,88245,1,4
339,154,88427,1,2
400,88,88609,5,4
319,46,88790,2,0,B|143:44,3,170,8|8|8|8
82,110,90063,1,4
82,203,90245,1,4
82,296,90427,1,4
172,231,90609,5,4
282,231,90790,1,2
195,294,90972,1,2
227,188,91154,1,2
261,294,91336,1,4
354,294,91518,5,4
420,227,91699,2,0,B|419:128|285:126,3,170,8|8|8|8
212,126,92972,1,8
145,192,93154,1,8
78,258,93336,1,8
156,336,93518,5,4
266,336,93699,1,0
215,237,93881,1,4
156,138,94063,1,4
266,138,94245,1,4
315,217,94427,5,4
365,295,94609,2,0,B|471:295|472:162,3,170,8|8|8|8
383,151,95875,5,8
383,151,95966,1,8
383,151,96063,1,8
195,151,96421,5,8
195,151,96512,1,8
195,151,96609,1,8
195,244,96790,5,4
280,206,96972,1,4
363,244,97154,1,4
280,282,97336,1,4
