osu file format v7

[General]
AudioFilename: lo.mp3
AudioLeadIn: 0
PreviewTime: 58558
Countdown: 1
SampleSet: Soft
StackLeniency: 0.7
Mode: 0
LetterboxInBreaks: 1

[Editor]
DistanceSpacing: 0.800000011920929
BeatDivisor: 4
GridSize: 8

[Metadata]
Title:OPA
Artist:Giorgios Alkaios & Friends
Creator:Beuchi-chan
Version:Insane
Source:Eurovision Song Contest 2010
Tags:Greece

[Difficulty]
HPDrainRate:6
CircleSize:4
OverallDifficulty:8
SliderMultiplier:2.2
SliderTickRate:1

[Events]
//Background and Video events
0,0,"BG.jpg"
//Break Periods
2,90008,91537
2,128190,135174
//Storyboard Layer 0 (Background)
//Storyboard Layer 1 (Fail)
//Storyboard Layer 2 (Pass)
//Storyboard Layer 3 (Foreground)
//Storyboard Sound Samples
//Background Colour Transformations
3,100,163,162,255

[TimingPoints]
1048,495.867768595041,4,2,0,100,1,0
31915,-100,4,1,0,20,0,0
32659,-100,4,2,0,100,0,0
38609,-100,4,1,0,50,0,0
145810,495.867768595041,4,1,0,50,1,0
177669,-100,4,1,0,20,0,0
179405,-100,4,1,0,50,0,0

[HitObjects]
256,192,22866,12,4,24353
64,136,24849,5,2
128,76,25097,1,0
213,96,25345,1,0
151,159,25593,1,0
129,244,25841,2,0,B|123:326|212:351|252:323|252:323,1,165,2|0
241,327,26337,1,2
254,240,26585,1,0
445,136,26833,5,2
381,76,27081,1,0
296,96,27328,1,0
358,159,27576,1,0
380,244,27824,2,0,B|386:326|297:351|257:323|257:323,1,165,2|0
267,327,28320,1,2
255,240,28568,1,0
167,233,28816,5,2
211,157,29064,1,0
299,157,29312,1,0
343,233,29560,1,0
255,240,29808,2,0,B|255:302|255:302,1,55,2|0
255,240,30180,2,0,B|256:70|256:70,1,165,2|0
341,98,30800,5,2
160,136,31047,1,0
344,192,31295,1,0
160,240,31543,1,2
344,288,31791,1,2
160,184,32039,2,2,B|192:184|192:184,3,27.5
160,184,32287,2,2,B|24:184|24:184,1,110
73,98,32783,5,2
153,63,33031,1,0
240,50,33279,1,0
325,71,33527,1,0
395,123,33775,1,2
56,328,34271,1,2
439,98,34767,5,2
359,63,35014,1,0
272,50,35262,1,0
187,71,35510,1,0
117,123,35758,1,2
456,328,36254,1,2
352,192,36750,5,2
256,144,36998,1,0
160,192,37246,1,0
256,240,37494,1,0
256,144,37742,2,0,B|256:80|256:80,1,55,2|0
181,41,38114,2,0,B|223:3|286:3|335:41|335:41,1,165,2|0
387,110,38733,5,2
415,143,38857,1,0
413,186,38981,1,2
344,280,39229,1,2
256,192,39477,1,2
168,280,39725,1,2
99,186,39973,1,2
97,143,40097,1,0
125,110,40221,1,2
256,48,40469,5,2
256,92,40593,1,0
256,136,40717,2,0,B|256:259|256:259,4,110,12|0|8|0|8
85,91,42205,5,8
139,159,42452,1,0
51,170,42700,2,0,B|30:240|76:296|132:283|132:283,1,165,8|0
130,283,43196,2,0,B|132:238|183:211|233:253|233:253,1,110,8|0
207,329,43692,1,8
427,293,44188,5,8
373,225,44436,1,0
461,214,44684,2,0,B|482:144|436:88|380:101|380:101,1,165,8|0
381,100,45180,2,0,B|379:145|328:172|278:130|278:130,1,110,8|0
304,54,45676,1,8
257,183,46048,1,0
125,191,46419,5,0
140,277,46667,1,8
210,329,46915,1,0
302,329,47163,1,8
372,277,47411,1,0
387,191,47659,1,8
257,71,48155,2,2,B|216:91|216:170|297:171|297:242|248:279|248:279,1,220,0|12
190,217,48899,5,0
146,140,49147,1,8
161,53,49395,1,0
227,0,49643,1,8
462,152,50138,1,8
260,112,50634,5,8
322,167,50882,1,0
366,244,51130,1,8
351,331,51378,1,0
285,384,51626,1,8
50,232,52122,1,8
169,102,52618,6,0,B|220:146|181:220|181:220,1,110,8|0
343,102,53114,2,0,B|292:146|331:220|331:220,1,110,8|0
256,120,53609,2,0,B|256:64|256:64,1,55,8|0
256,192,53981,2,0,B|256:368|256:368,1,165
335,318,54601,5,8
256,278,54849,1,0
179,233,55097,1,8
256,192,55345,1,0
335,154,55593,1,8
257,111,55841,1,0
177,74,56089,1,8
256,192,56585,12,0,58072
256,192,58568,5,4
218,112,58816,5,0
256,91,58940,1,0
293,113,59064,1,8
349,180,59312,2,0,B|390:236|352:291|352:291,1,110,0|8
56,328,60056,1,10
206,236,60552,5,2
206,236,60676,1,0
206,236,60800,1,0
306,236,61048,1,2
306,236,61171,1,0
306,236,61295,1,0
256,309,61543,2,0,B|256:376|256:376,4,55,2|0|2|0|2
256,192,62535,5,8
294,272,62783,5,0
256,293,62907,1,0
219,271,63031,1,8
163,204,63279,2,0,B|122:148|160:93|160:93,1,110,0|8
456,56,64023,1,10
306,148,64519,5,2
306,148,64643,1,0
306,148,64767,1,0
206,148,65014,1,2
206,148,65138,1,0
206,148,65262,1,0
256,75,65510,2,0,B|256:16|256:16,4,55,2|0|2|0|2
347,225,66502,5,4
313,306,66750,2,0,B|325:353|409:392|480:354|532:268|480:194|426:190|426:190,1,330
256,192,67990,5,2
256,192,68238,1,2
165,159,68486,5,4
199,78,68733,2,0,B|186:30|102:-8|31:29|-20:115|31:189|85:193|85:193,1,330
256,192,69973,5,2
256,192,70221,1,2
256,304,70469,5,8
256,80,70717,1,0
336,272,70965,1,8
176,112,71213,1,0
368,192,71461,1,8
144,192,71709,1,0
336,112,71957,1,8
176,272,72205,1,0
256,304,72452,5,8
336,272,72700,1,0
368,192,72948,1,8
336,112,73196,1,0
256,80,73444,1,8
176,112,73692,1,0
144,192,73940,1,8
176,272,74188,1,0
256,304,74436,1,12
316,240,74684,5,0
331,198,74808,1,0
348,157,74932,1,8
420,107,75180,2,0,B|383:38|314:76|314:76,1,110,0|8
64,192,75924,1,10
183,320,76419,5,2
171,277,76543,1,0
188,236,76667,1,0
329,320,76915,5,2
341,277,77039,1,0
324,236,77163,1,0
256,292,77411,6,0,B|256:353|256:353,4,55,2|0|2|0|2
292,119,78403,1,8
196,144,78651,5,0
181,186,78775,1,0
164,227,78899,1,8
92,277,79147,2,0,B|129:346|198:308|198:308,1,110,0|8
448,192,79890,1,10
329,64,80386,5,2
341,107,80510,1,0
324,148,80634,1,0
183,64,80882,5,2
171,107,81006,1,0
188,148,81130,1,0
256,92,81378,6,0,B|256:31|256:31,4,55,2|0|2|0|2
220,265,82370,1,4
134,110,82866,5,0
256,56,83114,1,0
378,110,83362,1,0
256,328,83857,1,2
256,328,84105,1,2
256,192,84353,5,4
378,274,84849,5,0
256,328,85097,1,0
134,274,85345,1,0
256,56,85841,1,2
256,56,86089,1,2
256,192,86337,6,0,B|285:134|336:192|360:125|360:125,1,110,8|0
256,192,86833,2,0,B|314:221|256:272|323:296|323:296,1,110,8|0
256,192,87328,2,0,B|227:250|176:192|152:259|152:259,1,110,8|0
256,192,87824,2,0,B|198:163|256:112|189:88|189:88,1,110,8|0
136,153,88320,5,8
115,238,88568,1,0
168,308,88816,1,8
254,325,89064,1,0
344,308,89312,1,8
397,238,89560,1,0
376,153,89808,1,8
163,57,92287,5,8
74,56,92535,1,0
52,141,92783,1,8
123,192,93031,1,0
194,140,93279,1,8
256,304,93775,1,8
349,57,94271,5,8
438,56,94519,1,0
460,141,94767,1,8
389,192,95014,1,0
318,140,95262,1,8
256,304,95758,1,8
141,170,96254,5,8
174,88,96502,1,0
255,54,96750,1,8
338,88,96998,1,0
371,170,97246,1,8
256,144,97618,2,0,B|257:328|257:328,1,165
387,274,98238,5,2
415,241,98362,1,0
413,198,98486,1,2
344,104,98733,1,2
256,192,98981,1,2
168,104,99229,1,2
99,198,99477,1,2
97,241,99601,1,0
125,274,99725,1,2
256,336,99973,5,2
256,291,100097,1,0
256,246,100221,2,0,B|256:124|256:124,1,110,12|0
331,90,100717,1,8
255,44,100965,1,0
181,90,101213,1,8
256,248,101709,1,8
186,302,101957,5,0
97,303,102205,2,0,B|31:284|13:205|65:162|65:162,1,165,8|0
58,169,102700,2,0,B|26:137|29:88|64:72|64:72,1,110,8|0
133,124,103196,1,8
257,248,103692,1,8
326,302,103940,5,0
415,303,104188,2,0,B|481:284|499:205|447:162|447:162,1,165,8|0
453,169,104684,2,0,B|486:137|483:88|448:72|448:72,1,110,8|0
379,124,105180,1,8
379,124,105304,1,0
257,251,105552,6,0,B|257:76|257:76,1,165
178,46,106171,5,8
257,86,106419,1,0
334,131,106667,1,8
257,172,106915,1,0
178,210,107163,1,8
256,253,107411,1,0
336,290,107659,1,8
256,192,108155,12,0,109643
256,192,110138,5,4
294,272,110386,5,0
256,293,110510,1,0
219,271,110634,1,8
163,204,110882,2,0,B|122:148|160:93|160:93,1,110,0|8
456,56,111626,1,10
306,148,112122,6,0,B|348:188|348:188,2,55,2|0|0
206,148,112618,2,0,B|164:188|164:188,2,55,2|0|0
256,75,113114,1,2
256,75,113238,1,0
256,75,113362,1,2
256,75,113486,1,0
256,75,113609,1,2
256,192,114105,5,8
218,112,114353,5,0
256,91,114477,1,0
293,113,114601,1,8
349,180,114849,2,0,B|390:236|352:291|352:291,1,110,0|8
56,328,115593,1,10
206,236,116089,5,2
206,236,116213,1,0
206,236,116337,1,0
306,236,116585,1,2
306,236,116709,1,0
306,236,116833,1,0
256,309,117081,2,0,B|256:368|256:368,4,55,2|0|2|0|2
165,159,118072,5,4
199,78,118320,2,0,B|187:31|103:-8|32:30|-20:116|32:190|86:194|86:194,1,330
256,192,119560,5,2
256,192,119808,1,2
347,225,120056,5,4
313,306,120304,2,0,B|326:354|410:392|481:355|532:269|481:195|427:191|427:191,1,330
256,192,121543,5,2
256,192,121791,1,2
256,80,122039,5,8
256,304,122287,1,0
176,112,122535,1,8
336,272,122783,1,0
144,192,123031,1,8
368,192,123279,1,0
176,272,123527,1,8
336,112,123775,1,0
256,80,124023,5,8
176,112,124271,1,0
144,192,124519,1,8
176,272,124767,1,0
256,304,125014,1,8
336,272,125262,1,0
368,192,125510,1,8
336,112,125758,1,0
256,80,126006,5,2
256,80,126254,1,0
256,80,126502,1,2
256,80,126750,1,0
256,80,126998,2,2,B|256:312|256:312,1,220
256,300,127742,1,2
256,300,127990,5,4
62,143,135924,6,0,B|65:53|156:17|249:63|249:63,1,220,4|2
257,228,136915,1,0
212,303,137163,1,0
300,303,137411,1,2
450,143,137907,6,0,B|447:53|356:17|263:63|263:63,1,220,0|2
255,228,138899,1,0
300,303,139147,1,0
212,303,139395,1,2
191,128,139890,6,0,B|157:75|157:75,2,55
205,215,140386,1,2
169,295,140634,1,0
343,295,141130,1,0
343,295,141378,1,2
321,128,141874,6,0,B|355:75|355:75,2,55
307,215,142370,1,2
343,295,142618,1,0
169,295,143114,1,0
169,295,143362,1,2
256,192,143857,12,0,145345
256,192,145810,5,4
333,150,146057,5,0
353,189,146181,1,0
335,229,146305,1,8
256,192,146553,2,0,B|120:192|120:192,1,110,0|8
47,45,147297,1,10
67,219,147793,6,0,B|28:269|28:269,2,55,2|0|0
127,154,148289,2,0,B|166:104|166:104,2,55,2|0|0
158,236,148785,1,2
161,279,148909,1,0
188,313,149033,1,2
228,331,149157,1,0
271,333,149281,1,2
256,192,149776,5,8
179,234,150024,5,0
159,195,150148,1,0
177,155,150272,1,8
256,192,150520,2,0,B|392:192|392:192,1,110,0|8
465,339,151264,1,10
445,165,151760,6,0,B|484:115|484:115,2,55,2|0|0
385,230,152256,2,0,B|346:280|346:280,2,55,2|0|0
354,148,152752,1,2
351,105,152876,1,0
324,71,153000,1,2
284,53,153124,1,0
241,51,153248,1,2
165,225,153743,5,4
199,306,153991,2,0,B|187:353|103:392|32:354|-20:268|32:194|86:190|86:190,1,330
256,192,155231,5,2
256,192,155479,1,2
347,159,155727,5,4
313,78,155975,2,0,B|326:30|410:-8|481:29|532:115|481:189|427:193|427:193,1,330
256,192,157214,5,2
256,192,157462,1,2
88,192,157710,5,8
168,104,157958,1,0
168,280,158206,1,8
256,48,158454,1,0
256,336,158702,1,8
344,104,158950,1,0
344,280,159198,1,8
424,192,159446,1,0
335,190,159694,5,8
256,149,159942,1,0
177,194,160190,1,8
256,235,160438,1,0
335,190,160686,1,8
256,149,160933,1,0
177,194,161181,1,8
256,235,161429,2,0,B|256:352|256:352,1,110,0|4
175,308,161925,5,0
133,293,162049,1,0
94,271,162173,2,0,B|37:234|57:168|57:168,2,110,8|0|8
211,139,163165,1,10
370,213,163661,5,2
406,234,163785,1,0
444,213,163909,1,0
451,303,164157,2,0,B|482:362|482:362,2,55,2|0|0
362,300,164652,2,0,B|331:370|331:370,4,55,2|0|2|0|2
256,39,165644,5,8
337,76,165892,5,0
379,91,166016,1,0
418,113,166140,2,0,B|475:150|455:216|455:216,2,110,8|0|8
301,245,167132,1,10
142,171,167628,5,2
106,150,167752,1,0
68,171,167876,1,0
61,81,168124,2,0,B|30:22|30:22,2,55,2|0|0
150,84,168619,2,0,B|181:14|181:14,4,55,2|0|2|0|2
347,159,169611,5,4
313,78,169859,2,0,B|325:31|409:-8|480:30|532:116|480:190|426:194|426:194,1,330
256,192,171099,5,2
256,192,171347,1,2
165,225,171595,5,4
199,306,171843,2,0,B|186:354|102:392|31:355|-20:269|31:195|85:191|85:191,1,330
256,192,173082,5,2
256,192,173330,1,2
424,192,173578,5,8
344,280,173826,1,0
344,104,174074,1,8
256,336,174322,1,0
256,48,174570,1,8
168,280,174818,1,0
168,104,175066,1,8
88,192,175314,1,0
177,194,175562,5,8
256,235,175809,1,0
335,190,176057,1,8
256,149,176305,1,0
177,194,176553,1,8
256,235,176801,1,0
335,190,177049,1,8
256,149,177297,2,0,B|256:32|256:32,1,110,0|4
192,144,177793,5,2
192,144,177917,1,0
192,144,178041,1,2
256,84,178289,1,2
256,84,178537,1,2
256,84,178785,1,2
320,144,179033,1,2
320,144,179157,1,0
320,144,179281,1,2
256,320,179529,5,4
