osu file format v6

[General]
AudioFilename: Giorgia Alissandri - Pretty Cure (Tv size).mp3
AudioLeadIn: 0
PreviewTime: 38631
Countdown: 0
SampleSet: Normal
StackLeniency: 0.6
Mode: 0
LetterboxInBreaks: 1

[Editor]
DistanceSpacing: 0.800000011920929
BeatDivisor: 4
GridSize: 8

[Metadata]
Title:Pretty Cure Ah! (TV Size)
Artist:Giorgia Alissandri
Creator:Kuroneko-sHerald
Version:Normal
Source:Pretty Cure
Tags:Alissandri Giorgia Anime Armin Italian Pretty Cure TV size

[Difficulty]
HPDrainRate:5
CircleSize:4
OverallDifficulty:5
SliderMultiplier:2.4
SliderTickRate:1

[Events]
//Background and Video events
Video,0,"pretty cure ita.avi"
0,0,"pretty cure.jpg"
//Break Periods
2,12300,13235
2,55234,55990
//Storyboard Layer 0 (Background)
//Storyboard Layer 1 (Fail)
//Storyboard Layer 2 (Pass)
//Storyboard Layer 3 (Foreground)
//Storyboard Sound Samples
//Background Colour Transformations
3,100,163,162,255

[TimingPoints]
2759,718.562874251497,4,1,0,70,1,0
38687,-100,4,1,0,70,0,1
50184,-100,4,1,0,70,0,0

[Colours]
Combo1 : 250,250,250
Combo2 : 240,71,130
Combo3 : 94,196,236
Combo4 : 0,0,0

[HitObjects]
64,56,2579,1,0
160,56,2938,1,0
304,56,3477,1,8
448,56,4016,1,0
448,152,4375,1,0
448,296,4914,1,8
304,296,5453,1,0
208,296,5812,1,0
64,296,6351,1,8
64,152,6890,5,8
208,152,7429,2,12,B|344:152,1,120
472,152,8327,5,0
472,296,8866,1,0
376,296,9226,1,8
232,296,9764,1,0
88,296,10303,1,0
88,200,10663,1,8
88,56,11202,1,0
184,56,11561,1,0
184,56,11741,1,0
280,56,12100,1,8
240,160,14435,6,4,B|304:160,7,60
288,352,16411,5,0
96,352,17130,1,0
96,160,17848,1,0
288,160,18567,1,0
480,160,19285,1,0
336,160,19824,1,0
408,160,20184,6,4,B|400:248|304:264|280:232|240:192|224:128|272:80|304:80|376:64|400:112|408:160,1,420
448,328,22160,5,0
256,328,22878,1,0
256,328,23058,1,0
160,328,23417,1,0
64,328,23776,1,0
64,184,24315,1,0
64,88,24675,1,0
160,88,25034,2,0,B|224:88,3,60
144,88,25932,6,4,B|152:176|248:192|272:160|312:120|328:56|280:8|248:8|176:-8|152:40|144:88,1,420
56,56,27549,5,0
56,152,27908,1,0
56,152,28088,1,0
56,248,28447,1,0
56,344,28806,1,0
152,344,29166,1,0
248,344,29525,1,0
344,344,29884,1,0
344,344,30064,1,0
440,344,30423,1,0
440,248,30782,1,12
440,248,30962,2,12,B|440:120,1,120
424,40,33118,5,8
424,40,33477,1,8
136,40,34555,5,8
232,40,34914,1,8
472,40,35812,5,8
328,40,36351,1,8
184,40,36890,1,8
328,40,37429,6,8,B|328:120,6,60
328,40,38687,1,0
96,40,40124,5,0
96,40,40483,1,0
96,40,40842,1,0
96,40,41202,1,0
192,40,41561,2,0,B|192:168,3,120
336,160,43178,1,12
480,160,43717,1,8
328,40,44435,5,0
232,40,44794,1,12
136,40,45154,1,4
40,40,45513,1,12
40,136,45872,5,0
40,328,46591,1,4
232,328,47309,5,0
328,328,47669,1,12
424,328,48028,1,4
424,232,48387,1,12
280,232,48926,1,8
280,232,49285,2,8,B|340:232,1,60
424,232,49824,1,0
424,232,50184,5,0
424,40,50902,1,0
328,40,51261,1,8
232,40,51621,1,8
136,40,51980,1,8
40,264,52878,5,0
184,264,53417,1,0
280,264,53776,1,0
280,120,54315,5,4
376,120,54675,2,4,B|440:120,2,60
48,328,57190,5,0
192,328,57729,1,4
288,328,58088,1,4
432,328,58627,1,0
432,184,59166,1,4
432,88,59525,1,4
288,88,60064,1,0
144,88,60603,1,4
48,88,60962,1,4
48,232,61501,5,8
144,232,61860,2,8,B|216:232,1,60
304,232,62399,1,8
304,232,62579,1,8
400,232,62938,5,0
400,88,63477,1,4
304,88,63836,1,4
160,88,64375,1,0
160,232,64914,1,4
256,232,65273,1,4
400,232,65812,1,0
400,136,66172,1,0
400,136,66351,1,0
304,136,66711,1,4
256,208,67250,12,4,69585
40,72,70303,5,4
184,72,70842,1,4
328,72,71381,1,4
400,192,71920,1,4
256,192,72459,5,8
256,192,72639,1,4
