osu file format v6

[General]
AudioFilename: Giorgia Alissandri - Pretty Cure (Tv size).mp3
AudioLeadIn: 0
PreviewTime: 38717
Countdown: 0
SampleSet: Normal
StackLeniency: 0.6
Mode: 0
LetterboxInBreaks: 1

[Editor]
DistanceSpacing: 1
BeatDivisor: 4
GridSize: 8

[Metadata]
Title:Pretty Cure Ah! (TV Size)
Artist:Giorgia Alissandri
Creator:Kuroneko-sHerald
Version:Insane
Source:Pretty Cure
Tags:Alissandri Giorgia Anime Armin Italian Pretty Cure TV size

[Difficulty]
HPDrainRate:7
CircleSize:5
OverallDifficulty:8
SliderMultiplier:2.4
SliderTickRate:1

[Events]
//Background and Video events
Video,0,"pretty cure ita.avi"
0,0,"pretty cure.jpg"
//Break Periods
2,55233,56440
//Storyboard Layer 0 (Background)
//Storyboard Layer 1 (Fail)
//Storyboard Layer 2 (Pass)
//Storyboard Layer 3 (Foreground)
//Storyboard Sound Samples
//Background Colour Transformations
3,100,163,162,255

[TimingPoints]
2759,718.562874251497,4,1,0,70,1,0
38694,-100,4,1,0,70,0,1
50191,-100,4,1,0,70,0,0

[Colours]
Combo1 : 250,250,250
Combo2 : 240,71,130
Combo3 : 94,196,236
Combo4 : 0,0,0

[HitObjects]
40,328,2579,1,0
160,328,2938,1,0
160,328,3118,1,0
280,328,3477,1,0
280,272,3657,2,0,B|368:272,2,60
400,272,4375,1,0
400,272,4555,1,0
280,272,4914,1,0
280,216,5094,2,0,B|220:216,2,60
400,216,5812,1,0
400,216,5992,1,0
400,96,6351,1,0
344,96,6531,6,8,B|256:96,2,60
288,200,7250,2,8,B|360:200,1,60
344,320,7788,2,8,B|284:320,1,60
160,320,8327,5,0
280,320,8687,1,0
280,320,8866,1,0
400,320,9226,1,0
400,256,9405,2,0,B|312:256,2,60
280,256,10124,1,0
280,256,10303,1,0
160,256,10663,1,0
160,192,10842,2,0,B|248:192,2,60
280,192,11561,1,0
280,192,11741,1,0
400,192,12100,1,0
160,192,12818,6,0,B|160:256,1,60,0|0
160,312,13178,5,0
224,312,13357,6,0,B|240:312|256:312|264:312|280:312|344:312|344:312|344:184,1,240,0|0
224,192,14435,6,4,B|294:192,6,60
224,192,15693,5,0
344,192,16052,1,0
312,248,16232,1,0
376,248,16411,1,0
256,248,16770,2,0,B|256:176,2,60
136,248,17489,1,0
96,200,17669,1,0
176,296,18028,1,0
288,336,18387,6,0,B|360:336,1,60
472,336,18926,1,0
472,216,19285,6,0,B|400:216,1,60
352,216,19645,2,0,B|424:216,1,60
416,216,20184,6,4,B|416:256|416:296|416:296|288:296|272:296|272:296|272:256|272:216|272:216|240:216|232:216|224:232|208:240|184:264|152:224|176:200,1,420
136,104,21800,6,0,B|224:104,1,60
256,104,22160,1,0
256,104,22519,1,0
376,104,22878,2,0,B|376:192,1,60
376,288,23417,1,0
376,168,23776,1,0
240,292,24315,6,0,B|240:220,1,60
240,232,24675,2,0,B|312:232,1,60,0|0
360,232,25034,1,0
360,232,25214,1,0
360,232,25393,1,0
360,232,25573,1,0
456,288,25932,6,0,B|392:336,1,60
344,320,26291,2,0,B|264:320,1,60
224,320,26651,2,0,B|144:320,1,60
104,320,27010,2,0,B|40:272,1,60
64,160,27549,5,4
120,160,27729,1,0
176,160,27908,1,0
232,160,28088,1,4
352,160,28447,1,4
472,160,28806,1,0
472,280,29166,1,0
472,160,29525,1,0
352,160,29884,6,0,B|280:160,3,60
232,160,30603,1,0
168,160,30782,2,0,B|108:160,3,60
416,344,32399,5,0
416,344,32579,1,0
416,344,32758,1,0
296,344,33118,2,0,B|216:344,2,60
176,344,33836,1,0
112,344,34016,1,0
48,344,34196,1,0
112,224,34555,2,0,B|112:144,2,60
112,344,35273,1,0
112,344,35453,1,0
112,344,35633,2,4,B|176:336|104:272|104:272|120:272|208:272|208:272|288:272|312:272|312:272|240:336|288:344|296:344|312:344|320:344|328:352|336:352,1,420
464,248,37429,6,0,B|464:188,3,60
464,128,38148,2,0,B|384:128,2,60
464,192,38687,5,0
464,312,39046,1,0
344,312,39405,1,4
224,312,39764,1,4
104,312,40124,6,0,B|104:240,7,60
104,192,41561,1,0
104,136,41741,1,0
104,192,41920,1,0
104,72,42279,1,0
224,72,42639,1,0
408,72,43178,5,12
408,192,43537,2,12,B|408:122,1,60
408,72,43896,1,12
408,72,44076,1,12
288,72,44435,5,0
288,72,44615,1,4
288,72,44794,1,4
168,72,45154,1,4
168,72,45333,1,4
168,72,45513,1,4
168,192,45872,6,0,B|96:192,6,60
168,312,47309,5,0
168,312,47489,1,4
168,312,47669,1,4
288,312,48028,1,4
288,312,48208,1,4
288,312,48387,1,4
472,312,48926,5,8
472,192,49285,2,8,B|472:120,1,60
472,192,49645,1,8
472,192,49824,1,8
472,312,50184,6,0,B|328:312,1,120
232,312,50902,1,0
112,312,51261,1,0
112,184,51621,1,8
112,248,51800,1,0
112,312,51980,1,12
408,312,52878,5,0
288,312,53238,2,0,B|218:312,3,60
224,192,54136,5,4
224,192,54315,2,4,B|364:192,2,120,4|4|4
40,56,57190,5,0
160,56,57549,1,0
160,56,57729,1,0
280,56,58088,1,0
280,112,58267,2,0,B|368:112,2,60
400,112,58986,1,0
400,112,59166,1,0
280,112,59525,1,0
280,168,59705,2,0,B|220:168,2,60
400,168,60423,1,0
400,168,60603,1,0
400,288,60962,1,0
344,288,61142,6,8,B|256:288,2,60
288,184,61860,2,8,B|360:184,1,60
344,64,62399,2,8,B|284:64,1,60
160,64,62938,5,0
280,64,63297,1,0
280,64,63477,1,0
400,64,63836,1,0
400,128,64016,2,0,B|312:128,2,60
280,128,64735,1,0
280,128,64914,1,0
160,128,65273,1,0
160,192,65453,2,0,B|248:192,2,60
280,192,66172,1,0
280,192,66351,1,0
400,192,66711,1,0
256,208,67429,12,0,69405
56,344,70303,5,0
56,344,70483,1,0
56,224,70842,1,8
56,160,71022,1,8
56,40,71381,2,8,B|136:40,1,60
240,40,71920,2,8,B|320:40,1,60
256,152,72459,5,8
256,152,72639,1,4
