osu file format v6

[General]
AudioFilename: Giorgia Alissandri - Pretty Cure (Tv size).mp3
AudioLeadIn: 0
PreviewTime: 38694
Countdown: 0
SampleSet: Normal
StackLeniency: 0.6
Mode: 0
LetterboxInBreaks: 1

[Editor]
DistanceSpacing: 1
BeatDivisor: 4
GridSize: 8

[Metadata]
Title:Pretty Cure Ah! (TV Size)
Artist:Giorgia Alissandri
Creator:Kuroneko-sHerald
Version:Hard
Source:Pretty Cure
Tags:Alissandri Giorgia Anime Armin Italian Pretty Cure TV size

[Difficulty]
HPDrainRate:6
CircleSize:5
OverallDifficulty:7
SliderMultiplier:2.4
SliderTickRate:1

[Events]
//Background and Video events
Video,0,"pretty cure ita.avi"
0,0,"pretty cure.jpg"
//Break Periods
2,25772,26649
2,55233,56290
//Storyboard Layer 0 (Background)
//Storyboard Layer 1 (Fail)
//Storyboard Layer 2 (Pass)
//Storyboard Layer 3 (Foreground)
//Storyboard Sound Samples
//Background Colour Transformations
3,100,163,162,255

[TimingPoints]
2759,718.562874251497,4,1,0,70,1,0
38687,-100,4,1,0,70,0,1
50184,-100,4,1,0,70,0,0

[Colours]
Combo1 : 250,250,250
Combo2 : 240,71,130
Combo3 : 94,196,236
Combo4 : 0,0,0

[HitObjects]
40,56,2579,1,0
160,56,2938,1,0
160,56,3118,1,0
280,56,3477,1,0
440,136,4016,1,0
320,136,4375,1,0
320,136,4555,1,0
200,136,4914,1,0
40,216,5453,1,0
160,216,5812,1,0
160,216,5992,1,0
280,216,6351,1,0
456,160,6890,5,8
336,160,7250,2,8,B|408:160,1,60
272,160,7788,2,8,B|336:160,1,60
456,160,8327,5,0
336,160,8687,1,0
336,160,8866,1,0
216,160,9226,1,0
56,240,9764,1,0
176,240,10124,1,0
176,240,10303,1,0
296,240,10663,1,0
296,56,11202,1,0
176,56,11561,1,0
176,56,11741,1,0
56,56,12100,1,0
296,32,12818,5,0
296,32,12998,5,0
296,32,13178,5,0
296,32,13357,6,0,B|168:8|264:128|392:88|392:184|288:160|288:160|288:160,1,240,0|0
192,160,14435,6,4,B|262:160,6,60
192,160,15693,5,0
312,160,16052,2,0,B|312:232,2,60
432,160,16770,2,0,B|432:232,2,60
432,280,17489,1,0
376,280,17669,1,0
256,280,18028,1,0
136,280,18387,2,0,B|136:208,1,60
136,96,18926,1,0
256,96,19285,5,0
320,96,19465,1,0
376,96,19645,2,0,B|448:96,1,60
432,216,20184,6,4,B|432:264|432:328|336:344|304:336|288:336|280:304|272:272|264:240|248:240|240:256|208:272|208:296|208:344|120:352|136:272|128:216,1,420
136,152,21800,5,0
136,152,21980,1,0
136,152,22160,1,0
256,152,22519,1,0
376,152,22878,1,0
376,152,23058,1,0
256,152,23417,1,0
256,152,23776,1,0
80,160,24315,6,0,B|80:232,1,60
80,219,24675,2,0,B|152:219,1,60,0|0
140,219,25034,2,0,B|212:219,3,60,0|0|0|0
96,56,27549,5,4
152,56,27729,1,0
208,56,27908,1,0
264,56,28088,1,4
384,56,28447,1,4
448,160,28806,1,0
328,160,29166,1,0
208,160,29525,1,0
88,160,29884,6,0,B|16:160,4,60
88,216,30782,2,0,B|160:216,3,60
464,40,32399,5,0
464,40,32579,1,0
464,40,32758,1,0
104,48,33836,5,0
104,48,34016,1,0
104,48,34196,1,0
464,48,35273,5,0
464,48,35453,1,0
464,48,35633,2,0,B|432:144|400:176|312:208|224:160|192:152|168:40,1,420
347,48,37429,6,0,B|287:48,6,60,0|0|0|0|0|0|0
288,48,38687,5,0
288,48,39046,1,0
168,48,39405,1,4
48,48,39764,1,4
96,160,40124,6,0,B|168:160,7,60
156,159,41561,1,0
280,160,41920,1,0
280,160,42279,1,0
156,159,42639,1,0
336,160,43178,5,12
216,160,43537,2,12,B|286:160,1,60
456,328,44435,5,0
456,328,44615,1,4
456,328,44794,1,4
336,328,45154,1,4
336,328,45333,1,4
336,328,45513,1,4
216,328,45872,6,0,B|144:328,6,60
336,328,47309,5,0
336,328,47489,1,4
336,328,47669,1,4
456,328,48028,1,4
456,208,48387,1,4
272,208,48926,5,8
152,208,49285,2,8,B|152:136,1,60
376,56,50184,5,0
136,56,50902,1,0
136,176,51261,1,0
256,176,51621,1,8
376,176,51980,1,12
104,296,52878,5,0
104,176,53238,2,0,B|104:106,3,60
224,112,54136,1,4
224,112,54315,2,4,B|364:112,2,120,4|4|4
40,328,57190,5,0
160,328,57549,1,0
160,328,57729,1,0
280,328,58088,1,0
440,248,58627,1,0
320,248,58986,1,0
320,248,59166,1,0
200,248,59525,1,0
40,168,60064,1,0
160,168,60423,1,0
160,168,60603,1,0
280,168,60962,1,0
456,224,61501,5,8
336,224,61860,2,8,B|406:224,1,60
272,224,62399,2,8,B|342:224,1,60
456,224,62938,5,0
336,224,63297,1,0
336,224,63477,1,0
216,224,63836,1,0
56,144,64375,1,0
176,144,64735,1,0
176,144,64914,1,0
296,144,65273,1,0
296,320,65812,1,0
176,320,66172,1,0
176,320,66351,1,0
56,320,66711,1,0
256,208,67429,12,0,69585
40,88,70303,5,0
40,88,70483,1,0
160,88,70842,2,8,B|232:88,1,60
344,88,71381,1,0
344,88,71561,1,0
464,88,71920,1,0
464,88,72100,1,0
344,88,72459,5,8
344,88,72639,1,4
