osu file format v6

[General]
AudioFilename: Giorgia Alissandri - Pretty Cure (Tv size).mp3
AudioLeadIn: 0
PreviewTime: 38605
Countdown: 0
SampleSet: Normal
StackLeniency: 0.6
Mode: 0
LetterboxInBreaks: 1

[Editor]
DistanceSpacing: 0.800000011920929
BeatDivisor: 4
GridSize: 8

[Metadata]
Title:Pretty Cure Ah! (TV Size)
Artist:Giorgia Alissandri
Creator:Kuroneko-sHerald
Version:Easy
Source:Pretty Cure
Tags:Alissandri Giorgia Anime Armin Italian Pretty Cure TV size

[Difficulty]
HPDrainRate:4
CircleSize:3
OverallDifficulty:4
SliderMultiplier:1.8
SliderTickRate:2

[Events]
//Background and Video events
Video,0,"pretty cure ita.avi"
0,0,"pretty cure.jpg"
//Break Periods
2,12300,13115
2,31701,37367
2,55233,55870
2,69426,71139
//Storyboard Layer 0 (Background)
//Storyboard Layer 1 (Fail)
//Storyboard Layer 2 (Pass)
//Storyboard Layer 3 (Foreground)
//Storyboard Sound Samples
//Background Colour Transformations
3,100,163,162,255

[TimingPoints]
2759,718.562874251497,4,1,0,70,1,0
38687,-100,4,1,0,70,0,1
50184,-100,4,1,0,70,0,0

[Colours]
Combo1 : 250,250,250
Combo2 : 240,71,130
Combo3 : 94,196,236
Combo4 : 0,0,0

[HitObjects]
80,40,2579,1,0
256,40,3477,1,0
368,40,4016,1,0
368,216,4914,1,0
256,216,5453,1,0
80,216,6351,1,0
184,216,6890,6,8,B|448:216,1,225
360,312,8327,5,0
184,312,9226,1,0
80,312,9764,1,0
184,168,10663,1,0
256,88,11202,1,0
256,264,12100,1,0
192,296,14435,6,4,B|264:296,7,45
256,152,16411,1,0
400,152,17130,1,0
400,296,17848,1,0
256,296,18567,1,0
256,152,19285,1,0
256,152,19824,1,0
352,152,20184,6,4,B|368:280|184:296|168:216|160:128,1,315
304,152,22160,5,0
160,152,22878,1,0
160,296,23597,5,0
304,296,24315,1,0
296,152,25034,1,0
296,152,25573,1,0
200,152,25932,6,4,B|205:215|221:295|405:279|389:151,1,315
432,296,27908,5,0
288,296,28627,1,0
144,296,29345,1,0
144,152,30064,1,0
256,64,30782,1,8
256,208,31501,1,8
64,56,38687,5,0
208,56,39405,1,0
352,56,40124,1,4
64,56,41561,1,0
208,56,42279,1,0
208,232,43178,2,8,B|376:232,1,135
344,232,44435,5,0
344,88,45154,1,4
200,88,45872,5,0
56,88,46591,1,4
56,232,47309,5,0
56,88,48028,1,0
232,88,48926,2,8,B|400:88,1,135
400,224,50184,5,0
256,224,50902,1,0
112,224,51621,1,8
304,56,52878,5,0
304,168,53417,1,0
304,168,53776,1,0
304,280,54315,6,4,B|120:280,1,180
432,40,57190,5,0
256,40,58088,1,0
144,40,58627,1,0
144,216,59525,1,0
256,216,60064,1,0
432,216,60962,1,0
328,216,61501,6,8,B|72:216,1,225
152,312,62938,5,0
328,312,63836,1,0
432,312,64375,1,0
336,160,65273,1,0
256,88,65812,1,0
256,264,66711,5,0
256,208,67429,12,0,69226
248,208,72459,5,4
248,208,72639,1,6
