osu file format v12

[General]
AudioFilename: Gintama opening 13 full.mp3
AudioLeadIn: 0
PreviewTime: 0
Countdown: 1
SampleSet: Soft
StackLeniency: 0.2
Mode: 2
LetterboxInBreaks: 1
WidescreenStoryboard: 0

[Editor]
DistanceSpacing: 0.8
BeatDivisor: 4
GridSize: 8

[Metadata]
Title:Gintama Opening 13 Full
TitleUnicode:Gintama Opening 13 Full
Artist:
ArtistUnicode:
Creator:Fightero
Version:Hard
Source:
Tags:Gintama
BeatmapID:283417
BeatmapSetID:108373

[Difficulty]
HPDrainRate:6
CircleSize:2
OverallDifficulty:2
ApproachRate:7
SliderMultiplier:0.99999990463257
SliderTickRate:3

[Events]
//Background and Video events
0,0,"gintama-anime-return2.jpg",0,0
Video,0,"Gintama.flv"
//Break Periods
//Storyboard Layer 0 (Background)
//Storyboard Layer 1 (Fail)
//Storyboard Layer 2 (Pass)
//Storyboard Layer 3 (Foreground)
//Storyboard Sound Samples
//Background Colour Transformations
3,100,163,162,255

[TimingPoints]
0,182.926829268293,4,2,0,100,1,0
10569.9778708577,182.926829268293,4,2,0,100,1,0

[Colours]
Combo1 : 255,150,0
Combo2 : 5,240,5
Combo3 : 5,5,240
Combo4 : 240,5,5
Combo5 : 240,5,5

[HitObjects]
256,192,11164,12,0,12491,0:0:0:0:
40,344,13268,6,0,B|472:312|472:312|32:272|32:272|472:240|472:240|24:216|24:216|472:184|472:184|32:168|32:168|464:128|464:128,1,3074.99970674515
40,48,19304,1,0,0:0:0:0:
440,48,19990,5,0,0:0:0:0:
408,72,20082,2,0,L|304:168,1,124.999988079071
168,320,20813,5,0,0:0:0:0:
320,280,21179,1,0,0:0:0:0:
168,224,21545,1,0,0:0:0:0:
320,168,21911,1,0,0:0:0:0:
168,112,22277,1,0,0:0:0:0:
328,40,22688,1,0,0:0:0:0:
392,312,23329,5,0,0:0:0:0:
392,272,23420,1,0,0:0:0:0:
392,232,23512,1,0,0:0:0:0:
392,192,23603,1,0,0:0:0:0:
400,152,23694,1,0,0:0:0:0:
392,96,23832,1,0,0:0:0:0:
408,56,23923,1,0,0:0:0:0:
432,88,24015,1,0,0:0:0:0:
432,128,24106,1,0,0:0:0:0:
432,168,24198,1,0,0:0:0:0:
424,208,24289,1,0,0:0:0:0:
424,264,24426,1,0,0:0:0:0:
432,304,24518,1,0,0:0:0:0:
424,344,24609,1,0,0:0:0:0:
384,336,24701,5,0,0:0:0:0:
352,288,24838,1,0,0:0:0:0:
328,232,24975,1,0,0:0:0:0:
312,200,25066,1,0,0:0:0:0:
272,152,25204,1,0,0:0:0:0:
248,120,25295,1,0,0:0:0:0:
232,64,25432,1,0,0:0:0:0:
264,40,25524,1,0,0:0:0:0:
296,88,25661,1,0,0:0:0:0:
320,120,25752,1,0,0:0:0:0:
336,152,25844,1,0,0:0:0:0:
368,200,25981,1,0,0:0:0:0:
400,256,26118,1,0,0:0:0:0:
440,296,26255,1,0,0:0:0:0:
40,312,27170,6,0,B|360:288|376:160|144:80|64:112|64:112|336:40|464:40,1,949.999909400942
416,128,29137,2,0,B|136:120|136:120|128:264,1,424.999959468842
208,208,30143,1,0,0:0:0:0:
280,168,30326,1,0,0:0:0:0:
128,264,30737,1,0,0:0:0:0:
192,72,31194,1,0,0:0:0:0:
384,176,31698,1,0,0:0:0:0:
160,256,32246,1,0,0:0:0:0:
256,184,32521,1,0,0:0:0:0:
256,304,32795,1,0,0:0:0:0:
136,144,33252,5,0,0:0:0:0:
232,40,33573,1,0,0:0:0:0:
392,120,33984,1,0,0:0:0:0:
200,176,34441,1,0,0:0:0:0:
344,184,34762,1,0,0:0:0:0:
464,160,35036,1,0,0:0:0:0:
376,72,35310,1,0,0:0:0:0:
280,144,35585,1,0,0:0:0:0:
152,248,35951,1,0,0:0:0:0:
56,320,36225,1,0,0:0:0:0:
64,240,36408,5,0,0:0:0:0:
72,160,36591,1,0,0:0:0:0:
96,64,36819,1,0,0:0:0:0:
168,136,37048,1,0,0:0:0:0:
256,224,37323,1,0,0:0:0:0:
344,304,37597,1,0,0:0:0:0:
432,344,37826,1,0,0:0:0:0:
432,264,38009,1,0,0:0:0:0:
424,184,38191,1,0,0:0:0:0:
424,104,38374,1,0,0:0:0:0:
184,144,38923,6,0,L|184:232,21,74.9999928474428
304,216,42079,6,0,L|304:152,31,49.9999952316285
368,128,45188,6,0,L|368:208,15,74.9999928474428
88,88,47932,5,0,0:0:0:0:
192,184,48252,1,0,0:0:0:0:
304,232,48527,1,0,0:0:0:0:
344,160,48710,1,0,0:0:0:0:
400,104,48893,1,0,0:0:0:0:
424,200,49121,1,0,0:0:0:0:
392,296,49350,1,0,0:0:0:0:
232,288,49716,1,0,0:0:0:0:
152,200,49990,5,0,0:0:0:0:
224,168,50173,1,0,0:0:0:0:
280,160,50310,1,0,0:0:0:0:
232,224,50493,1,0,0:0:0:0:
224,168,50585,1,0,0:0:0:0:
192,120,50722,1,0,0:0:0:0:
248,136,50859,1,0,0:0:0:0:
216,184,50996,1,0,0:0:0:0:
216,184,51179,1,0,0:0:0:0:
160,200,51316,1,0,0:0:0:0:
216,184,51454,1,0,0:0:0:0:
264,224,51591,1,0,0:0:0:0:
200,272,51774,1,0,0:0:0:0:
144,216,51957,1,0,0:0:0:0:
224,200,52140,1,0,0:0:0:0:
440,144,52643,5,0,0:0:0:0:
344,136,53009,2,0,B|56:120|56:120|360:304|360:304|432:48,1,899.999914169313
176,56,55158,1,0,0:0:0:0:
232,136,55387,1,0,0:0:0:0:
352,120,55661,1,0,0:0:0:0:
320,232,55935,5,0,0:0:0:0:
184,232,56255,1,0,0:0:0:0:
40,120,56667,1,0,0:0:0:0:
280,96,57216,1,0,0:0:0:0:
440,120,57582,1,0,0:0:0:0:
248,232,58085,1,0,0:0:0:0:
248,232,58176,1,0,0:0:0:0:
248,232,58313,1,0,0:0:0:0:
248,232,58496,1,0,0:0:0:0:
248,232,58679,1,0,0:0:0:0:
248,232,58862,1,0,0:0:0:0:
248,232,59091,1,0,0:0:0:0:
248,232,59274,1,0,0:0:0:0:
248,232,59457,1,0,0:0:0:0:
344,160,59731,5,0,0:0:0:0:
128,152,60234,1,0,0:0:0:0:
248,72,60554,1,0,0:0:0:0:
448,80,61012,1,0,0:0:0:0:
48,88,61926,1,0,0:0:0:0:
344,136,62612,1,0,0:0:0:0:
72,272,63298,1,0,0:0:0:0:
448,216,64167,1,0,0:0:0:0:
104,48,65036,1,0,0:0:0:0:
248,184,65493,1,0,0:0:0:0:
128,176,65768,6,0,L|120:336,1,149.999985694886
176,336,66179,2,0,B|408:328|408:328|264:64|264:64|144:264|144:264|384:56|384:56|240:312|240:312|144:80,1,1624.99984502793
424,312,69975,5,0,0:0:0:0:
256,200,70432,1,0,0:0:0:0:
72,48,70981,1,0,0:0:0:0:
448,56,71850,1,0,0:0:0:0:
248,192,72399,1,0,0:0:0:0:
96,296,72810,1,0,0:0:0:0:
88,200,73039,6,0,L|88:128,14,49.9999952316285
128,128,74502,1,0,0:0:0:0:
256,192,74823,1,0,0:0:0:0:
256,192,75691,12,0,78435,0:0:0:0:
168,160,78893,5,0,0:0:0:0:
384,264,79441,1,0,0:0:0:0:
368,88,79853,1,0,0:0:0:0:
104,296,80630,1,0,0:0:0:0:
256,200,81042,1,0,0:0:0:0:
144,120,81362,1,0,0:0:0:0:
264,104,81637,1,0,0:0:0:0:
176,48,81865,2,0,L|168:336,1,274.999973773957
256,192,82826,12,0,85204,0:0:0:0:
256,192,85707,5,0,0:0:0:0:
368,144,85981,1,0,0:0:0:0:
152,128,86484,1,0,0:0:0:0:
152,264,86804,1,0,0:0:0:0:
352,256,87262,1,0,0:0:0:0:
248,200,87536,1,0,0:0:0:0:
256,80,87810,1,0,0:0:0:0:
256,320,88359,1,0,0:0:0:0:
88,184,88862,5,0,0:0:0:0:
248,184,89228,1,0,0:0:0:0:
384,184,89548,1,0,0:0:0:0:
256,64,89960,1,0,0:0:0:0:
256,304,90509,1,0,0:0:0:0:
248,184,91057,1,0,0:0:0:0:
224,56,91652,5,0,0:0:0:0:
144,64,91835,1,0,0:0:0:0:
80,120,92018,1,0,0:0:0:0:
136,144,92155,1,0,0:0:0:0:
192,176,92292,1,0,0:0:0:0:
256,216,92475,1,0,0:0:0:0:
328,256,92658,1,0,0:0:0:0:
368,296,92795,1,0,0:0:0:0:
416,256,92932,1,0,0:0:0:0:
424,200,93069,1,0,0:0:0:0:
256,56,93984,5,0,0:0:0:0:
256,192,94304,1,0,0:0:0:0:
256,328,94624,1,0,0:0:0:0:
112,192,95082,1,0,0:0:0:0:
416,192,95768,1,0,0:0:0:0:
256,192,96134,1,0,0:0:0:0:
256,56,96454,5,0,0:0:0:0:
240,192,96774,1,0,0:0:0:0:
256,192,97002,1,0,0:0:0:0:
256,336,97323,1,0,0:0:0:0:
504,200,97963,1,0,0:0:0:0:
48,48,98374,1,0,0:0:0:0:
360,328,99335,1,0,0:0:0:0:
56,136,100158,1,0,0:0:0:0:
464,56,101118,1,0,0:0:0:0:
64,48,102033,1,0,0:0:0:0:
256,112,102490,5,0,0:0:0:0:
256,216,102719,1,0,0:0:0:0:
256,336,102993,1,0,0:0:0:0:
120,192,103451,1,0,0:0:0:0:
400,192,104091,1,0,0:0:0:0:
264,192,104411,1,0,0:0:0:0:
256,72,104685,1,0,0:0:0:0:
264,312,105234,1,0,0:0:0:0:
56,48,106423,6,0,L|56:192|56:168,13,149.999985694886
144,104,110265,2,0,P|288:168|160:240,5,374.999964237214
264,176,113969,2,0,L|264:240,35,49.9999952316285
416,72,117673,2,0,B|64:64|112:208|432:224|272:336|80:328|440:328,1,624.999940395356
56,56,119868,2,0,B|56:328|56:328|464:328|464:328|464:56|464:56|128:56|128:56|128:280|128:280|408:280|408:280|408:104|408:104|176:104|176:104|176:232|176:232|360:232|360:232|360:160|360:160|240:160,1,2699.99974250794
296,112,124807,5,0,0:0:0:0:
224,80,124990,1,0,0:0:0:0:
344,48,125265,1,0,0:0:0:0:
424,136,125539,1,0,0:0:0:0:
272,328,126088,1,0,0:0:0:0:
256,192,126408,1,0,0:0:0:0:
96,112,126819,1,0,0:0:0:0:
352,64,127414,1,0,0:0:0:0:
232,144,127734,1,0,0:0:0:0:
200,256,128009,1,0,0:0:0:0:
296,256,128237,5,0,0:0:0:0:
360,176,128466,1,0,0:0:0:0:
256,88,128786,1,0,0:0:0:0:
112,160,129152,1,0,0:0:0:0:
264,200,129518,1,0,0:0:0:0:
88,192,129929,1,0,0:0:0:0:
312,112,130478,5,0,0:0:0:0:
320,152,130569,1,0,0:0:0:0:
336,184,130661,1,0,0:0:0:0:
360,216,130752,1,0,0:0:0:0:
320,264,130890,1,0,0:0:0:0:
240,264,131073,1,0,0:0:0:0:
200,216,131210,1,0,0:0:0:0:
184,160,131347,1,0,0:0:0:0:
224,112,131484,1,0,0:0:0:0:
280,88,131621,1,0,0:0:0:0:
336,80,131759,1,0,0:0:0:0:
392,80,131896,1,0,0:0:0:0:
256,192,132765,12,0,136972,0:0:0:0:
160,144,137292,5,0,0:0:0:0:
272,96,137566,1,0,0:0:0:0:
336,176,137795,1,0,0:0:0:0:
176,256,138207,1,0,0:0:0:0:
232,176,138435,1,0,0:0:0:0:
304,272,138710,1,0,0:0:0:0:
408,176,139030,1,0,0:0:0:0:
208,176,139487,1,0,0:0:0:0:
312,176,139716,5,0,0:0:0:0:
216,272,140036,1,0,0:0:0:0:
192,152,140310,1,0,0:0:0:0:
264,80,140539,1,0,0:0:0:0:
384,88,140813,1,0,0:0:0:0:
312,184,141088,1,0,0:0:0:0:
416,88,141408,5,0,0:0:0:0:
360,144,141591,1,0,0:0:0:0:
320,192,141728,1,0,0:0:0:0:
272,232,141865,1,0,0:0:0:0:
224,264,142002,1,0,0:0:0:0:
176,304,142140,1,0,0:0:0:0:
120,328,142277,1,0,0:0:0:0:
64,336,142414,1,0,0:0:0:0:
56,280,142551,1,0,0:0:0:0:
56,224,142688,1,0,0:0:0:0:
56,160,142826,5,0,0:0:0:0:
104,128,142963,1,0,0:0:0:0:
184,128,143146,1,0,0:0:0:0:
264,144,143329,1,0,0:0:0:0:
336,184,143512,1,0,0:0:0:0:
408,152,143694,1,0,0:0:0:0:
416,96,143832,1,0,0:0:0:0:
360,88,143969,1,0,0:0:0:0:
344,96,144015,1,0,0:0:0:0:
232,184,144335,1,0,0:0:0:0:
328,288,144655,5,0,0:0:0:0:
336,184,144884,1,0,0:0:0:0:
208,136,145204,1,0,0:0:0:0:
160,264,145524,1,0,0:0:0:0:
304,160,145935,1,0,0:0:0:0:
360,288,146255,1,0,0:0:0:0:
256,232,146530,1,0,0:0:0:0:
440,144,146987,1,0,0:0:0:0:
312,96,147307,1,0,0:0:0:0:
128,216,147810,1,0,0:0:0:0:
240,176,148085,1,0,0:0:0:0:
304,296,148405,1,0,0:0:0:0:
168,96,148954,1,0,0:0:0:0:
368,96,149411,1,0,0:0:0:0:
264,184,149731,5,0,0:0:0:0:
176,272,150005,1,0,0:0:0:0:
320,264,150326,1,0,0:0:0:0:
384,168,150600,1,0,0:0:0:0:
128,168,151194,1,0,0:0:0:0:
272,88,151560,1,0,0:0:0:0:
256,224,151880,1,0,0:0:0:0:
256,328,152109,1,0,0:0:0:0:
136,224,152475,1,0,0:0:0:0:
256,120,152841,1,0,0:0:0:0:
440,312,154716,6,0,L|440:280,80,24.9999976158143
336,320,158923,2,0,L|336:248,49,49.9999952316285
240,256,164182,2,0,L|240:344,18,74.9999928474428
144,152,167109,2,0,L|144:304,18,149.999985694886
208,112,172231,5,0,0:0:0:0:
440,48,172643,1,0,0:0:0:0:
80,48,173009,1,0,0:0:0:0:
376,48,173740,1,0,0:0:0:0:
80,312,174655,5,0,0:0:0:0:
216,312,174975,1,0,0:0:0:0:
352,312,175295,1,0,0:0:0:0:
144,192,175844,1,0,0:0:0:0:
280,192,176164,1,0,0:0:0:0:
216,96,176438,1,0,0:0:0:0:
216,200,176667,1,0,0:0:0:0:
224,256,176804,1,0,0:0:0:0:
440,72,177444,5,0,0:0:0:0:
64,336,178496,1,0,0:0:0:0:
64,56,179137,1,0,0:0:0:0:
432,328,180188,1,0,0:0:0:0:
256,192,180691,1,0,0:0:0:0:
424,56,181194,1,0,0:0:0:0:
112,312,182109,1,0,0:0:0:0:
176,56,182704,1,0,0:0:0:0:
344,224,183252,1,0,0:0:0:0:
248,128,183573,1,0,0:0:0:0:
368,120,183847,1,0,0:0:0:0:
184,240,184350,1,0,0:0:0:0:
288,184,184624,5,0,0:0:0:0:
200,320,184990,1,0,0:0:0:0:
408,200,185539,1,0,0:0:0:0:
304,256,185813,1,0,0:0:0:0:
264,216,185951,1,0,0:0:0:0:
288,184,186134,1,0,0:0:0:0:
352,112,186362,1,0,0:0:0:0:
88,264,187048,1,0,0:0:0:0:
200,208,187323,5,0,0:0:0:0:
328,160,187643,1,0,0:0:0:0:
176,216,188009,1,0,0:0:0:0:
328,160,188374,1,0,0:0:0:0:
200,208,188694,1,0,0:0:0:0:
328,160,189015,1,0,0:0:0:0:
200,208,189335,1,0,0:0:0:0:
328,160,189655,1,0,0:0:0:0:
256,192,189838,5,0,0:0:0:0:
200,208,189975,1,0,0:0:0:0:
328,160,190295,1,0,0:0:0:0:
200,208,190615,1,0,0:0:0:0:
328,160,190935,1,0,0:0:0:0:
216,200,191210,1,0,0:0:0:0:
328,152,191484,1,0,0:0:0:0:
216,200,191759,1,0,0:0:0:0:
272,176,191896,5,0,0:0:0:0:
128,240,192262,1,0,0:0:0:0:
400,104,192948,1,0,0:0:0:0:
200,200,193451,1,0,0:0:0:0:
344,128,193816,1,0,0:0:0:0:
272,168,193999,1,0,0:0:0:0:
216,112,194182,5,0,0:0:0:0:
288,80,194365,1,0,0:0:0:0:
248,216,194685,1,0,0:0:0:0:
320,184,194868,1,0,0:0:0:0:
272,168,195326,1,0,0:0:0:0:
80,280,195829,1,0,0:0:0:0:
400,160,196606,1,0,0:0:0:0:
248,216,196972,1,0,0:0:0:0:
152,88,197338,1,0,0:0:0:0:
424,328,198161,1,0,0:0:0:0:
360,280,198344,5,0,0:0:0:0:
304,224,198527,1,0,0:0:0:0:
240,176,198710,1,0,0:0:0:0:
192,136,198847,1,0,0:0:0:0:
144,96,198984,1,0,0:0:0:0:
72,72,199167,1,0,0:0:0:0:
72,152,199350,1,0,0:0:0:0:
72,208,199487,1,0,0:0:0:0:
80,264,199624,1,0,0:0:0:0:
96,320,199762,1,0,0:0:0:0:
192,296,199990,5,0,0:0:0:0:
232,256,200127,1,0,0:0:0:0:
288,232,200265,1,0,0:0:0:0:
360,192,200448,1,0,0:0:0:0:
312,160,200585,1,0,0:0:0:0:
192,136,200859,2,0,L|192:200,22,49.9999952316285
256,192,203100,12,0,213005,0:0:0:0:
