osu file format v10

[General]
AudioFilename: iroha uta.mp3
AudioLeadIn: 0
PreviewTime: 55502
Countdown: 0
SampleSet: Soft
StackLeniency: 0.7
Mode: 0
LetterboxInBreaks: 0

[Editor]
DistanceSpacing: 0.9
BeatDivisor: 4
GridSize: 4

[Metadata]
Title:Iroha Uta
TitleUnicode:Iroha Uta
Artist:Ginsaku
ArtistUnicode:Ginsaku
Creator:eikkaleyd
Version:Normal
Source:Vocaloid
Tags:No_Gu bossandy Scorpiour popner a3272509123 Numbers 596108 Kagamine Rin Collab Collaboration
BeatmapID:150800
BeatmapSetID:48801

[Difficulty]
HPDrainRate:3
CircleSize:3
OverallDifficulty:3
ApproachRate:4
SliderMultiplier:1
SliderTickRate:1

[Events]
//Background and Video events
0,0,"BG.jpg"
Video,0,"video.flv"
//Break Periods
2,81137,87989
2,155090,168920
2,187184,188455
//Storyboard Layer 0 (Background)
//Storyboard Layer 1 (Fail)
//Storyboard Layer 2 (Pass)
//Storyboard Layer 3 (Foreground)
//Storyboard Sound Samples
//Background Colour Transformations
3,100,163,162,255

[TimingPoints]
9775,348.837209302326,4,2,1,100,1,0
10472,-100,4,2,1,60,0,0
11170,-100,4,2,1,95,0,0
55821,-100,4,1,1,85,0,1
66897,-100,4,1,1,75,0,0
66984,-100,4,1,1,85,0,1
80937,-100,4,2,1,95,0,0
102565,-100,4,2,1,50,0,0
102652,-100,4,2,1,95,0,0
110065,-100,4,2,1,20,0,0
110588,-100,4,2,1,85,0,0
133961,-100,4,1,1,85,0,1
145036,-100,4,1,1,75,0,0
145123,-100,4,1,1,85,0,1
152187,-100,4,1,1,50,0,1
154193,-100,4,1,1,50,0,0
154891,-100,4,2,1,70,0,0
173379,-100,4,1,1,60,0,0
185240,-100,4,2,1,70,0,0
186286,-100,4,2,1,50,0,0
186984,-100,4,2,1,30,0,0
189775,-100,4,1,1,85,0,1
200850,-100,4,1,1,85,0,0
200937,-100,4,1,1,85,0,1
214891,-100,4,2,1,70,0,0

[Colours]
Combo1 : 193,4,4
Combo2 : 255,89,0
Combo3 : 255,242,0

[HitObjects]
96,120,10472,2,0,B|128:168|192:168,1,100,8|8,0:0|0:0,0:0:0
216,84,11170,6,0,B|264:116|280:164|264:220|216:252,1,200,4|0,0:0|0:0,0:0:0
296,296,12216,1,8,0:0:0
380,324,12565,2,0,B|393:271|353:231,1,100,0|8,0:0|0:0,0:0:0
416,168,13263,2,0,B|393:153|385:129,2,50,0|0|8,0:0|0:0|0:0,0:0:0
356,236,13961,6,0,B|316:252|268:236|268:236|236:300|164:300,1,200
124,232,15007,1,8,0:0:0
108,144,15356,2,0,B|52:120|52:64,1,100,0|8,0:0|0:0,0:0:0
144,64,16054,2,0,B|192:88|200:144,1,100,0|8,0:0|0:0,0:0:0
288,144,16751,6,0,B|288:195,1,50,2|0,0:0|0:0,0:0:0
368,232,17275,2,0,B|336:288|272:288,1,100
216,236,17972,2,0,B|128:220|128:116,1,150
44,156,18844,2,0,B|44:100,2,50,0|0|8,0:0|0:0|0:0,0:0:0
48,248,19542,2,0,B|88:352|216:352,1,200
216,264,20588,1,8,0:0:0
184,180,20937,2,0,B|185:123|145:91,2,100,0|8|0,0:0|0:0|0:0,0:0:0
256,128,21984,6,0,B|296:88|352:100,1,100,0|4,0:0|0:0,0:0:0
412,160,22681,1,0,0:0:0
412,160,23030,2,0,B|412:216|372:248,1,100
396,336,23728,2,0,B|324:352|260:288|292:208,1,200
200,112,24949,5,0,0:0:0
200,112,25123,2,0,B|160:168,1,50
80,164,25647,2,0,B|104:244|192:244,1,150
148,324,26519,2,0,B|260:324,3,100
336,312,27914,6,0,B|384:304,1,50,0|8,0:0|0:0,0:0:0
320,184,28612,2,0,B|376:152,1,50,0|8,0:0|0:0,0:0:0
260,72,29309,2,0,B|292:24,1,50,0|8,0:0|0:0,0:0:0
368,72,29833,1,0,0:0:0
188,88,30530,5,0,0:0:0
188,88,30705,2,0,B|152:128|172:196,2,100
256,148,31751,1,0,0:0:0
344,140,32100,2,0,B|360:228|456:228,1,150
420,304,32972,2,0,B|352:304,1,50
280,304,33495,6,0,B|304:256|304:256|288:192,1,100,4|0,0:0|0:0,0:0:0
212,248,34193,2,0,B|196:192|196:192|220:136,1,100
140,100,34891,2,0,B|108:188|108:188|132:292,1,200
308,264,36286,6,0,B|332:320|404:320,2,100
392,228,37333,1,0,0:0:0
480,232,37681,2,0,B|480:152|392:112|328:160,1,200
208,184,38902,6,0,B|184:136,2,50,0|0|8,0:0|0:0|0:0,0:0:0
212,276,39600,2,0,B|196:332,2,50,0|0|8,0:0|0:0|0:0,0:0:0
288,228,40298,2,0,B|336:196,2,50,0|0|8,0:0|0:0|0:0,0:0:0
324,312,40995,2,0,B|396:280|492:288,1,150
452,200,41868,5,0,0:0:0
388,136,42216,1,0,0:0:0
304,108,42565,2,0,B|264:76|200:88,2,100
184,244,43961,1,0,0:0:0
128,72,44658,5,4,0:0:0
128,72,45007,1,0,0:0:0
128,72,45356,2,0,B|96:120|112:176,1,100
200,144,46054,2,0,B|184:208|248:256,1,100
288,168,46751,2,0,B|336:200|400:184,2,100
296,344,48147,6,0,B|347:318|361:261,1,100
272,256,48845,2,0,B|308:208|284:148,1,100
208,192,49542,2,0,B|192:136|136:112,2,100
272,24,50937,5,0,0:0:0
352,68,51286,1,0,0:0:0
400,144,51635,2,0,B|456:144|456:144|496:120,2,100
396,304,53030,6,0,B|464:300,1,50,8|8,0:0|0:0,0:0:0
256,380,54251,2,0,B|183:276|307:234|230:136,1,250
88,80,55821,6,0,B|104:184,1,100,4|8,0:0|0:0,0:0:0
192,180,56519,1,0,0:0:0
280,200,56868,1,8,0:0:0
280,200,57216,2,0,B|268:260|276:299,2,100,0|8|0,0:0|0:0|0:0,0:0:0
388,344,58612,6,0,B|492:296,1,100,0|8,0:0|0:0,0:0:0
416,236,59309,2,0,B|506:194,1,100,0|8,0:0|0:0,0:0:0
444,128,60007,2,0,B|356:168|356:168|308:136|252:160,1,200,0|0,0:0|0:0,0:0:0
300,236,61054,5,8,0:0:0
352,308,61402,2,0,B|256:364|136:316,1,200,0|0,0:0|0:0,0:0:0
108,152,62798,2,0,B|72:192|84:256,1,100,0|8,0:0|0:0,0:0:0
168,220,63495,2,0,B|184:168|240:144,1,100,0|8,0:0|0:0,0:0:0
264,232,64193,2,0,B|312:208|368:228,2,100,0|8|0,0:0|0:0|0:0,0:0:0
316,304,65240,1,8,0:0:0
228,324,65588,5,0,0:0:0
172,252,65937,1,8,0:0:0
212,172,66286,1,0,0:0:0
32,144,66984,6,0,B|48:192|48:192|88:232,2,100,4|8|0,0:0|0:0|0:0,0:0:0
120,120,68030,2,0,B|160:80,1,50,8|8,0:0|0:0,0:0:0
232,128,68554,2,0,B|280:104,2,50,0|8|8,0:0|0:0|0:0,0:0:0
280,256,69426,5,8,0:0:0
280,344,69775,2,0,B|336:336|376:296|376:232|336:192,1,200,0|0,0:0|0:0,0:0:0
416,148,70821,1,8,0:0:0
368,72,71170,2,0,B|328:112|272:108,2,100,0|8|0,0:0|0:0|0:0,0:0:0
452,104,72216,5,8,0:0:0
452,104,72565,2,0,B|452:163|388:192|388:192|394:236|364:288,1,200,0|0,0:0|0:0,0:0:0
284,292,73612,1,8,0:0:0
212,236,73961,6,0,B|164:260|108:244,2,100,0|8|0,0:0|0:0|0:0,0:0:0
272,168,75007,1,0,0:0:0
356,128,75356,6,0,B|412:160,1,50,12|8,0:0|0:0,0:0:0
388,244,75879,1,8,0:0:0
308,288,76228,1,8,0:0:0
220,284,76577,2,0,B|164:284|132:236,2,100,8|8|8,0:0|0:0|0:0,0:0:0
220,240,77449,2,0,B|260:196|320:196,2,100,0|0|4,0:0|0:0|0:0,0:0:0
256,192,78234,12,4,80937,0:0:0
80,200,89309,5,4,0:0:0
80,200,89484,1,0,0:0:0
160,152,89833,2,0,B|216:256,1,100
272,176,90530,2,0,B|416:256,1,150
336,312,91402,6,0,B|352:360,2,50,0|0|8,0:0|0:0|0:0,0:0:0
248,288,92100,2,0,B|200:312|136:288,1,100,0|8,0:0|0:0,0:0:0
192,208,92798,2,0,B|136:200|105:162,1,100,0|8,0:0|0:0,0:0:0
184,112,93495,1,0,0:0:0
368,112,94193,2,0,B|440:192,1,100,2|0,0:0|0:0,0:0:0
400,272,94891,6,0,B|360:224,1,50,8|0,0:0|0:0,0:0:0
284,268,95414,1,8,0:0:0
204,224,95763,1,0,0:0:0
180,136,96112,2,0,B|132:144|96:212|124:272,1,150
160,336,96984,6,0,B|184:328|200:304,2,50,8|0|0,0:0|0:0|0:0,0:0:0
72,320,97681,1,0,0:0:0
72,184,98205,2,0,B|128:156|136:100|136:100|176:136,1,150
200,160,98902,1,4,0:0:0
360,224,99949,6,0,B|384:272,2,50
376,184,100472,2,0,B|432:168|448:120,1,100
360,88,101170,2,0,B|296:104|280:168,1,100
208,104,101868,2,0,B|184:160|200:216|256:248|312:232,1,200
440,232,103088,6,0,B|456:288,2,50
368,288,103786,2,0,B|304:336|216:328,1,150
256,240,104658,2,0,B|208:256|136:240,1,100
112,232,105181,1,0,0:0:0
168,160,105530,1,0,0:0:0
224,88,105879,6,0,B|216:32,2,50,0|0|8,0:0|0:0|0:0,0:0:0
304,132,106577,2,0,B|320:76,2,50,0|0|8,0:0|0:0|0:0,0:0:0
368,196,107275,2,0,B|408:156,2,50,0|0|8,0:0|0:0|0:0,0:0:0
300,256,107972,2,0,B|292:344|196:344,1,150
184,256,108844,5,8,0:0:0
160,168,109193,2,0,B|144:112,1,50
176,88,109542,2,0,B|184:8,2,50
224,80,110065,2,0,B|308:32|424:36,1,200
432,172,111286,5,0,0:0:0
488,244,111635,2,0,B|440:276|384:252,1,100,4|0,0:0|0:0,0:0:0
376,340,112333,2,0,B|319:328|296:272,1,100
224,332,113030,2,0,B|192:284|216:228,2,100
136,176,114426,6,0,B|104:224|112:280,1,100
32,224,115123,1,0,0:0:0
32,224,115298,2,0,B|40:144|96:88,1,150
184,64,116170,1,0,0:0:0
272,80,116519,1,0,0:0:0
344,192,117042,6,0,B|384:240,2,50,0|0|8,0:0|0:0|0:0,0:0:0
280,256,117740,2,0,B|280:316,2,50,0|0|8,0:0|0:0|0:0,0:0:0
192,272,118437,2,0,B|172:320,2,50,0|0|8,0:0|0:0|0:0,0:0:0
104,256,119135,2,0,B|120:192|176:168|240:192,1,150
256,104,120007,6,0,B|312:128|320:192,1,100
400,208,120705,2,0,B|400:152,2,50
400,256,121228,2,0,B|400:288|368:312|368:312|272:312,1,150
216,256,122100,2,0,B|112:256,2,100,0|0|4,0:0|0:0|0:0,0:0:0
32,248,123495,6,0,B|32:136,1,100
112,192,124193,2,0,B|112:88,1,100
192,136,124891,2,0,B|192:24,2,100
352,64,126286,6,0,B|352:176,1,100
440,152,126984,2,0,B|440:256,1,100
352,256,127681,2,0,B|352:360,2,100,0|0|4,0:0|0:0|0:0,0:0:0
176,288,129077,5,0,0:0:0
168,200,129426,1,0,0:0:0
128,120,129775,2,0,B|112:64|48:48,2,100
304,76,131170,6,0,B|340:40,1,50,8|8,0:0|0:0,0:0:0
384,120,131693,2,0,B|384:192|312:208,1,100
256,152,132391,2,0,B|176:200|200:296,1,150
112,248,133263,2,0,B|96:312,2,50
88,160,133961,5,4,0:0:0
136,84,134309,1,8,0:0:0
224,64,134658,2,0,B|280:48|344:80,1,100,0|8,0:0|0:0,0:0:0
272,148,135356,2,0,B|327:153|372:203,2,100,0|8|0,0:0|0:0|0:0,0:0:0
184,168,136402,5,8,0:0:0
184,168,136751,2,0,B|80:152,1,100,0|8,0:0|0:0,0:0:0
112,240,137449,2,0,B|216:256,1,100,0|8,0:0|0:0,0:0:0
272,184,138147,2,0,B|320:208|328:280|296:336|232:344,1,200,0|0,0:0|0:0,0:0:0
168,304,139193,5,8,0:0:0
104,240,139542,2,0,B|160:136|104:40,1,200,0|0,0:0|0:0,0:0:0
288,56,140937,2,0,B|320:104|384:120,1,100,0|8,0:0|0:0,0:0:0
368,208,141635,2,0,B|408:168|464:176,1,100,0|8,0:0|0:0,0:0:0
440,264,142333,2,0,B|406:308|339:314,2,100,0|8|0,0:0|0:0|0:0,0:0:0
440,264,143379,1,8,0:0:0
368,208,143728,5,0,0:0:0
304,144,144077,1,8,0:0:0
216,128,144426,1,0,0:0:0
72,236,145123,6,0,B|120:252|120:252|136:308,2,100,4|8|0,0:0|0:0|0:0,0:0:0
80,148,146170,2,0,B|88:88,1,50,8|0,0:0|0:0,0:0:0
172,128,146693,2,0,B|224:84,2,50,0|8|0,0:0|0:0|0:0,0:0:0
288,200,147565,5,8,0:0:0
248,280,147914,2,0,B|296:304|344:272,1,100,0|8,0:0|0:0,0:0:0
288,200,148612,2,0,B|232:176|184:216,1,100,0|8,0:0|0:0,0:0:0
120,260,149309,2,0,B|88:212|120:152,2,100,0|8|0,0:0|0:0|0:0,0:0:0
192,312,150356,5,8,0:0:0
192,312,150705,2,0,B|272:320|288:208|376:240,1,200,0|0,0:0|0:0,0:0:0
352,56,152101,6,0,B|405:49|452:84,2,100,4|0|0,0:0|0:0|0:0,0:0:0
264,72,153147,1,0,0:0:0
192,128,153495,2,0,B|264:160|240:272|152:264,2,200,0|0|4,0:0|0:0|0:0,0:0:0
256,192,170240,12,8,173379,0:0:0
240,248,173902,6,0,B|288:280|336:280,1,100,8|0,0:0|0:0,0:0:0
376,272,174426,2,0,B|432:240,2,50,8|0|8,0:0|0:0|0:0,0:0:0
376,184,175123,1,8,0:0:0
408,96,175472,1,8,0:0:0
352,24,175821,6,0,B|304:56|320:120,1,100,4|0,0:0|0:0,0:0:0
288,196,176519,2,0,B|302:251|254:283,1,100
168,308,177216,2,0,B|136:324|136:372,2,50
148,220,177914,2,0,B|113:224|97:269,2,50
172,132,178612,6,0,B|116:124|60:172,1,100
0,112,179309,2,0,B|-24:168|16:232,1,100
40,292,180007,2,0,B|88:324|136:324,2,100
72,208,181054,1,0,0:0:0
72,208,181402,6,0,B|160:232|272:232,1,200,4|0,0:0|0:0,0:0:0
360,224,182449,1,0,0:0:0
360,136,182798,2,0,B|264:152|160:128,1,200
72,104,183844,1,0,0:0:0
256,192,184193,12,0,186984,0:0:0
222,90,189775,6,0,B|176:112|176:112|142:158,2,100,4|8|0,0:0|0:0|0:0,0:0:0
232,176,190821,2,0,B|216:232,1,50,8|8,0:0|0:0,0:0:0
304,240,191344,2,0,B|304:296,2,50,0|8|0,0:0|0:0|0:0,0:0:0
360,112,192216,5,8,0:0:0
440,80,192565,2,0,B|440:192,1,100,0|8,0:0|0:0,0:0:0
360,224,193263,2,0,B|360:324,1,100,0|8,0:0|0:0,0:0:0
272,296,193961,2,0,B|272:208|272:208|272:160|320:128|368:128,1,200,0|0,0:0|0:0,0:0:0
288,64,195007,1,8,0:0:0
200,64,195356,6,0,B|80:64,1,100,0|8,0:0|0:0,0:0:0
120,152,196054,2,0,B|56:152,2,50,0|0|8,0:0|0:0|0:0,0:0:0
152,240,196751,1,0,0:0:0
152,240,196926,2,0,B|184:288|256:288,1,100
280,288,197449,2,0,B|332:288|364:240,1,100,0|8,0:0|0:0,0:0:0
408,160,198147,6,0,B|448:208,2,50,0|0|8,0:0|0:0|0:0,0:0:0
376,128,198670,2,0,B|328:72|328:72|288:104|248:88,1,150,0|8,0:0|0:0,0:0:0
168,64,199542,1,0,0:0:0
96,116,199891,1,8,0:0:0
72,204,200240,1,0,0:0:0
116,280,200588,6,0,B|152:328,1,50,8|0,0:0|0:0,0:0:0
184,296,200937,2,0,B|284:320|396:300,1,200,4|0,0:0|0:0,0:0:0
448,240,201984,2,0,B|476:188,1,50,8|8,0:0|0:0,0:0:0
416,124,202507,2,0,B|428:64,2,50,0|8|8,0:0|0:0|0:0,0:0:0
300,52,203379,5,8,0:0:0
212,68,203728,2,0,B|228:124|288:144,1,100,0|8,0:0|0:0,0:0:0
312,224,204426,2,0,B|252:236|204:192,1,100,0|8,0:0|0:0,0:0:0
176,124,205123,2,0,B|126:150|108:208|125:265|190:293,1,200,0|0,0:0|0:0,0:0:0
256,328,206170,1,8,0:0:0
336,288,206519,6,0,B|387:267|403:209|386:152|336:125,1,200,0|0,0:0|0:0,0:0:0
256,88,207565,1,8,0:0:0
184,140,207914,5,0,0:0:0
208,228,208263,1,8,0:0:0
296,228,208612,1,0,0:0:0
328,144,208961,1,8,0:0:0
256,88,209309,6,0,B|256:32,1,50,12|0,0:0|0:0,0:0:0
344,56,209833,2,0,B|380:96|368:152,1,100,8|0,0:0|0:0,0:0:0
296,196,210530,2,0,B|288:256|332:296,2,100,8|0|8,0:0|0:0|0:0,0:0:0
256,196,211402,2,0,B|224:152|164:144,2,100,0|0|4,0:0|0:0|0:0,0:0:0
256,192,212187,12,4,214891,0:0:0
