osu file format v13

[General]
AudioFilename: ginkiha.mp3
AudioLeadIn: 0
PreviewTime: -1
Countdown: 0
SampleSet: Normal
StackLeniency: 0.7
Mode: 0
LetterboxInBreaks: 1
WidescreenStoryboard: 1

[Editor]
Bookmarks: 54949
DistanceSpacing: 1.3
BeatDivisor: 4
GridSize: 4
TimelineZoom: 1

[Metadata]
Title:eos
TitleUnicode:eos
Artist:Ginkiha
ArtistUnicode:Ginkiha
Creator:galvenize
Version:Insane
Source:
Tags:
BeatmapID:464998
BeatmapSetID:196065

[Difficulty]
HPDrainRate:7
CircleSize:4.2
OverallDifficulty:8
ApproachRate:9
SliderMultiplier:1.9
SliderTickRate:1

[Events]
//Background and Video events
0,0,"eos3.jpg",0,0
//Break Periods
2,77092,87263
//Storyboard Layer 0 (Background)
//Storyboard Layer 1 (Fail)
//Storyboard Layer 2 (Pass)
//Storyboard Layer 3 (Foreground)
//Storyboard Sound Samples
//Background Colour Transformations
3,100,38,55,113

[TimingPoints]
92,342.857142857143,4,2,0,50,1,0
92,-200,4,2,0,50,0,0
9606,-100,4,2,0,100,0,0
10292,-100,4,2,0,40,0,0
11006,-100,4,2,0,100,0,0
55034,-100,4,1,0,70,0,0
100806,-100,4,2,0,100,0,0
101492,-100,4,2,0,100,0,0
122063,-100,4,2,0,60,0,0
123606,-100,4,1,0,70,0,0

[Colours]
Combo1 : 198,251,255
Combo2 : 38,170,198
Combo3 : 184,189,248
Combo4 : 106,109,242

[HitObjects]
120,120,92,5,0,0:0:0:0:
204,124,263,1,0,0:0:0:0:
288,128,434,1,0,0:0:0:0:
372,136,606,2,0,L|392:240,1,95
256,336,1120,2,0,L|264:192,1,142.5
272,108,1806,1,0,0:0:0:0:
272,108,2149,5,0,0:0:0:0:
188,88,2320,1,0,0:0:0:0:
104,100,2492,1,0,0:0:0:0:
40,156,2663,1,0,0:0:0:0:
120,268,2834,2,0,L|112:200,1,47.5
184,172,3177,1,0,0:0:0:0:
296,336,3349,2,0,L|304:280,1,47.5
232,240,3692,1,0,0:0:0:0:
384,152,3863,2,0,L|400:268,1,95
276,136,4377,6,0,L|292:36,1,95
291,42,4892,1,0,0:0:0:0:
208,48,5063,1,0,0:0:0:0:
124,60,5234,1,0,0:0:0:0:
291,42,5406,1,0,0:0:0:0:
444,108,5577,6,0,L|440:212,1,95
248,300,6092,2,0,L|300:292,1,47.5
380,312,6434,1,0,0:0:0:0:
224,216,6606,2,0,L|112:204,1,95
296,160,7120,2,0,L|400:150,1,95
390,150,7634,5,0,0:0:0:0:
352,72,7806,1,0,0:0:0:0:
312,244,7977,1,0,0:0:0:0:
315,257,8063,1,0,0:0:0:0:
318,270,8149,1,0,0:0:0:0:
321,283,8234,1,0,0:0:0:0:
324,296,8320,5,0,0:0:0:0:
52,48,8834,1,0,0:0:0:0:
472,36,9349,1,0,0:0:0:0:
148,96,9692,5,0,0:0:0:0:
84,168,9863,1,0,0:0:0:0:
248,72,10034,1,0,0:0:0:0:
60,48,10206,1,0,0:0:0:0:
208,168,10377,1,0,1:0:0:0:
244,176,10463,1,0,1:0:0:0:
280,172,10549,1,0,1:0:0:0:
316,156,10634,1,0,1:0:0:0:
352,140,10720,1,0,1:0:0:0:
388,136,10806,1,0,1:0:0:0:
424,144,10892,1,0,1:0:0:0:
452,168,10977,1,0,1:0:0:0:
476,196,11063,6,0,P|464:264|472:348,1,142.5
432,348,11406,2,0,P|384:344|320:344,1,95,6|0,0:0|0:0,0:0:0:0:
244,348,11749,1,0,0:0:0:0:
44,272,11920,1,0,0:0:0:0:
108,344,12092,2,0,P|140:292|136:248,1,95,2|0,0:0|0:0,0:0:0:0:
152,92,12434,6,0,P|120:144|124:188,1,95
212,156,12777,1,2,0:0:0:0:
280,88,12949,1,0,0:0:0:0:
392,276,13120,2,0,P|332:272|292:268,1,95
372,164,13463,2,2,P|432:168|472:172,1,95
466,171,13720,1,0,0:0:0:0:
466,171,13806,6,0,P|464:104|464:36,1,95,4|0,0:0|0:0,0:0:0:0:
280,88,14149,2,0,P|228:100|152:92,1,95,2|0,0:0|0:0,0:0:0:0:
92,88,14492,1,0,0:0:0:0:
200,228,14663,1,0,0:0:0:0:
112,196,14834,2,0,P|108:248|140:300,1,95,2|0,0:0|0:0,0:0:0:0:
336,240,15177,6,0,L|356:144,1,95
396,316,15520,2,0,P|340:336|272:312,1,95,2|0,0:0|0:0,0:0:0:0:
200,228,15863,5,0,0:0:0:0:
264,156,16034,1,0,0:0:0:0:
172,140,16206,1,2,1:2:0:0:
336,240,16377,1,0,1:1:0:0:
484,120,16549,2,0,P|472:56|464:8,1,95,4|0,0:0|0:0,0:0:0:0:
288,64,16892,2,0,P|272:164|260:232,1,142.5,2|0,0:0|0:0,0:0:0:0:
252,252,17234,2,0,P|184:264|148:272,1,95
88,208,17577,5,2,0:0:0:0:
116,116,17749,1,0,0:0:0:0:
288,64,17920,2,0,P|340:84|384:104,1,95
252,252,18263,2,0,P|240:192|232:144,1,95,2|0,0:0|0:0,0:0:0:0:
384,228,18606,5,0,0:0:0:0:
364,320,18777,1,0,0:0:0:0:
224,160,18949,1,2,0:0:0:0:
208,68,19120,1,0,0:0:0:0:
152,256,19292,6,0,P|100:268|52:280,1,95
124,348,19634,1,2,0:0:0:0:
116,168,19806,2,0,P|88:128|56:76,2,95,0|0|0,0:0|0:0|0:0,0:0:0:0:
212,172,20320,1,2,0:0:0:0:
212,172,20492,1,0,0:0:0:0:
404,88,20663,5,0,0:0:0:0:
212,72,20834,2,0,P|264:88|312:88,1,95,0|2,0:0|0:0,0:0:0:0:
128,44,21177,2,0,P|64:44|12:60,1,95,0|0,0:0|0:0,0:0:0:0:
88,128,21520,5,0,1:2:0:0:
212,72,21692,1,2,1:2:0:0:
128,44,21863,1,0,1:2:0:0:
176,168,22034,2,0,B|212:160|248:152|248:152|288:156|360:172,1,142.5,4|0,0:0|0:0,0:0:0:0:
360,176,22377,2,0,L|472:172,1,95,2|0,0:0|0:0,0:0:0:0:
460,268,22720,1,0,0:0:0:0:
408,100,22892,1,0,0:0:0:0:
352,268,23063,2,0,P|296:276|248:284,1,95,2|0,0:0|0:0,0:0:0:0:
92,208,23406,6,0,P|96:160|132:112,1,95
192,188,23749,1,2,0:0:0:0:
316,92,23920,1,0,0:0:0:0:
232,48,24092,2,0,L|120:40,1,95
296,176,24434,2,0,P|352:172|388:136,1,95,2|0,0:0|0:0,0:0:0:0:
380,148,24692,1,0,0:0:0:0:
380,148,24777,6,0,P|432:128|488:136,1,95
408,320,25120,2,0,L|428:208,1,95,2|0,0:0|0:0,0:0:0:0:
281,84,25463,2,0,L|297:188,1,95
238,254,25806,1,2,0:0:0:0:
144,241,25977,1,0,0:0:0:0:
45,93,26149,6,0,P|99:103|145:116,1,95
238,254,26492,2,0,P|221:209|213:139,1,95,2|0,0:0|0:0,0:0:0:0:
400,27,26834,2,0,P|400:83|369:171,1,142.5
353,208,27177,5,2,1:2:0:0:
168,161,27349,1,0,1:2:0:0:
459,173,27520,1,6,1:2:0:0:
459,173,27863,6,0,P|454:244|453:275,1,95,2|0,0:0|0:0,0:0:0:0:
353,208,28206,1,0,0:0:0:0:
348,112,28377,1,0,0:0:0:0:
248,204,28549,2,0,P|240:264|236:312,1,95,2|0,0:0|0:0,0:0:0:0:
176,48,28892,1,4,0:0:0:0:
176,48,29234,6,2,P|168:100|164:148,1,95
152,236,29577,1,0,0:0:0:0:
140,332,29749,1,0,0:0:0:0:
52,132,29920,2,0,P|60:72|68:16,1,95,2|0,0:0|0:0,0:0:0:0:
36,224,30263,5,4,0:0:0:0:
140,332,30434,1,0,0:0:0:0:
232,312,30606,1,2,0:0:0:0:
160,140,30777,1,0,0:0:0:0:
152,236,30949,1,0,0:0:0:0:
260,124,31120,2,0,L|248:16,2,95,0|2|0,0:0|0:0|0:0,0:0:0:0:
492,200,31634,5,0,0:0:0:0:
384,236,31806,1,0,0:0:0:0:
280,192,31977,1,2,0:0:0:0:
168,224,32149,1,0,0:0:0:0:
56,200,32320,1,0,0:0:0:0:
52,172,32406,1,0,0:0:0:0:
56,144,32492,1,0,0:0:0:0:
72,120,32577,1,0,0:0:0:0:
96,104,32663,1,0,0:0:0:0:
124,116,32749,1,0,0:0:0:0:
152,116,32834,1,0,0:0:0:0:
180,108,32920,1,0,0:0:0:0:
208,96,33006,6,0,P|260:80|356:84,1,142.5,4|0,0:0|0:0,0:0:0:0:
376,88,33349,1,2,0:0:0:0:
252,204,33520,2,0,P|248:252|248:304,1,95
472,228,33863,2,0,P|452:184|408:160,1,95,0|2,0:0|0:0,0:0:0:0:
252,204,34206,2,0,P|200:216|144:208,1,95
64,200,34549,1,0,0:0:0:0:
108,116,34720,1,2,0:0:0:0:
12,128,34892,1,0,0:0:0:0:
160,192,35063,2,0,P|196:144|192:96,2,95,0|0|2,0:0|0:0|0:0,0:0:0:0:
64,200,35577,1,0,0:0:0:0:
192,272,35749,6,0,P|240:272|292:284,1,95,4|0,0:0|0:0,0:0:0:0:
412,284,36092,1,2,0:0:0:0:
284,176,36263,2,0,P|312:136|356:124,1,95
448,116,36606,1,0,0:0:0:0:
408,204,36777,1,2,0:0:0:0:
376,40,36949,1,0,0:0:0:0:
284,60,37120,6,0,P|220:72|180:72,1,95
8,184,37463,2,0,P|72:184|112:188,1,95,2|0,0:0|0:0,0:0:0:0:
240,200,37806,1,0,0:0:0:0:
252,296,37977,1,0,0:0:0:0:
104,188,38149,1,2,0:0:0:0:
168,260,38320,1,0,0:0:0:0:
168,260,38406,1,0,0:0:0:0:
168,260,38492,6,0,B|264:272|264:232|360:248,1,190,4|2,0:0|0:0,0:0:0:0:
432,192,39006,2,0,L|428:144|424:96,1,95
272,40,39349,2,0,P|260:96|252:136,1,95,0|2,0:0|0:0,0:0:0:0:
168,260,39692,2,0,P|116:224|96:184,1,95
100,197,40034,1,0,0:0:0:0:
272,244,40206,1,2,0:0:0:0:
232,328,40377,1,0,0:0:0:0:
168,260,40549,1,0,0:0:0:0:
168,260,40720,2,0,P|196:216|188:160,1,95,0|2,0:0|0:0,0:0:0:0:
120,112,41063,1,0,0:0:0:0:
272,244,41234,6,0,B|320:232|360:212|360:212|372:168|376:108,1,190,4|0,0:0|0:0,0:0:0:0:
468,92,41749,2,0,P|460:152|460:192,1,95
456,280,42092,1,0,0:0:0:0:
328,340,42263,1,2,0:0:0:0:
328,340,42434,2,0,P|272:328|220:336,2,95,0|0|0,0:0|0:0|0:0,0:0:0:0:
344,192,42949,6,0,P|324:132|320:76,1,95,2|0,0:0|0:0,0:0:0:0:
388,36,43292,1,0,0:0:0:0:
240,136,43463,1,0,0:0:0:0:
280,28,43634,1,2,1:2:0:0:
416,124,43806,1,0,1:2:0:0:
188,64,43977,6,0,P|140:68|80:76,1,95,4|0,0:0|0:0,0:0:0:0:
64,152,44320,1,2,0:0:0:0:
236,228,44492,2,0,P|244:168|240:120,1,95
120,272,44834,2,0,P|148:320|204:332,1,95,0|2,0:0|0:0,0:0:0:0:
424,332,45177,2,0,P|396:284|340:272,1,95,0|0,0:0|0:0,0:0:0:0:
340,352,45520,1,0,0:0:0:0:
256,308,45692,1,2,0:0:0:0:
404,212,45863,1,0,0:0:0:0:
340,352,46034,5,0,0:0:0:0:
340,352,46206,2,0,B|312:264|360:264|328:164,1,190
312,52,46720,6,0,P|264:68|228:104,1,95,4|0,0:0|0:0,0:0:0:0:
180,176,47063,1,2,0:0:0:0:
400,280,47234,2,0,P|384:216|348:188,1,95
272,180,47577,1,0,0:0:0:0:
124,336,47749,1,2,0:0:0:0:
220,328,47920,2,0,P|240:272|220:212,2,95,0|0|0,0:0|0:0|0:0,0:0:0:0:
56,244,48434,2,0,L|44:132,1,95,2|0,0:0|0:0,0:0:0:0:
160,80,48777,1,0,0:0:0:0:
256,92,48949,1,0,0:0:0:0:
80,40,49120,1,2,0:0:0:0:
220,16,49292,1,0,0:0:0:0:
192,156,49463,6,0,P|196:216|204:268,1,95,4|0,0:0|0:0,0:0:0:0:
288,304,49806,1,2,0:0:0:0:
360,244,49977,2,0,P|412:236|456:240,1,95
288,304,50320,2,0,P|240:304|188:316,1,95,0|2,0:0|0:0,0:0:0:0:
24,272,50663,2,0,P|80:268|120:252,1,95
200,212,51006,5,0,0:0:0:0:
284,72,51177,1,2,0:0:0:0:
192,96,51349,1,0,0:0:0:0:
300,184,51520,1,0,0:0:0:0:
300,184,51692,2,0,P|360:176|424:180,1,95,0|2,0:0|0:0,0:0:0:0:
284,308,52034,1,0,0:0:0:0:
272,300,52120,1,0,0:0:0:0:
260,292,52206,6,0,P|200:288|152:288,1,95,4|0,0:0|0:0,0:0:0:0:
68,288,52549,1,2,0:0:0:0:
152,120,52720,1,0,0:0:0:0:
128,212,52892,1,0,0:0:0:0:
56,148,53063,1,0,0:0:0:0:
224,60,53234,1,2,0:0:0:0:
240,156,53406,1,0,0:0:0:0:
240,156,53492,1,0,0:0:0:0:
240,156,53577,5,0,1:2:0:0:
332,172,53749,1,0,1:2:0:0:
152,120,53920,1,2,1:2:0:0:
284,260,54092,1,0,1:2:0:0:
384,100,54263,1,2,0:0:0:0:
368,76,54349,1,2,0:0:0:0:
344,60,54434,1,2,0:0:0:0:
316,48,54520,1,2,0:0:0:0:
288,40,54606,1,2,0:0:0:0:
260,40,54692,1,2,0:0:0:0:
232,48,54777,1,2,0:0:0:0:
208,60,54863,1,0,0:0:0:0:
192,72,54949,5,4,0:0:0:0:
192,72,55120,2,0,P|176:116|160:212,1,142.5,2|0,0:2|0:0,0:2:0:0:
156,252,55463,1,2,0:2:0:0:
344,212,55634,5,2,0:2:0:0:
316,124,55806,1,0,0:2:0:0:
452,244,55977,1,10,0:2:0:0:
300,340,56149,1,0,0:2:0:0:
160,248,56320,1,0,0:2:0:0:
152,220,56406,1,0,0:2:0:0:
144,192,56492,1,0,0:2:0:0:
136,168,56577,1,0,0:2:0:0:
132,140,56663,1,8,0:2:0:0:
156,148,56749,1,0,0:2:0:0:
184,148,56834,1,0,0:2:0:0:
212,140,56920,1,0,0:2:0:0:
236,124,57006,5,2,0:2:0:0:
164,60,57177,1,2,0:2:0:0:
264,208,57349,1,10,0:2:0:0:
296,52,57520,2,0,P|388:60|456:88,1,142.5,2|0,0:2|0:0,0:2:0:0:
472,104,57863,1,2,0:2:0:0:
352,284,58034,2,0,L|368:184,1,95,10|0,0:2|0:0,0:2:0:0:
328,160,58292,1,0,0:2:0:0:
328,160,58377,1,2,0:2:0:0:
196,260,58549,5,2,0:2:0:0:
124,200,58720,2,0,L|120:105,1,95,8|0,0:0|0:0,0:2:0:0:
128,92,58977,1,0,0:2:0:0:
136,80,59063,5,2,0:2:0:0:
268,28,59234,1,2,0:2:0:0:
328,160,59406,1,10,0:2:0:0:
196,216,59577,1,2,0:2:0:0:
224,120,59749,5,2,0:2:0:0:
132,284,59920,1,2,0:2:0:0:
300,196,60092,1,10,0:2:0:0:
112,176,60263,1,2,0:2:0:0:
252,304,60434,6,0,P|312:296|348:296,1,95,4|0,0:0|0:0,0:2:0:0:
475,177,60777,2,0,P|408:172|364:180,1,95,8|0,0:0|0:0,0:2:0:0:
88,104,61120,2,0,P|144:92|252:92,1,142.5
276,96,61463,1,0,0:2:0:0:
304,296,61634,1,0,0:2:0:0:
352,304,61720,1,0,0:2:0:0:
396,284,61806,5,0,0:2:0:0:
328,216,61977,1,2,0:2:0:0:
212,340,62149,1,8,0:2:0:0:
64,256,62320,2,0,P|56:192|52:148,1,95
252,196,62663,2,0,P|248:248|240:304,2,95,0|0|0,0:0|0:0|0:0,0:2:0:0:
344,92,63177,5,0,0:2:0:0:
252,68,63349,1,2,0:2:0:0:
460,32,63520,1,10,0:2:0:0:
460,32,63692,1,2,0:2:0:0:
272,156,63863,5,0,0:2:0:0:
344,92,64034,1,0,0:2:0:0:
128,196,64206,1,0,0:0:0:0:
104,156,64292,1,0,0:0:0:0:
116,112,64377,1,0,0:0:0:0:
252,68,64549,5,2,0:2:0:0:
132,196,64720,1,2,0:2:0:0:
260,316,64892,1,10,0:2:0:0:
380,188,65063,1,2,0:2:0:0:
220,128,65234,5,0,0:2:0:0:
320,156,65406,1,2,0:2:0:0:
292,256,65577,2,0,P|228:256|184:264,2,95,8|0|4,0:0|0:0|0:0,0:2:0:0:
428,260,66092,5,2,0:2:0:0:
428,260,66349,1,0,0:2:0:0:
428,260,66434,1,0,0:2:0:0:
408,168,66606,5,0,0:2:0:0:
288,316,66777,1,0,0:2:0:0:
228,136,66949,1,8,0:2:0:0:
428,260,67120,1,0,0:2:0:0:
240,232,67292,1,2,0:2:0:0:
212,240,67377,1,2,0:2:0:0:
188,252,67463,1,2,0:2:0:0:
168,272,67549,1,2,0:2:0:0:
152,292,67634,1,10,0:2:0:0:
140,264,67720,1,2,0:2:0:0:
132,236,67806,1,2,0:2:0:0:
124,208,67892,1,2,0:2:0:0:
116,180,67977,5,0,0:2:0:0:
252,112,68149,1,2,0:2:0:0:
128,68,68320,1,10,0:2:0:0:
276,200,68492,2,0,B|312:184|336:164|336:164|344:120|332:76,1,142.5,2|0,0:2|0:0,0:2:0:0:
324,48,68834,5,2,0:2:0:0:
128,68,69006,2,0,P|175:73|228:76,1,95,10|0,0:2|0:0,0:2:0:0:
252,112,69263,1,0,0:2:0:0:
252,112,69349,1,0,0:2:0:0:
164,168,69520,5,2,0:2:0:0:
395,190,69692,2,0,P|400:140|404:96,1,95,8|0,0:0|0:0,0:2:0:0:
404,204,69949,1,0,0:2:0:0:
412,216,70034,5,2,0:2:0:0:
292,324,70206,1,2,0:2:0:0:
156,236,70377,1,10,0:2:0:0:
272,124,70549,1,2,0:2:0:0:
180,148,70720,5,2,0:2:0:0:
360,208,70892,1,0,0:2:0:0:
268,40,71063,1,10,0:2:0:0:
264,228,71234,1,0,0:2:0:0:
396,88,71406,2,0,P|448:96|484:120,1,95,4|0,0:0|0:0,0:2:0:0:
264,228,71749,2,0,P|232:176|232:128,1,95,10|0,0:2|0:0,0:2:0:0:
459,265,72092,2,0,P|426:313|387:333,1,95
300,360,72434,1,8,0:2:0:0:
148,244,72606,1,0,0:2:0:0:
168,256,72692,1,0,0:2:0:0:
188,268,72777,5,2,0:2:0:0:
112,324,72949,1,2,0:2:0:0:
196,156,73120,1,10,0:2:0:0:
336,284,73292,2,0,P|392:272|420:240,1,95,2|0,0:0|0:0,0:2:0:0:
448,72,73634,2,0,P|392:84|364:116,1,95,2|8,0:0|0:0,0:2:0:0:
328,196,73977,1,2,0:2:0:0:
196,156,74149,5,0,0:2:0:0:
284,120,74320,1,2,0:2:0:0:
176,260,74492,5,8,0:2:0:0:
92,220,74663,1,2,0:2:0:0:
176,64,74834,5,0,0:2:0:0:
196,156,75006,1,2,0:2:0:0:
44,44,75177,1,10,0:2:0:0:
44,44,75349,1,0,0:2:0:0:
324,40,75520,6,2,L|424:32,1,95
196,156,75863,2,2,L|88:144,1,95,8|2,0:0|0:0,0:2:0:0:
380,180,76206,2,0,P|392:264|400:336,2,142.5,0|2|2,0:0|0:0|0:0,0:2:0:0:
380,180,76892,1,4,0:2:0:0:
164,124,87863,5,0,0:0:0:0:
244,72,88034,1,0,0:0:0:0:
304,148,88206,1,0,0:0:0:0:
224,200,88377,1,0,0:0:0:0:
224,200,88463,1,0,0:0:0:0:
224,200,88549,1,0,0:0:0:0:
228,296,88720,2,0,P|300:308|348:320,1,95,0|0,0:0|0:0,0:0:0:0:
388,244,89063,1,0,0:0:0:0:
224,200,89234,2,0,P|156:208|120:212,1,95
120,224,89492,1,0,0:0:0:0:
112,236,89577,1,0,0:0:0:0:
332,144,89749,2,0,P|388:140|440:136,1,95
426,137,90006,1,0,0:0:0:0:
426,137,90092,1,0,0:0:0:0:
232,52,90263,2,0,P|164:60|84:104,1,142.5
60,124,90606,5,0,0:0:0:0:
24,212,90777,1,0,0:0:0:0:
100,268,90949,1,0,0:0:0:0:
176,212,91120,1,0,0:0:0:0:
176,212,91206,1,0,0:0:0:0:
176,212,91292,1,0,0:0:0:0:
156,120,91463,2,0,P|152:60|156:24,1,95
155,25,91806,1,0,0:0:0:0:
344,56,91977,2,0,P|328:104|300:144,1,95
303,140,92234,1,0,0:0:0:0:
303,140,92320,1,0,0:0:0:0:
168,328,92492,2,0,P|184:280|212:240,1,95
208,243,92749,1,0,0:0:0:0:
208,243,92834,1,0,0:0:0:0:
304,240,93006,5,0,0:0:0:0:
128,216,93177,1,0,0:0:0:0:
400,128,93349,1,0,0:0:0:0:
340,56,93520,1,0,0:0:0:0:
340,56,93692,6,0,P|272:60|228:64,1,95
245,62,93949,1,0,0:0:0:0:
245,62,94034,1,0,0:0:0:0:
160,108,94206,1,0,0:0:0:0:
232,300,94377,2,0,P|280:272|308:224,1,95
160,108,94720,2,0,P|140:160|144:220,2,95,0|0|0,0:0|0:0|0:0,0:0:0:0:
228,172,95234,1,0,0:0:0:0:
228,172,95320,1,0,0:0:0:0:
228,172,95406,1,0,0:0:0:0:
248,80,95577,1,0,0:0:0:0:
64,88,95749,1,0,0:0:0:0:
324,144,95920,1,0,0:0:0:0:
324,144,96092,5,0,0:0:0:0:
340,236,96263,1,0,0:0:0:0:
348,104,96434,5,0,0:0:0:0:
324,264,96606,1,0,0:0:0:0:
388,104,96777,1,0,0:0:0:0:
284,264,96949,1,0,0:0:0:0:
416,132,97120,1,0,0:0:0:0:
256,236,97292,1,0,0:0:0:0:
440,216,97463,5,0,0:0:0:0:
448,244,97549,1,0,0:0:0:0:
450,272,97634,1,0,0:0:0:0:
439,298,97720,1,0,0:0:0:0:
417,316,97806,1,0,0:0:0:0:
389,322,97892,1,0,0:0:0:0:
361,316,97977,1,0,0:0:0:0:
334,305,98063,1,0,0:0:0:0:
305,300,98149,1,0,0:0:0:0:
276,300,98234,1,0,0:0:0:0:
248,305,98320,1,0,0:0:0:0:
221,314,98406,1,0,0:0:0:0:
195,326,98492,1,0,0:0:0:0:
166,328,98577,1,0,0:0:0:0:
137,324,98663,1,0,0:0:0:0:
110,314,98749,1,0,0:0:0:0:
81,314,98834,1,0,0:0:0:0:
256,192,98920,12,0,100206,0:0:0:0:
117,116,100377,6,0,L|111:68,2,47.5,0|0|0,0:0|0:0|0:0,0:0:0:0:
222,43,100720,1,0,0:0:0:0:
311,76,100892,2,0,L|345:70,15,23.75,0|0|0|0|0|0|0|0|0|0|0|0|0|0|0|0,0:0|0:0|0:0|0:0|0:0|0:0|0:0|0:0|0:0|0:0|0:0|0:0|0:0|0:0|0:0|0:0,2:2:0:0:
352,86,101577,6,0,P|354:145|356:187,1,95
160,298,101920,2,0,P|158:239|156:197,1,95,2|0,1:2|0:0,0:0:0:0:
196,116,102263,1,0,0:0:0:0:
104,92,102434,1,0,0:0:0:0:
292,180,102606,2,0,P|288:232|284:280,1,95,2|0,1:2|0:0,0:0:0:0:
356,336,102949,1,0,0:0:0:0:
448,312,103120,1,0,0:0:0:0:
280,268,103292,2,0,P|228:272|184:276,1,95,2|0,1:2|0:0,0:0:0:0:
44,176,103634,2,0,P|96:172|140:168,1,95
220,120,103977,1,2,1:2:0:0:
164,44,104149,1,0,0:0:0:0:
304,160,104320,6,0,P|268:196|216:212,1,95
144,168,104663,1,2,1:2:0:0:
304,72,104834,2,0,L|400:88,2,95,0|0|0,0:0|0:0|0:0,0:0:0:0:
208,56,105349,1,2,1:2:0:0:
472,52,105520,2,0,P|480:112|464:144,1,95
396,204,105863,1,2,0:0:0:0:
304,188,106034,1,2,1:2:0:0:
248,96,106206,5,2,0:0:0:0:
360,96,106377,1,2,0:0:0:0:
316,296,106548,1,2,0:0:0:0:
216,244,106720,1,2,1:2:0:0:
304,188,106892,5,2,0:0:0:0:
396,204,107063,2,0,P|468:216|512:224,1,95,4|0,1:2|0:0,0:0:0:0:
356,344,107406,1,2,1:2:0:0:
261,325,107577,2,0,P|214:332|168:340,1,95
96,248,107920,1,0,0:0:0:0:
96,248,108006,1,0,0:0:0:0:
96,248,108092,2,0,P|108:164|128:96,1,142.5,2|0,1:2|0:0,0:0:0:0:
168,100,108434,5,2,0:0:0:0:
308,64,108606,1,2,0:0:0:0:
268,200,108777,1,2,1:2:0:0:
232,60,108949,1,2,0:0:0:0:
332,160,109120,1,2,0:0:0:0:
148,212,109292,2,0,P|96:204|48:204,2,95,2|2|2,0:0|1:2|0:0,0:0:0:0:
148,212,109720,1,0,0:0:0:0:
148,212,109806,5,6,0:0:0:0:
216,276,109977,1,2,0:0:0:0:
252,136,110149,1,2,1:2:0:0:
352,240,110320,1,2,0:0:0:0:
260,212,110492,1,2,0:0:0:0:
436,280,110663,1,2,0:0:0:0:
436,180,110834,1,2,1:2:0:0:
356,332,111006,1,2,0:0:0:0:
320,56,111177,5,2,0:0:0:0:
204,56,111349,1,2,0:0:0:0:
376,72,111520,1,2,1:2:0:0:
152,40,111692,1,2,0:0:0:0:
332,188,111863,5,2,0:0:0:0:
216,232,112035,1,0,0:0:0:0:
252,144,112206,1,2,1:2:0:0:
300,276,112378,1,2,1:2:0:0:
160,160,112549,2,0,P|108:164|44:172,1,95,4|0,0:0|0:0,0:0:0:0:
40,260,112892,1,2,1:2:0:0:
224,68,113063,2,0,P|172:72|108:80,1,95
368,64,113406,2,0,L|464:64,1,95,0|2,0:0|1:2,0:0:0:0:
444,156,113749,1,0,0:0:0:0:
384,232,113920,5,0,0:0:0:0:
296,144,114092,1,0,0:0:0:0:
224,84,114263,2,0,P|172:80|116:96,1,95,2|0,1:2|0:0,0:0:0:0:
96,312,114606,1,0,0:0:0:0:
172,256,114777,2,0,P|224:264|284:280,1,95,0|0,0:0|1:2,0:0:0:0:
340,332,115120,1,0,0:0:0:0:
440,208,115292,6,0,L|432:108,1,95,4|0,0:0|0:0,0:0:0:0:
340,96,115634,1,2,1:2:0:0:
204,176,115806,2,0,P|152:176|96:160,2,95,0|0|0,0:0|0:0|0:0,0:0:0:0:
228,84,116320,1,2,1:2:0:0:
32,104,116492,2,0,P|16:156|28:208,1,95
104,272,116834,1,2,0:0:0:0:
200,280,117006,5,2,1:2:0:0:
144,356,117177,1,2,0:0:0:0:
104,272,117349,1,2,0:0:0:0:
248,364,117520,1,2,0:0:0:0:
244,192,117692,1,2,1:2:0:0:
104,272,117863,1,2,0:0:0:0:
248,364,118034,2,0,P|300:360|344:356,1,95,4|0,0:0|0:0,0:0:0:0:
396,276,118377,1,0,1:2:0:0:
244,192,118549,2,0,P|240:140|256:96,1,95
424,52,118892,1,0,0:0:0:0:
424,52,118977,1,0,0:0:0:0:
424,52,119063,2,0,P|408:108|400:204,1,142.5,0|0,1:2|0:0,0:0:0:0:
400,240,119406,5,0,0:0:0:0:
216,276,119577,1,0,0:0:0:0:
304,240,119749,5,0,0:0:0:0:
116,248,119920,1,0,0:0:0:0:
148,156,120092,5,0,0:0:0:0:
148,156,120263,1,0,0:0:0:0:
364,228,120434,5,0,0:0:0:0:
364,228,120605,1,0,0:0:0:0:
260,180,120777,5,2,0:0:0:0:
340,108,120949,1,2,1:2:0:0:
168,116,121120,1,2,0:0:0:0:
224,280,121292,1,2,0:0:0:0:
252,72,121463,1,2,0:0:0:0:
352,232,121634,1,2,0:0:0:0:
160,212,121806,1,2,1:2:0:0:
340,108,121977,1,2,0:0:0:0:
260,180,122149,5,0,1:0:0:0:
260,180,122320,1,0,1:0:0:0:
100,52,122492,1,0,1:0:0:0:
100,52,122663,1,0,1:0:0:0:
372,80,122834,1,0,1:0:0:0:
392,100,122920,1,0,1:0:0:0:
404,128,123006,1,0,1:0:0:0:
408,156,123092,1,0,1:0:0:0:
396,180,123177,1,0,1:0:0:0:
372,192,123263,1,0,1:0:0:0:
344,188,123349,1,0,1:0:0:0:
316,180,123434,1,0,1:0:0:0:
288,180,123520,5,4,0:0:0:0:
288,180,123692,2,0,P|224:176|112:180,1,142.5
116,180,124034,1,0,0:0:0:0:
256,312,124206,5,0,0:0:0:0:
208,128,124377,1,0,0:0:0:0:
164,312,124549,1,8,0:0:0:0:
348,352,124720,1,0,0:0:0:0:
476,212,124892,1,0,0:0:0:0:
468,184,124977,1,0,0:0:0:0:
460,156,125063,1,0,0:0:0:0:
452,128,125149,1,0,0:0:0:0:
444,100,125234,1,8,0:0:0:0:
420,116,125320,1,0,0:0:0:0:
392,124,125406,1,0,0:0:0:0:
364,128,125492,1,0,0:0:0:0:
336,124,125577,5,0,0:0:0:0:
160,48,125749,1,0,0:0:0:0:
348,32,125920,1,8,0:0:0:0:
72,136,126092,1,0,0:0:0:0:
72,136,126434,5,0,0:0:0:0:
72,136,126606,2,0,L|68:240,1,95,8|0,0:0|0:0,0:0:0:0:
76,244,126863,1,0,0:0:0:0:
84,256,126949,1,0,0:0:0:0:
236,140,127120,1,0,0:0:0:0:
336,304,127292,2,0,L|344:204,1,95,8|0,0:0|0:0,0:0:0:0:
356,200,127549,1,0,0:0:0:0:
368,192,127634,5,0,0:0:0:0:
420,272,127806,1,0,0:0:0:0:
316,112,127977,1,8,0:0:0:0:
156,220,128149,1,0,0:0:0:0:
252,220,128320,5,0,0:0:0:0:
136,372,128492,1,0,0:0:0:0:
28,216,128663,1,8,0:0:0:0:
144,68,128834,1,0,0:0:0:0:
156,220,129006,6,0,P|204:224|272:220,1,95
398,91,129349,2,0,P|357:67|312:56,1,95,8|0,0:0|0:0,0:0:0:0:
311,328,129692,2,0,P|357:316|398:292,1,95,0|0,0:0|0:0,0:0:0:0:
256,192,130034,1,8,0:0:0:0:
256,192,130206,1,0,0:0:0:0:
256,192,130292,1,0,0:0:0:0:
256,192,130377,5,0,0:0:0:0:
192,88,130549,1,0,0:0:0:0:
360,192,130720,1,8,0:0:0:0:
192,296,130892,2,0,L|80:288,1,95
284,348,131234,2,0,L|384:352,1,95,0|8,0:0|0:0,0:0:0:0:
480,220,131577,1,0,0:0:0:0:
480,220,131749,5,0,0:0:0:0:
404,276,131920,1,0,0:0:0:0:
376,116,132092,1,8,0:0:0:0:
376,116,132263,1,0,0:0:0:0:
336,204,132434,5,0,0:0:0:0:
472,120,132606,1,0,0:0:0:0:
224,176,132777,1,8,0:0:0:0:
216,188,132863,1,0,0:0:0:0:
208,200,132949,1,0,0:0:0:0:
288,120,133120,5,0,0:0:0:0:
264,280,133292,1,0,0:0:0:0:
120,208,133463,1,8,0:0:0:0:
336,204,133634,1,0,0:0:0:0:
400,340,133806,1,0,0:0:0:0:
368,40,133977,1,0,0:0:0:0:
264,280,134149,2,0,L|168:296,2,95,8|0|0,0:0|0:0|0:0,0:0:0:0:
472,240,134663,5,0,0:0:0:0:
472,240,134920,1,0,0:0:0:0:
472,240,135006,1,0,0:0:0:0:
320,128,135177,5,0,0:0:0:0:
228,152,135349,1,0,0:0:0:0:
408,96,135520,1,8,0:0:0:0:
288,244,135692,1,0,0:0:0:0:
176,56,135863,1,0,0:0:0:0:
148,56,135949,1,0,0:0:0:0:
120,56,136034,1,0,0:0:0:0:
92,56,136120,1,0,0:0:0:0:
64,56,136206,1,8,0:0:0:0:
76,84,136292,1,0,0:0:0:0:
76,112,136377,1,0,0:0:0:0:
68,140,136463,1,0,0:0:0:0:
52,164,136549,5,0,0:0:0:0:
236,120,136720,1,0,0:0:0:0:
204,240,136892,1,8,0:0:0:0:
312,44,137063,2,0,P|384:44|456:56,1,142.5
480,96,137406,1,0,0:0:0:0:
328,280,137577,2,0,P|308:228|328:176,1,95,8|0,0:0|0:0,0:0:0:0:
328,184,137834,1,0,0:0:0:0:
340,176,137920,5,0,0:0:0:0:
416,236,138092,1,0,0:0:0:0:
120,120,138263,2,0,P|64:132|32:164,1,95,8|0,0:0|0:0,0:0:0:0:
36,172,138520,1,0,0:0:0:0:
36,188,138606,6,0,L|44:248,1,47.5
124,280,138777,2,0,L|116:220,1,47.5,0|0,0:0|0:0,0:0:0:0:
56,308,138949,5,8,0:0:0:0:
188,364,139120,1,0,0:0:0:0:
332,352,139292,1,0,0:0:0:0:
416,236,139463,1,0,0:0:0:0:
352,120,139634,1,8,0:0:0:0:
232,148,139806,1,0,0:0:0:0:
196,244,139977,2,0,P|248:252|296:232,1,95
208,60,140320,2,0,P|232:104|232:148,1,95,8|0,0:0|0:0,0:0:0:0:
392,348,140663,2,0,P|388:296|408:248,1,95
472,100,141006,1,8,0:0:0:0:
472,100,141177,5,0,0:0:0:0:
472,100,141263,1,0,0:0:0:0:
472,100,141349,1,0,0:0:0:0:
256,144,141520,1,0,0:0:0:0:
368,152,141692,1,8,0:0:0:0:
144,108,141863,2,0,P|80:100|40:100,1,95
148,284,142206,2,0,P|200:280|248:264,1,95,0|8,0:0|0:0,0:0:0:0:
396,136,142549,1,0,0:0:0:0:
396,136,142634,1,0,0:0:0:0:
396,136,142720,5,0,0:0:0:0:
364,228,142892,1,0,0:0:0:0:
248,80,143063,1,8,0:0:0:0:
92,188,143234,1,0,0:0:0:0:
180,152,143406,1,0,0:0:0:0:
84,316,143577,1,0,0:0:0:0:
36,96,143749,1,8,0:0:0:0:
36,96,143920,1,0,0:0:0:0:
124,60,144092,5,0,0:0:0:0:
184,240,144263,1,0,0:0:0:0:
356,164,144434,1,8,0:0:0:0:
164,148,144606,1,0,0:0:0:0:
208,332,144777,2,0,P|288:328|364:324,2,142.5,0|0|0,0:0|0:0|0:0,0:0:0:0:
208,332,145463,1,4,0:0:0:0:
