osu file format v13

[General]
AudioFilename: Starlight Express.mp3
AudioLeadIn: 0
PreviewTime: 65264
Countdown: 0
SampleSet: Normal
StackLeniency: 0.7
Mode: 1
LetterboxInBreaks: 0
WidescreenStoryboard: 1

[Editor]
Bookmarks: 477,10077,19677,20877,30477,40077,41277,46077,50877,60477,65545,75145,84745,85945,95545
DistanceSpacing: 0.8
BeatDivisor: 4
GridSize: 32
TimelineZoom: 1.3

[Metadata]
Title:Starlight Express
TitleUnicode:Starlight Express
Artist:Ginkiha
ArtistUnicode:Ginkiha
Creator:eeezzzeee
Version:Muzukashii
Source:SOUND VOLTEX II -infinite infection-
Tags:
BeatmapID:528414
BeatmapSetID:225749

[Difficulty]
HPDrainRate:5
CircleSize:5
OverallDifficulty:4
ApproachRate:5
SliderMultiplier:1.4
SliderTickRate:1

[Events]
//Background and Video events
0,0,"bg.jpg",0,0
//Break Periods
//Storyboard Layer 0 (Background)
//Storyboard Layer 1 (Fail)
//Storyboard Layer 2 (Pass)
//Storyboard Layer 3 (Foreground)
//Storyboard Sound Samples
//Background Colour Transformations
3,100,163,162,255

[TimingPoints]
477,300,4,1,0,80,1,0
10077,-100,4,1,0,90,0,1
19677,-100,4,1,0,80,0,0
41577,-104.166666666667,4,1,0,80,0,0
42027,-111.111111111111,4,1,0,80,0,0
42177,-113.636363636364,4,1,0,80,0,0
42627,-121.951219512195,4,1,0,80,0,0
42777,-125,4,1,0,80,0,0
50277,-123.456790123457,4,1,0,80,0,0
50352,-121.951219512195,4,1,0,80,0,0
50427,-120.481927710843,4,1,0,80,0,0
50577,-117.647058823529,4,1,0,80,0,0
50727,-114.942528735632,4,1,0,80,0,0
50877,-111.111111111111,4,1,0,80,0,0
60477,263.157894736842,4,1,0,80,1,0
60477,-114.942528735632,4,1,0,80,0,0
61529,218.978102189781,4,1,0,80,1,0
61529,-138.888888888889,4,1,0,80,0,0
62404,200,4,1,0,80,1,0
62404,-151.515151515152,4,1,0,80,0,0
63164,300,4,1,0,80,1,0
65545,300,4,1,0,90,1,1
65545,-100,4,1,0,90,0,1
84745,-100,4,1,0,80,0,0

[HitObjects]
256,192,477,5,0,0:0:0:0:
256,192,627,1,8,0:0:0:0:
256,192,777,1,0,0:0:0:0:
256,192,927,1,8,0:0:0:0:
256,192,1077,1,0,0:0:0:0:
256,192,1377,1,8,0:0:0:0:
256,192,1677,1,0,0:0:0:0:
256,192,1827,1,0,0:0:0:0:
256,192,1977,1,8,0:0:0:0:
256,192,2127,1,8,0:0:0:0:
256,192,2277,1,0,0:0:0:0:
256,192,2577,1,8,0:0:0:0:
256,192,2877,1,0,0:0:0:0:
256,192,3027,1,8,0:0:0:0:
256,192,3177,1,0,0:0:0:0:
256,192,3327,1,8,0:0:0:0:
256,192,3477,1,0,0:0:0:0:
256,192,3777,1,8,0:0:0:0:
256,192,4077,1,8,0:0:0:0:
256,192,4227,1,0,0:0:0:0:
256,192,4377,1,8,0:0:0:0:
256,192,4527,1,0,0:0:0:0:
256,192,4827,1,8,0:0:0:0:
256,192,4977,1,8,0:0:0:0:
256,192,5277,1,0,0:0:0:0:
256,192,5427,1,8,0:0:0:0:
256,192,5577,1,0,0:0:0:0:
256,192,5727,1,8,0:0:0:0:
256,192,5877,1,0,0:0:0:0:
256,192,6177,1,8,0:0:0:0:
256,192,6477,1,0,0:0:0:0:
256,192,6627,1,0,0:0:0:0:
256,192,6777,1,8,0:0:0:0:
256,192,6927,1,0,0:0:0:0:
256,192,7227,1,0,0:0:0:0:
256,192,7377,1,8,0:0:0:0:
256,192,7677,1,0,0:0:0:0:
256,192,7827,1,8,0:0:0:0:
256,192,7977,1,0,0:0:0:0:
256,192,8127,1,8,0:0:0:0:
256,192,8277,1,0,0:0:0:0:
256,192,8352,1,0,0:0:0:0:
256,192,8427,1,0,0:0:0:0:
256,192,8577,1,8,0:0:0:0:
256,192,8877,1,4,0:0:0:0:
256,192,9177,1,4,0:0:0:0:
256,192,9477,1,4,0:0:0:0:
256,192,9777,1,0,0:0:0:0:
256,192,10077,1,12,0:0:0:0:
256,192,10227,1,0,0:0:0:0:
256,192,10377,1,0,0:0:0:0:
256,192,10527,1,8,0:0:0:0:
256,192,10827,1,8,0:0:0:0:
256,192,10902,1,8,0:0:0:0:
256,192,10977,1,8,0:0:0:0:
256,192,11127,1,0,0:0:0:0:
256,192,11427,1,0,0:0:0:0:
256,192,11577,1,0,0:0:0:0:
256,192,11727,1,8,0:0:0:0:
256,192,11877,1,0,0:0:0:0:
256,192,12027,1,8,0:0:0:0:
256,192,12177,1,8,0:0:0:0:
256,192,12477,1,8,0:0:0:0:
256,192,12627,1,0,0:0:0:0:
256,192,12777,1,0,0:0:0:0:
256,192,12927,1,8,0:0:0:0:
256,192,13227,1,8,0:0:0:0:
256,192,13527,1,8,0:0:0:0:
256,192,13827,1,8,0:0:0:0:
256,192,13902,1,8,0:0:0:0:
256,192,13977,1,8,0:0:0:0:
256,192,14127,1,0,0:0:0:0:
256,192,14277,1,0,0:0:0:0:
256,192,14427,1,0,0:0:0:0:
256,192,14577,1,8,0:0:0:0:
256,192,14877,1,12,0:0:0:0:
256,192,15027,1,8,0:0:0:0:
256,192,15327,1,8,0:0:0:0:
256,192,15627,1,8,0:0:0:0:
256,192,15927,1,8,0:0:0:0:
256,192,16227,1,8,0:0:0:0:
256,192,16377,1,0,0:0:0:0:
256,192,16677,1,0,0:0:0:0:
256,192,16752,1,0,0:0:0:0:
256,192,16827,1,0,0:0:0:0:
256,192,16977,1,8,0:0:0:0:
256,192,17277,1,8,0:0:0:0:
256,192,17427,1,0,0:0:0:0:
256,192,17577,1,0,0:0:0:0:
256,192,17727,1,12,0:0:0:0:
256,192,18027,1,12,0:0:0:0:
256,192,18327,1,12,0:0:0:0:
256,192,18627,1,12,0:0:0:0:
256,192,18927,1,0,0:0:0:0:
256,192,19077,1,8,0:0:0:0:
256,192,19152,1,8,0:0:0:0:
256,192,19227,1,8,0:0:0:0:
256,192,19377,1,0,0:0:0:0:
256,192,19677,1,4,0:0:0:0:
256,192,19977,1,8,0:0:0:0:
256,192,20277,1,8,0:0:0:0:
256,192,20427,1,0,0:0:0:0:
256,192,20577,1,8,0:0:0:0:
256,192,20877,1,0,0:0:0:0:
256,192,21177,1,8,0:0:0:0:
256,192,21327,1,0,0:0:0:0:
256,192,21627,1,0,0:0:0:0:
256,192,21777,1,8,0:0:0:0:
256,192,21927,1,8,0:0:0:0:
256,192,22077,1,0,0:0:0:0:
256,192,22227,1,0,0:0:0:0:
256,192,22377,1,8,0:0:0:0:
256,192,22677,1,0,0:0:0:0:
256,192,22827,1,8,0:0:0:0:
256,192,22977,1,0,0:0:0:0:
256,192,23277,1,0,0:0:0:0:
256,192,23352,1,0,0:0:0:0:
256,192,23427,1,0,0:0:0:0:
256,192,23577,1,8,0:0:0:0:
256,192,23727,1,0,0:0:0:0:
256,192,24027,1,8,0:0:0:0:
256,192,24177,1,8,0:0:0:0:
256,192,24327,1,0,0:0:0:0:
256,192,24477,1,0,0:0:0:0:
256,192,24777,1,8,0:0:0:0:
256,192,25077,1,0,0:0:0:0:
256,192,25227,1,0,0:0:0:0:
256,192,25377,1,8,0:0:0:0:
256,192,25677,1,4,0:0:0:0:
256,192,25827,1,0,0:0:0:0:
256,192,25977,1,8,0:0:0:0:
256,192,26127,1,0,0:0:0:0:
256,192,26277,1,8,0:0:0:0:
256,192,26427,1,0,0:0:0:0:
256,192,26577,1,8,0:0:0:0:
256,192,26877,1,0,0:0:0:0:
256,192,27027,1,0,0:0:0:0:
256,192,27177,1,8,0:0:0:0:
256,192,27327,1,0,0:0:0:0:
256,192,27477,1,8,0:0:0:0:
256,192,27627,1,0,0:0:0:0:
256,192,27777,1,8,0:0:0:0:
256,192,28077,1,0,0:0:0:0:
256,192,28377,1,8,0:0:0:0:
256,192,28677,1,0,0:0:0:0:
256,192,28977,1,8,0:0:0:0:
256,192,29277,1,8,0:0:0:0:
256,192,29427,1,0,0:0:0:0:
256,192,29577,1,0,0:0:0:0:
256,192,29727,1,8,0:0:0:0:
256,192,29877,1,0,0:0:0:0:
256,192,30027,1,8,0:0:0:0:
256,192,30102,1,8,0:0:0:0:
256,192,30177,1,8,0:0:0:0:
256,192,30327,1,8,0:0:0:0:
256,192,30477,1,12,0:0:0:0:
256,192,30777,1,8,0:0:0:0:
256,192,30927,1,0,0:0:0:0:
256,192,31077,1,8,0:0:0:0:
256,192,31227,1,8,0:0:0:0:
256,192,31377,1,0,0:0:0:0:
256,192,31677,1,0,0:0:0:0:
256,192,31977,1,8,0:0:0:0:
256,192,32127,1,8,0:0:0:0:
256,192,32277,1,0,0:0:0:0:
256,192,32427,1,8,0:0:0:0:
256,192,32577,1,0,0:0:0:0:
256,192,32877,1,0,0:0:0:0:
256,192,33027,1,0,0:0:0:0:
256,192,33177,1,8,0:0:0:0:
256,192,33477,1,8,0:0:0:0:
256,192,33627,1,0,0:0:0:0:
256,192,33777,1,8,0:0:0:0:
256,192,34077,1,0,0:0:0:0:
256,192,34227,1,0,0:0:0:0:
256,192,34377,1,8,0:0:0:0:
256,192,34527,1,8,0:0:0:0:
256,192,34677,1,8,0:0:0:0:
256,192,34977,1,0,0:0:0:0:
256,192,35277,1,12,0:0:0:0:
256,192,35577,1,8,0:0:0:0:
256,192,35727,1,0,0:0:0:0:
256,192,35877,1,8,0:0:0:0:
256,192,36027,1,0,0:0:0:0:
256,192,36102,1,0,0:0:0:0:
256,192,36177,1,0,0:0:0:0:
256,192,36477,1,12,0:0:0:0:
256,192,36777,1,0,0:0:0:0:
256,192,36927,1,8,0:0:0:0:
256,192,37077,1,8,0:0:0:0:
256,192,37227,1,0,0:0:0:0:
256,192,37377,1,8,0:0:0:0:
256,192,37677,1,12,0:0:0:0:
256,192,37977,1,8,0:0:0:0:
256,192,38127,1,0,0:0:0:0:
256,192,38277,1,8,0:0:0:0:
256,192,38352,1,8,0:0:0:0:
256,192,38427,1,8,0:0:0:0:
256,192,38577,1,0,0:0:0:0:
256,192,38877,1,12,0:0:0:0:
256,192,39177,1,0,0:0:0:0:
256,192,39327,1,0,0:0:0:0:
256,192,39477,1,8,0:0:0:0:
256,192,39627,1,8,0:0:0:0:
256,192,39777,1,8,0:0:0:0:
256,192,39927,1,8,0:0:0:0:
256,192,40077,1,4,0:0:0:0:
256,192,40377,1,0,0:0:0:0:
256,192,40527,1,8,0:0:0:0:
256,192,40827,1,8,0:0:0:0:
256,192,40977,1,0,0:0:0:0:
256,192,41277,1,8,0:0:0:0:
256,192,41577,1,0,0:0:0:0:
256,192,42027,1,8,0:0:0:0:
256,192,42177,1,0,0:0:0:0:
256,192,42627,1,8,0:0:0:0:
256,192,42777,1,8,0:0:0:0:
256,192,43077,1,0,0:0:0:0:
256,192,43377,1,0,0:0:0:0:
256,192,43677,1,8,0:0:0:0:
256,192,43827,1,0,0:0:0:0:
256,192,43977,1,0,0:0:0:0:
256,192,44127,1,8,0:0:0:0:
256,192,44277,1,0,0:0:0:0:
256,192,44577,1,8,0:0:0:0:
256,192,44877,1,0,0:0:0:0:
256,192,45027,1,8,0:0:0:0:
256,192,45327,1,8,0:0:0:0:
256,192,45477,1,0,0:0:0:0:
256,192,45777,1,8,0:0:0:0:
256,192,45927,1,0,0:0:0:0:
256,192,46077,1,0,0:0:0:0:
256,192,46377,1,8,0:0:0:0:
256,192,46677,1,0,0:0:0:0:
256,192,46827,1,0,0:0:0:0:
256,192,46977,1,8,0:0:0:0:
256,192,47277,1,0,0:0:0:0:
256,192,47577,1,8,0:0:0:0:
256,192,47877,1,0,0:0:0:0:
256,192,48177,1,8,0:0:0:0:
256,192,48477,1,0,0:0:0:0:
256,192,48777,1,8,0:0:0:0:
256,192,49077,1,0,0:0:0:0:
256,192,49227,1,0,0:0:0:0:
256,192,49377,1,8,0:0:0:0:
256,192,49677,1,0,0:0:0:0:
256,192,49977,1,8,0:0:0:0:
256,192,50277,1,8,0:0:0:0:
256,192,50427,1,0,0:0:0:0:
256,192,50577,1,0,0:0:0:0:
256,192,50727,1,0,0:0:0:0:
256,192,50877,1,4,0:0:0:0:
256,192,51177,1,8,0:0:0:0:
256,192,51477,1,0,0:0:0:0:
256,192,51777,1,8,0:0:0:0:
256,192,52227,1,8,0:0:0:0:
256,192,52377,1,0,0:0:0:0:
256,192,52677,1,0,0:0:0:0:
256,192,52977,1,8,0:0:0:0:
256,192,53277,1,8,0:0:0:0:
256,192,53427,1,0,0:0:0:0:
256,192,53577,1,0,0:0:0:0:
256,192,53877,1,8,0:0:0:0:
256,192,54177,1,8,0:0:0:0:
256,192,54477,1,0,0:0:0:0:
256,192,54627,1,8,0:0:0:0:
256,192,54777,1,8,0:0:0:0:
256,192,55077,1,8,0:0:0:0:
256,192,55377,1,0,0:0:0:0:
256,192,55677,1,0,0:0:0:0:
256,192,55977,1,8,0:0:0:0:
256,192,56427,1,8,0:0:0:0:
256,192,56577,1,0,0:0:0:0:
256,192,56877,1,0,0:0:0:0:
256,192,57027,1,8,0:0:0:0:
256,192,57177,1,0,0:0:0:0:
256,192,57477,1,0,0:0:0:0:
256,192,57777,1,8,0:0:0:0:
256,192,58077,1,0,0:0:0:0:
256,192,58227,1,0,0:0:0:0:
256,192,58377,1,8,0:0:0:0:
256,192,58677,1,0,0:0:0:0:
256,192,58977,1,8,0:0:0:0:
256,192,59277,1,8,0:0:0:0:
256,192,59427,1,8,0:0:0:0:
256,192,59577,1,8,0:0:0:0:
256,192,59877,1,0,0:0:0:0:
256,192,60177,1,8,0:0:0:0:
256,192,60477,12,8,61266,0:0:0:0:
256,192,61529,12,8,62185,0:0:0:0:
256,192,62404,12,8,63004,0:0:0:0:
256,192,63164,5,0,0:0:0:0:
256,192,63314,1,0,0:0:0:0:
256,192,63464,1,0,0:0:0:0:
256,192,63614,1,0,0:0:0:0:
256,192,63764,1,8,0:0:0:0:
256,192,64064,1,8,0:0:0:0:
128,192,64364,2,0,L|416:192,1,280
256,192,65264,1,0,0:0:0:0:
256,192,65545,1,12,0:0:0:0:
256,192,65695,1,0,0:0:0:0:
256,192,65845,1,0,0:0:0:0:
256,192,65995,1,8,0:0:0:0:
256,192,66295,1,8,0:0:0:0:
256,192,66370,1,8,0:0:0:0:
256,192,66445,1,8,0:0:0:0:
256,192,66595,1,0,0:0:0:0:
256,192,66895,1,0,0:0:0:0:
256,192,67045,1,0,0:0:0:0:
256,192,67195,1,8,0:0:0:0:
256,192,67345,1,0,0:0:0:0:
256,192,67495,1,8,0:0:0:0:
256,192,67645,1,8,0:0:0:0:
256,192,67945,1,8,0:0:0:0:
256,192,68095,1,0,0:0:0:0:
256,192,68245,1,0,0:0:0:0:
256,192,68395,1,8,0:0:0:0:
256,192,68695,1,8,0:0:0:0:
256,192,68995,1,8,0:0:0:0:
256,192,69295,1,8,0:0:0:0:
256,192,69370,1,8,0:0:0:0:
256,192,69445,1,8,0:0:0:0:
256,192,69595,1,0,0:0:0:0:
256,192,69745,1,0,0:0:0:0:
256,192,69895,1,0,0:0:0:0:
256,192,70045,1,8,0:0:0:0:
256,192,70345,1,12,0:0:0:0:
256,192,70495,1,8,0:0:0:0:
256,192,70645,1,0,0:0:0:0:
256,192,70795,1,8,0:0:0:0:
256,192,71095,1,8,0:0:0:0:
256,192,71245,1,0,0:0:0:0:
256,192,71395,1,8,0:0:0:0:
256,192,71695,1,8,0:0:0:0:
256,192,71845,1,0,0:0:0:0:
256,192,71995,1,8,0:0:0:0:
256,192,72295,1,8,0:0:0:0:
256,192,72445,1,0,0:0:0:0:
256,192,72595,1,8,0:0:0:0:
256,192,72745,1,8,0:0:0:0:
256,192,72895,1,0,0:0:0:0:
256,192,73045,1,0,0:0:0:0:
256,192,73195,1,12,0:0:0:0:
256,192,73495,1,12,0:0:0:0:
256,192,73795,1,12,0:0:0:0:
256,192,74095,1,12,0:0:0:0:
256,192,74395,1,0,0:0:0:0:
256,192,74545,1,8,0:0:0:0:
256,192,74620,1,8,0:0:0:0:
256,192,74695,1,8,0:0:0:0:
256,192,74845,1,0,0:0:0:0:
256,192,75145,1,12,0:0:0:0:
256,192,75295,1,0,0:0:0:0:
256,192,75445,1,0,0:0:0:0:
256,192,75595,1,8,0:0:0:0:
256,192,75895,1,0,0:0:0:0:
256,192,76045,1,8,0:0:0:0:
256,192,76195,1,0,0:0:0:0:
256,192,76345,1,8,0:0:0:0:
256,192,76420,1,8,0:0:0:0:
256,192,76495,1,8,0:0:0:0:
256,192,76645,1,0,0:0:0:0:
256,192,76795,1,8,0:0:0:0:
256,192,76945,1,0,0:0:0:0:
256,192,77095,1,0,0:0:0:0:
256,192,77245,1,8,0:0:0:0:
256,192,77545,1,0,0:0:0:0:
256,192,77695,1,8,0:0:0:0:
256,192,77845,1,0,0:0:0:0:
256,192,78145,1,8,0:0:0:0:
256,192,78295,1,0,0:0:0:0:
256,192,78445,1,8,0:0:0:0:
256,192,78745,1,8,0:0:0:0:
256,192,78895,1,8,0:0:0:0:
256,192,79045,1,0,0:0:0:0:
256,192,79195,1,0,0:0:0:0:
256,192,79345,1,8,0:0:0:0:
256,192,79645,1,8,0:0:0:0:
256,192,79945,1,4,0:0:0:0:
256,192,80095,1,0,0:0:0:0:
256,192,80245,1,8,0:0:0:0:
256,192,80545,1,8,0:0:0:0:
256,192,80695,1,0,0:0:0:0:
256,192,80845,1,8,0:0:0:0:
256,192,81145,1,0,0:0:0:0:
256,192,81220,1,0,0:0:0:0:
256,192,81295,1,0,0:0:0:0:
256,192,81445,1,8,0:0:0:0:
256,192,81595,1,0,0:0:0:0:
256,192,81745,1,8,0:0:0:0:
256,192,81820,1,8,0:0:0:0:
256,192,81895,1,8,0:0:0:0:
256,192,82045,1,0,0:0:0:0:
256,192,82345,1,0,0:0:0:0:
256,192,82495,1,0,0:0:0:0:
256,192,82645,1,0,0:0:0:0:
256,192,82795,1,12,0:0:0:0:
256,192,83095,1,12,0:0:0:0:
256,192,83395,1,12,0:0:0:0:
256,192,83695,1,12,0:0:0:0:
256,192,83995,1,0,0:0:0:0:
256,192,84145,1,8,0:0:0:0:
256,192,84220,1,8,0:0:0:0:
256,192,84295,1,8,0:0:0:0:
256,192,84445,1,0,0:0:0:0:
256,192,84745,1,4,0:0:0:0:
256,192,85045,1,8,0:0:0:0:
256,192,85345,1,8,0:0:0:0:
256,192,85495,1,0,0:0:0:0:
256,192,85645,1,8,0:0:0:0:
256,192,85945,1,0,0:0:0:0:
256,192,86095,1,8,0:0:0:0:
256,192,86245,1,0,0:0:0:0:
256,192,86395,1,8,0:0:0:0:
256,192,86545,1,0,0:0:0:0:
256,192,86845,1,8,0:0:0:0:
256,192,87145,1,0,0:0:0:0:
256,192,87295,1,0,0:0:0:0:
256,192,87445,1,8,0:0:0:0:
256,192,87595,1,8,0:0:0:0:
256,192,87745,1,0,0:0:0:0:
256,192,88045,1,8,0:0:0:0:
256,192,88195,1,4,0:0:0:0:
256,192,88345,1,4,0:0:0:0:
256,192,88645,1,0,0:0:0:0:
256,192,88795,1,8,0:0:0:0:
256,192,88945,1,0,0:0:0:0:
256,192,89095,1,0,0:0:0:0:
256,192,89245,1,8,0:0:0:0:
256,192,89545,1,8,0:0:0:0:
256,192,89695,1,0,0:0:0:0:
256,192,89845,1,8,0:0:0:0:
256,192,89995,1,0,0:0:0:0:
256,192,90295,1,4,0:0:0:0:
256,192,90595,1,4,0:0:0:0:
256,192,90745,1,4,0:0:0:0:
256,192,91045,1,0,0:0:0:0:
256,192,91195,1,8,0:0:0:0:
256,192,91345,1,0,0:0:0:0:
256,192,91495,1,0,0:0:0:0:
256,192,91645,1,8,0:0:0:0:
256,192,91945,1,0,0:0:0:0:
256,192,92095,1,0,0:0:0:0:
256,192,92245,1,8,0:0:0:0:
256,192,92395,1,8,0:0:0:0:
256,192,92545,1,0,0:0:0:0:
256,192,92845,1,8,0:0:0:0:
256,192,93145,1,12,0:0:0:0:
256,192,93445,1,0,0:0:0:0:
256,192,93745,1,12,0:0:0:0:
256,192,94045,1,0,0:0:0:0:
256,192,94345,1,12,0:0:0:0:
256,192,94645,1,12,0:0:0:0:
256,192,94945,1,12,0:0:0:0:
256,192,95245,1,0,0:0:0:0:
256,192,95545,1,4,0:0:0:0:
