osu file format v13

[General]
AudioFilename: Star Chaser - Ginkiha.mp3
AudioLeadIn: 0
PreviewTime: -1
Countdown: 0
SampleSet: Soft
StackLeniency: 0.7
Mode: 0
LetterboxInBreaks: 1
WidescreenStoryboard: 0

[Editor]
DistanceSpacing: 1
BeatDivisor: 4
GridSize: 4
TimelineZoom: 1

[Metadata]
Title:Star Chaser
TitleUnicode:Star Chaser
Artist:Ginkiha
ArtistUnicode:Ginkiha
Creator:Kevin97
Version:Hard
Source:Soundcloud
Tags:
BeatmapID:463211
BeatmapSetID:195169

[Difficulty]
HPDrainRate:5
CircleSize:4.5
OverallDifficulty:5
ApproachRate:9
SliderMultiplier:1.8
SliderTickRate:2

[Events]
//Background and Video events
//Break Periods
2,63800,65454
2,80470,84698
//Storyboard Layer 0 (Background)
//Storyboard Layer 1 (Fail)
//Storyboard Layer 2 (Pass)
//Storyboard Layer 3 (Foreground)
//Storyboard Sound Samples
//Background Colour Transformations
3,100,163,162,255

[TimingPoints]
0,346.740638002774,4,2,0,100,1,0
10748,-66.6666666666667,4,1,0,100,0,0
11269,-83.3333333333333,4,3,0,100,0,0
23404,-100,4,3,0,100,0,0
41608,-100,4,1,0,100,0,0
87378,-100,4,3,0,60,0,0
88938,-100,4,1,0,100,0,0
90152,-100,4,3,0,50,0,0
91712,-100,4,1,0,100,0,0
92926,-100,4,3,0,60,0,0
94660,-100,4,3,0,100,0,0
96393,-100,4,1,0,90,0,0
105409,-66.6666666666667,4,2,0,100,0,0
107836,-50,4,2,0,100,0,0

[HitObjects]
344,116,5547,6,0,P|296:188|200:224,1,180
140,232,6067,1,0,0:0:0:0:
72,204,6241,1,0,0:0:0:0:
128,156,6414,1,0,0:0:0:0:
196,180,6588,1,0,0:0:0:0:
272,172,6761,1,0,0:0:0:0:
344,144,6934,6,0,L|388:168,4,45,0|0|0|0|0,0:0|0:0|0:0|0:0|0:0,0:0:0:0:
276,104,7454,1,0,0:0:0:0:
212,72,7628,2,0,L|168:48,4,45,0|0|0|0|0,0:0|0:0|0:0|0:0|0:0,0:0:0:0:
276,104,8148,1,0,0:0:0:0:
89,194,8321,5,0,0:0:0:0:
258,25,8495,1,0,0:0:0:0:
422,189,8668,1,0,0:0:0:0:
253,358,8841,1,0,0:0:0:0:
89,194,9015,5,0,0:0:0:0:
422,189,9188,1,0,0:0:0:0:
253,358,9361,1,0,0:0:0:0:
258,25,9535,1,0,0:0:0:0:
104,284,9708,5,0,0:0:0:0:
128,272,9795,1,0,0:0:0:0:
148,256,9882,1,0,0:0:0:0:
164,240,9968,1,0,0:0:0:0:
176,228,10055,1,0,0:0:0:0:
188,236,10142,1,0,0:0:0:0:
208,248,10228,1,0,0:0:0:0:
228,252,10315,1,0,0:0:0:0:
252,244,10402,1,0,0:0:0:0:
264,224,10488,1,0,0:0:0:0:
276,208,10575,1,0,0:0:0:0:
296,192,10662,1,0,0:0:0:0:
316,184,10748,2,0,B|364:240|364:240|372:168|372:168|432:192|432:192|448:116,1,270.000010299683,0|4,0:0|0:0,0:0:0:0:
408,48,11269,6,0,L|296:48,1,107.999996704102,0|8,0:0|0:0,0:0:0:0:
216,56,11615,2,0,P|214:88|152:138,1,107.999996704102,0|4,0:0|0:0,0:0:0:0:
238,193,11962,2,0,P|264:148|356:144,1,107.999996704102,0|8,0:0|0:0,0:0:0:0:
238,193,12309,2,0,P|208:264|176:292,1,107.999996704102,0|4,0:0|0:0,0:0:0:0:
128,228,12656,2,0,P|152:164|184:132,1,107.999996704102,0|8,0:0|0:0,0:0:0:0:
178,135,13002,1,0,0:0:0:0:
104,132,13176,5,4,0:0:0:0:
252,136,13349,1,0,0:0:0:0:
136,196,13522,1,8,0:0:0:0:
216,72,13696,1,0,0:0:0:0:
400,256,13869,6,0,P|324:264|272:248,1,107.999996704102,4|0,0:0|0:0,0:0:0:0:
256,192,14216,2,0,P|184:144|124:128,1,107.999996704102,8|0,0:0|0:0,0:0:0:0:
88,168,14563,2,0,P|56:232|80:296,1,107.999996704102,4|0,0:0|0:0,0:0:0:0:
61,265,14909,1,0,0:0:0:0:
256,192,15083,5,8,0:0:0:0:
436,192,15429,1,4,0:0:0:0:
76,192,15776,1,8,0:0:0:0:
404,64,16123,6,2,P|352:128|296:136,1,107.999996704102
248,128,16470,2,2,P|300:64|356:56,1,107.999996704102,2|6,0:0|0:0,0:0:0:0:
404,64,16816,1,0,0:0:0:0:
320,56,16990,1,8,0:0:0:0:
240,72,17163,1,0,0:0:0:0:
180,120,17337,1,4,0:0:0:0:
120,168,17510,1,0,0:0:0:0:
72,224,17683,6,0,B|144:220|96:280|136:272|136:272|160:268,1,107.999996704102,8|0,0:0|0:0,0:0:0:0:
220,248,18030,2,0,P|272:224|312:172,1,107.999996704102,4|0,0:0|0:0,0:0:0:0:
304,186,18377,1,8,0:0:0:0:
408,104,18550,5,0,0:0:0:0:
472,136,18723,1,4,0:0:0:0:
416,176,18897,1,0,0:0:0:0:
259,273,19070,5,8,0:0:0:0:
188,279,19243,1,0,0:0:0:0:
220,216,19417,1,4,0:0:0:0:
240,200,19590,1,0,0:0:0:0:
240,176,19764,1,8,0:0:0:0:
228,160,19937,1,0,0:0:0:0:
152,124,20110,5,4,0:0:0:0:
136,124,20284,1,0,0:0:0:0:
112,96,20457,1,8,0:0:0:0:
96,96,20631,1,0,0:0:0:0:
220,36,20804,5,4,0:0:0:0:
228,56,20977,1,0,0:0:0:0:
248,60,21151,1,8,0:0:0:0:
276,60,21324,1,0,0:0:0:0:
384,104,21497,5,4,0:0:0:0:
408,120,21584,1,0,0:0:0:0:
432,136,21671,2,8,L|464:156,10,26.9999991760254,0|0|0|0|0|0|0|0|0|0|0,0:0|0:0|0:0|0:0|0:0|0:0|0:0|0:0|0:0|0:0|0:0,0:0:0:0:
316,300,22191,5,8,0:0:0:0:
248,300,22538,1,8,0:0:0:0:
56,300,22711,1,0,0:0:0:0:
176,300,22884,1,4,0:0:0:0:
212,236,23058,1,0,0:0:0:0:
136,240,23231,1,8,0:0:0:0:
356,180,23404,6,2,L|168:180,1,180
108,180,23925,1,0,0:0:0:0:
176,180,24098,1,0,0:0:0:0:
248,180,24271,1,0,0:0:0:0:
316,180,24445,1,0,0:0:0:0:
208,108,24618,1,4,0:0:0:0:
96,280,24965,5,4,0:0:0:0:
124,280,25138,1,0,0:0:0:0:
108,252,25312,1,8,0:0:0:0:
56,144,25485,2,0,P|104:120|248:128,1,180,4|0,0:0|0:0,0:0:0:0:
228,120,26178,2,0,P|300:148|412:176,1,180,8|4,0:0|0:0,0:0:0:0:
452,172,26699,1,8,0:0:0:0:
340,176,26872,1,8,0:0:0:0:
436,240,27045,1,8,0:0:0:0:
396,124,27219,1,8,0:0:0:0:
368,240,27392,1,8,0:0:0:0:
184,120,27565,1,8,0:0:0:0:
56,80,27739,6,0,L|112:176,1,90
296,232,28085,2,4,L|386:298,1,90
36,196,28606,1,0,0:0:0:0:
476,196,28952,2,0,L|304:112,1,180
256,156,29472,1,0,0:0:0:0:
208,208,29646,1,0,0:0:0:0:
160,264,29819,1,0,0:0:0:0:
112,208,29993,1,0,0:0:0:0:
64,156,30167,1,0,0:0:0:0:
308,240,30513,5,0,0:0:0:0:
340,216,30686,1,0,0:0:0:0:
304,200,30859,1,0,0:0:0:0:
176,132,31033,1,0,0:0:0:0:
480,192,31380,1,0,0:0:0:0:
36,192,31726,2,0,L|184:296,1,180
252,292,32246,1,0,0:0:0:0:
112,296,32420,1,0,0:0:0:0:
188,200,32593,1,0,0:0:0:0:
336,200,32766,1,0,0:0:0:0:
252,108,32940,1,0,0:0:0:0:
112,108,33113,1,0,0:0:0:0:
32,196,33287,6,0,P|116:196|204:140,1,180,6|0,0:0|0:0,0:0:0:0:
196,148,33807,1,0,0:0:0:0:
196,148,33980,2,0,L|296:148,2,90,0|0|0,0:0|0:0|0:0,0:0:0:0:
124,148,34500,2,0,P|124:212|244:252,1,180
320,244,35020,1,0,0:0:0:0:
252,320,35194,1,0,0:0:0:0:
320,308,35540,1,0,0:0:0:0:
216,260,35714,1,0,0:0:0:0:
144,112,36061,5,0,0:0:0:0:
364,112,36234,1,0,0:0:0:0:
200,160,36407,1,0,0:0:0:0:
312,168,36581,2,0,B|272:208|272:208|368:296,1,180
272,208,37274,2,0,B|320:252|320:252|112:252,1,270
380,252,37968,2,0,L|272:252,1,90,0|0,0:0|0:0,0:0:0:0:
132,252,38314,2,0,L|232:252,1,90
60,252,38661,1,0,0:0:0:0:
224,112,38834,6,0,P|284:120|336:96,1,90
352,40,39181,2,0,P|292:32|240:56,1,90
264,40,39701,2,0,L|264:236,1,180
264,225,40221,2,0,P|188:263|124:208,1,180
123,207,40742,2,0,L|124:308,1,90
264,224,41088,2,0,L|264:128,1,90
264,134,41435,1,0,0:0:0:0:
48,112,41608,5,8,0:0:0:0:
72,84,41782,1,0,0:0:0:0:
96,112,41955,1,8,0:0:0:0:
128,84,42128,1,0,0:0:0:0:
152,112,42302,1,8,0:0:0:0:
176,84,42475,1,0,0:0:0:0:
208,116,42649,1,8,0:0:0:0:
232,88,42823,1,0,0:0:0:0:
256,116,42996,1,8,0:0:0:0:
288,88,43169,1,0,0:0:0:0:
312,116,43343,1,8,0:0:0:0:
336,88,43516,1,0,0:0:0:0:
360,120,43689,6,0,L|412:120,1,45,8|0,0:0|0:0,0:0:0:0:
360,120,43862,2,0,L|416:140,1,45
360,120,44036,2,0,L|400:152,1,45
360,120,44209,2,0,L|392:168,1,45
220,224,44382,6,0,P|177:236|128:276,2,90,0|0|0,0:0|0:0|0:0,0:0:0:0:
288,160,44902,2,0,P|344:144|380:112,2,90,0|0|0,0:0|0:0|0:0,0:0:0:0:
224,160,45423,2,0,P|180:153|124:168,2,90,0|0|0,0:0|0:0|0:0,0:0:0:0:
288,224,45943,2,0,P|331:236|376:240,2,90,0|0|0,0:0|0:0|0:0,0:0:0:0:
249,223,46463,6,0,P|180:200|120:112,1,180
120,114,46983,2,0,P|104:200|136:296,1,180
130,287,47503,2,0,L|200:176|200:176,2,90,0|0|0,0:0|0:0|0:0,0:0:0:0:
381,287,48023,2,0,L|312:176|312:176,2,90,0|0|0,0:0|0:0|0:0,0:0:0:0:
256,68,48543,5,0,0:0:0:0:
256,68,48717,1,0,0:0:0:0:
256,68,48890,1,0,0:0:0:0:
180,68,49063,5,0,0:0:0:0:
332,68,49237,1,0,0:0:0:0:
220,128,49410,1,0,0:0:0:0:
292,128,49583,1,0,0:0:0:0:
116,156,49757,5,0,0:0:0:0:
376,156,49930,1,0,0:0:0:0:
252,188,50104,5,0,0:0:0:0:
224,252,50277,1,0,0:0:0:0:
296,252,50450,1,0,0:0:0:0:
332,68,50624,6,0,P|336:120|444:232,1,180
100,165,51144,2,0,P|162:228|180:316,1,180
332,68,51664,2,0,P|248:96|244:96,2,90,0|0|0,0:0|0:0|0:0,0:0:0:0:
164,68,52184,2,0,P|248:96|252:96,2,90,0|0|0,0:0|0:0|0:0,0:0:0:0:
110,239,52704,5,0,0:0:0:0:
165,68,52877,1,0,0:0:0:0:
345,68,53051,1,0,0:0:0:0:
401,239,53224,1,0,0:0:0:0:
256,345,53398,1,0,0:0:0:0:
110,144,53571,1,0,0:0:0:0:
255,38,53744,1,0,0:0:0:0:
401,144,53918,1,0,0:0:0:0:
346,315,54091,1,0,0:0:0:0:
166,315,54265,1,0,0:0:0:0:
256,196,54438,6,0,L|144:196,1,90
324,196,54785,1,0,0:0:0:0:
108,256,55131,5,0,0:0:0:0:
92,240,55305,1,0,0:0:0:0:
164,88,55651,5,0,0:0:0:0:
188,96,55825,1,0,0:0:0:0:
216,96,55998,1,0,0:0:0:0:
248,96,56171,1,0,0:0:0:0:
276,96,56345,1,0,0:0:0:0:
308,96,56518,1,0,0:0:0:0:
336,96,56692,1,0,0:0:0:0:
364,96,56865,5,0,0:0:0:0:
436,96,57038,1,0,0:0:0:0:
436,168,57212,1,0,0:0:0:0:
368,168,57385,1,0,0:0:0:0:
300,168,57558,1,0,0:0:0:0:
232,168,57732,1,0,0:0:0:0:
160,168,57905,5,0,0:0:0:0:
116,228,58079,1,0,0:0:0:0:
80,288,58252,1,0,0:0:0:0:
40,344,58425,1,0,0:0:0:0:
80,288,58599,1,0,0:0:0:0:
116,228,58772,1,0,0:0:0:0:
160,168,58945,5,0,0:0:0:0:
352,168,59119,1,0,0:0:0:0:
177,132,59292,5,0,0:0:0:0:
353,207,59466,1,0,0:0:0:0:
209,104,59639,5,0,0:0:0:0:
338,247,59813,1,0,0:0:0:0:
247,93,59986,5,0,0:0:0:0:
309,274,60160,1,0,0:0:0:0:
272,176,60332,1,0,0:0:0:0:
288,96,60506,1,0,0:0:0:0:
276,292,60679,1,0,0:0:0:0:
240,296,60852,1,0,0:0:0:0:
352,168,61026,1,0,0:0:0:0:
256,192,61199,12,0,63280,0:0:0:0:
268,76,66054,5,0,0:0:0:0:
164,188,66227,2,0,L|188:156,4,22.5,0|0|0|0|0,0:0|0:0|0:0|0:0|0:0,0:0:0:0:
328,96,66574,6,0,P|364:156|356:180,2,90,0|0|0,0:0|0:0|0:0,0:0:0:0:
256,64,67094,2,0,L|152:64,2,90,0|0|0,0:0|0:0|0:0,0:0:0:0:
96,96,67614,2,0,P|60:156|68:180,2,90,0|0|0,0:0|0:0|0:0,0:0:0:0:
172,72,68134,2,0,L|196:184,2,90,0|0|0,0:0|0:0|0:0,0:0:0:0:
220,224,68654,2,0,L|296:144,2,90,0|0|0,0:0|0:0|0:0,0:0:0:0:
196,144,69174,1,0,0:0:0:0:
360,88,69348,5,0,0:0:0:0:
320,148,69521,1,0,0:0:0:0:
276,200,69694,1,0,0:0:0:0:
216,224,69868,1,0,0:0:0:0:
152,208,70041,1,0,0:0:0:0:
124,148,70214,1,0,0:0:0:0:
152,88,70388,1,0,0:0:0:0:
216,64,70561,1,0,0:0:0:0:
268,104,70735,1,0,0:0:0:0:
320,148,70908,6,0,P|360:192|412:208,1,90
444,160,71255,2,0,P|440:96|416:68,1,90
364,44,71601,2,0,P|320:68|296:104,1,90
276,160,71948,1,0,0:0:0:0:
240,232,72122,6,0,P|192:260|136:248,1,90
132,240,72468,2,0,P|80:188|72:152,1,90
72,136,72815,2,0,P|124:120|156:84,1,90
172,72,73162,2,0,P|224:72|268:104,1,90
284,112,73509,2,0,P|336:144|388:144,2,90,0|0|0,0:0|0:0|0:0,0:0:0:0:
264,124,74029,2,0,P|232:180|204:208,1,90,0|0,0:0|0:0,0:0:0:0:
184,216,74375,2,0,P|128:232|96:224,2,90,0|0|0,0:0|0:0|0:0,0:0:0:0:
196,144,74895,5,0,0:0:0:0:
320,148,75069,1,0,0:0:0:0:
256,116,75242,1,0,0:0:0:0:
148,96,75416,1,0,0:0:0:0:
372,96,75589,1,0,0:0:0:0:
256,184,75762,1,0,0:0:0:0:
124,192,75936,5,0,0:0:0:0:
388,192,76109,1,0,0:0:0:0:
200,288,76282,1,0,0:0:0:0:
256,116,76456,1,0,0:0:0:0:
308,292,76629,1,0,0:0:0:0:
308,292,76803,5,0,0:0:0:0:
124,192,76976,1,0,0:0:0:0:
388,192,77149,1,0,0:0:0:0:
200,288,77323,1,0,0:0:0:0:
256,116,77496,1,0,0:0:0:0:
300,60,77669,6,0,P|252:44|208:64,2,90,0|0|0,0:0|0:0|0:0,0:0:0:0:
212,168,78190,6,0,P|260:184|304:168,2,90,0|0|0,0:0|0:0|0:0,0:0:0:0:
164,120,78710,1,0,0:0:0:0:
148,184,78883,1,0,0:0:0:0:
216,168,79056,1,0,0:0:0:0:
192,232,79230,1,0,0:0:0:0:
228,104,79403,1,0,0:0:0:0:
100,140,79576,5,0,0:0:0:0:
256,220,79750,1,0,0:0:0:0:
312,180,79923,1,0,0:0:0:0:
344,116,80097,1,0,0:0:0:0:
160,112,80270,1,0,0:0:0:0:
240,104,85298,5,0,0:0:0:0:
264,104,85384,1,0,0:0:0:0:
256,92,85471,1,0,0:0:0:0:
256,120,85558,1,0,0:0:0:0:
256,192,85644,6,0,L|256:228,5,22.5,0|0|0|0|0|0,0:0|0:0|0:0|0:0|0:0|0:0,0:0:0:0:
256,192,85991,12,0,87205,0:0:0:0:
212,120,87378,6,0,L|212:152,32,22.5,0|0|0|0|0|0|0|0|0|0|0|0|0|0|0|0|0|0|0|0|0|0|0|0|0|0|0|0|0|0|0|0|0,0:0|0:0|0:0|0:0|0:0|0:0|0:0|0:0|0:0|0:0|0:0|0:0|0:0|0:0|0:0|0:0|0:0|0:0|0:0|0:0|0:0|0:0|0:0|0:0|0:0|0:0|0:0|0:0|0:0|0:0|0:0|0:0|0:0,0:0:0:0:
256,192,88938,12,0,89979,0:0:0:0:
392,272,90152,6,0,L|392:240,32,22.5,0|0|0|0|0|0|0|0|0|0|0|0|0|0|0|0|0|0|0|0|0|0|0|0|0|0|0|0|0|0|0|0|0,0:0|0:0|0:0|0:0|0:0|0:0|0:0|0:0|0:0|0:0|0:0|0:0|0:0|0:0|0:0|0:0|0:0|0:0|0:0|0:0|0:0|0:0|0:0|0:0|0:0|0:0|0:0|0:0|0:0|0:0|0:0|0:0|0:0,0:0:0:0:
256,192,91712,12,0,92753,0:0:0:0:
256,192,92926,6,0,L|280:192,31,22.5,0|0|0|0|0|0|0|0|0|0|0|0|0|0|0|0|0|0|0|0|0|0|0|0|0|0|0|0|0|0|0|0,0:0|0:0|0:0|0:0|0:0|0:0|0:0|0:0|0:0|0:0|0:0|0:0|0:0|0:0|0:0|0:0|0:0|0:0|0:0|0:0|0:0|0:0|0:0|0:0|0:0|0:0|0:0|0:0|0:0|0:0|0:0|0:0,0:0:0:0:
236,192,94313,2,0,L|140:192,1,90
80,192,94660,1,0,0:0:0:0:
304,196,94833,1,0,0:0:0:0:
148,192,95006,1,0,0:0:0:0:
372,192,95180,1,0,0:0:0:0:
52,96,95353,5,0,0:0:0:0:
256,100,95527,1,0,0:0:0:0:
460,96,95700,1,0,0:0:0:0:
460,288,95873,5,0,0:0:0:0:
256,284,96046,1,0,0:0:0:0:
52,288,96220,1,0,0:0:0:0:
226,236,96393,5,0,0:0:0:0:
204,177,96480,1,0,0:0:0:0:
254,138,96567,1,0,0:0:0:0:
306,173,96653,1,0,0:0:0:0:
288,234,96740,1,0,0:0:0:0:
226,236,96827,5,0,0:0:0:0:
306,173,96914,1,0,0:0:0:0:
204,177,97000,1,0,0:0:0:0:
288,234,97087,5,0,0:0:0:0:
328,260,97174,1,0,0:0:0:0:
372,248,97260,1,0,0:0:0:0:
400,212,97347,1,0,0:0:0:0:
408,168,97434,1,0,0:0:0:0:
384,132,97520,1,0,0:0:0:0:
344,108,97607,1,0,0:0:0:0:
300,124,97694,1,0,0:0:0:0:
268,156,97780,1,0,0:0:0:0:
232,184,97867,1,0,0:0:0:0:
188,184,97954,1,0,0:0:0:0:
152,156,98040,1,0,0:0:0:0:
128,116,98127,1,0,0:0:0:0:
84,104,98214,1,0,0:0:0:0:
48,132,98300,1,0,0:0:0:0:
60,176,98387,1,0,0:0:0:0:
100,200,98474,5,0,0:0:0:0:
144,184,98561,1,0,0:0:0:0:
180,156,98647,1,0,0:0:0:0:
204,120,98734,1,0,0:0:0:0:
228,80,98821,1,0,0:0:0:0:
264,52,98907,1,0,0:0:0:0:
308,36,98994,1,0,0:0:0:0:
352,36,99081,1,0,0:0:0:0:
392,56,99167,1,0,0:0:0:0:
424,88,99254,1,0,0:0:0:0:
428,132,99341,1,0,0:0:0:0:
408,172,99427,1,0,0:0:0:0:
368,188,99514,1,0,0:0:0:0:
324,172,99601,1,0,0:0:0:0:
284,148,99687,1,0,0:0:0:0:
240,160,99774,1,0,0:0:0:0:
212,196,99861,5,0,0:0:0:0:
220,240,99947,1,0,0:0:0:0:
248,276,100034,1,0,0:0:0:0:
292,284,100121,1,0,0:0:0:0:
332,264,100208,1,0,0:0:0:0:
360,228,100294,1,0,0:0:0:0:
360,184,100381,1,0,0:0:0:0:
336,144,100468,1,0,0:0:0:0:
304,112,100554,1,0,0:0:0:0:
264,92,100641,1,0,0:0:0:0:
220,80,100728,1,0,0:0:0:0:
176,84,100814,1,0,0:0:0:0:
132,96,100901,1,0,0:0:0:0:
96,120,100988,1,0,0:0:0:0:
72,156,101074,1,0,0:0:0:0:
60,200,101161,1,0,0:0:0:0:
68,244,101248,5,0,0:0:0:0:
96,280,101334,1,0,0:0:0:0:
140,292,101421,1,0,0:0:0:0:
180,272,101508,1,0,0:0:0:0:
188,228,101595,1,0,0:0:0:0:
172,188,101681,1,0,0:0:0:0:
180,144,101768,1,0,0:0:0:0:
212,112,101855,1,0,0:0:0:0:
264,92,101941,1,0,0:0:0:0:
304,112,102028,1,0,0:0:0:0:
332,148,102115,1,0,0:0:0:0:
344,192,102201,1,0,0:0:0:0:
348,236,102288,1,0,0:0:0:0:
336,280,102375,1,0,0:0:0:0:
304,312,102461,1,0,0:0:0:0:
264,336,102548,1,0,0:0:0:0:
124,232,102635,6,0,L|72:192,1,45
88,204,102808,2,0,L|52:156,1,45
61,168,102981,2,0,L|44:116,1,45
47,125,103155,2,0,L|56:76,1,45
55,81,103328,2,0,L|104:48,1,45
96,52,103502,2,0,L|148:72,1,45
138,68,103675,2,0,L|164:104,1,45
164,104,103848,2,0,L|152:172,1,45
296,232,104022,6,0,L|344:208,1,45
336,211,104195,2,0,L|364:168,1,45
360,173,104368,2,0,L|352:120,1,45
353,129,104542,2,0,L|320:84,1,45
208,160,104715,6,0,L|164:208,1,45
208,160,104889,2,0,L|248:116,1,45
208,160,105062,2,0,L|244:200,1,45
208,160,105235,2,0,L|168:116,1,45,0|0,0:0|0:0,0:0:0:0:
328,68,105409,6,0,L|188:68,3,135,0|0|0|0,0:0|0:0|0:0|0:0,0:0:0:0:
332,136,106102,5,0,0:0:0:0:
312,136,106189,1,0,0:0:0:0:
292,136,106276,1,0,0:0:0:0:
268,136,106362,1,0,0:0:0:0:
248,136,106449,1,0,0:0:0:0:
228,136,106536,1,0,0:0:0:0:
248,136,106622,1,0,0:0:0:0:
272,136,106709,1,0,0:0:0:0:
296,136,106796,1,0,0:0:0:0:
312,136,106882,1,0,0:0:0:0:
332,136,106969,1,0,0:0:0:0:
348,136,107056,1,0,0:0:0:0:
360,136,107142,1,0,0:0:0:0:
376,136,107229,1,0,0:0:0:0:
444,136,107316,5,0,0:0:0:0:
404,188,107402,1,0,0:0:0:0:
348,224,107489,1,0,0:0:0:0:
284,228,107576,1,0,0:0:0:0:
224,204,107662,1,0,0:0:0:0:
164,188,107749,1,0,0:0:0:0:
108,172,107836,2,0,B|216:188|112:172|112:172|344:68,1,360
44,196,108529,1,0,0:0:0:0:
