osu file format v13

[General]
AudioFilename: BOFftH.mp3
AudioLeadIn: 0
PreviewTime: -1
Countdown: 0
SampleSet: Normal
StackLeniency: 0.7
Mode: 2
LetterboxInBreaks: 1
WidescreenStoryboard: 1

[Editor]
DistanceSpacing: 1.2
BeatDivisor: 4
GridSize: 8
TimelineZoom: 1

[Metadata]
Title:F.O.E. BOF2012
TitleUnicode:チームF.O.E. BOF2012曲クロスフェード
Artist:Ginkiha
ArtistUnicode:Ginkiha
Creator:Kevin97
Version:Rain
Source:
Tags:
BeatmapID:462027
BeatmapSetID:194268

[Difficulty]
HPDrainRate:6
CircleSize:4
OverallDifficulty:5
ApproachRate:9
SliderMultiplier:1.6
SliderTickRate:2

[Events]
//Background and Video events
//Break Periods
2,20771,60692
//Storyboard Layer 0 (Background)
//Storyboard Layer 1 (Fail)
//Storyboard Layer 2 (Pass)
//Storyboard Layer 3 (Foreground)
Sprite,Foreground,Centre,"highlight.png",320,240 F,0,34285,,0.3021936 S,2,34285,,1 M,0,34285,34628,107,86,108,113 M,0,34628,34971,108,113,107,149 M,0,34971,35057,107,149,343,133 M,0,35057,35314,343,133,339,141 M,0,35314,35657,339,141,342,164 M,0,35657,35742,342,164,79,400 M,0,35742,35828,79,400,536,135 M,0,35828,35914,536,135,519,361 M,0,35914,36000,519,361,625,250 M,0,36000,36171,625,250,664,294 M,0,36171,36771,664,294,670,382 M,0,36771,36857,670,382,30,369 M,0,36857,36942,30,369,405,48 M,0,36942,37028,405,48,12,88
//Storyboard Sound Samples
//Background Colour Transformations
3,100,163,162,255

[TimingPoints]
0,342.857142857143,4,1,0,100,1,0
9600,-66.6666666666667,4,1,0,100,0,1
31542,-66.6666666666667,4,1,0,100,0,0
50914,648.648648648649,4,1,0,100,1,0
50914,-200,4,1,0,100,0,0
50914,-200,4,1,0,100,0,0
61292,324.324324324324,4,1,0,100,1,0
61292,-83.3333333333333,4,1,0,100,0,0
73291,-83.3333333333333,4,1,0,100,0,0
90927,428.571428571429,4,1,0,100,1,0
90960,-83.3333333333333,4,1,0,100,0,0

[HitObjects]
220,192,4114,5,0,0:0:0:0:
292,192,4285,1,0,0:0:0:0:
152,196,4457,1,0,0:0:0:0:
360,192,4628,1,0,0:0:0:0:
220,192,4800,1,0,0:0:0:0:
292,192,4971,1,0,0:0:0:0:
152,196,5142,1,0,0:0:0:0:
360,192,5314,1,0,0:0:0:0:
456,120,5485,6,0,L|400:168,7,40,0|0|0|0|0|0|0|0,0:0|0:0|0:0|0:0|0:0|0:0|0:0|0:0,0:0:0:0:
356,144,6171,2,0,L|316:144,1,40
312,144,6342,2,0,L|260:144,1,40
272,144,6514,2,0,L|228:144,1,40
232,144,6685,2,0,L|184:144,1,40
68,140,6857,6,0,P|260:348|468:140,1,640
336,144,8400,2,0,L|388:144,2,40,0|0|0,0:0|0:0|0:0,0:0:0:0:
232,148,8742,1,0,0:0:0:0:
72,148,8914,6,0,L|72:184,13,20,0|0|0|0|0|0|0|0|0|0|0|0|0|0,0:0|0:0|0:0|0:0|0:0|0:0|0:0|0:0|0:0|0:0|0:0|0:0|0:0|0:0,0:0:0:0:
368,64,9600,6,0,L|276:176,1,120.000004577637
124,340,9942,2,0,L|216:228,1,120.000004577637
396,36,10285,6,0,L|304:148,1,120.000004577637
144,320,10627,2,0,L|236:208,1,120.000004577637
440,320,10971,6,0,L|363:227,1,120.000004577637
96,64,11313,2,0,L|172:156,1,120.000004577637
352,192,11657,5,0,0:0:0:0:
160,192,11828,1,0,0:0:0:0:
352,192,12000,1,0,0:0:0:0:
256,192,12171,1,0,0:0:0:0:
32,88,12342,6,0,L|160:88,1,120.000004577637
280,160,12685,2,0,L|160:160,1,120.000004577637
40,232,13028,2,0,L|168:232,1,120.000004577637
288,304,13371,2,0,L|168:304,1,120.000004577637
256,192,13714,5,0,0:0:0:0:
432,192,13885,1,0,0:0:0:0:
176,192,14057,1,0,0:0:0:0:
344,192,14228,1,0,0:0:0:0:
96,192,14400,5,0,0:0:0:0:
256,72,14571,1,0,0:0:0:0:
416,192,14742,1,0,0:0:0:0:
256,192,14914,1,0,0:0:0:0:
32,192,15085,6,0,L|128:112,1,120.000004577637
480,192,15428,2,0,L|384:112,1,120.000004577637
32,192,15771,2,0,L|128:272,1,120.000004577637
480,192,16114,2,0,L|384:272,1,120.000004577637
224,192,16457,6,0,L|96:192,1,120.000004577637
288,192,16800,2,0,L|416:192,1,120.000004577637
352,192,17142,5,0,0:0:0:0:
160,192,17314,1,0,0:0:0:0:
352,192,17485,1,0,0:0:0:0:
160,192,17657,1,0,0:0:0:0:
368,72,17828,6,0,L|200:120,1,120.000004577637,0|0,0:0|0:0,0:0:0:0:
96,160,18171,2,0,L|264:208,1,120.000004577637,0|0,0:0|0:0,0:0:0:0:
488,216,18514,2,0,L|320:264,1,120.000004577637,0|0,0:0|0:0,0:0:0:0:
216,304,18857,2,0,L|384:352,2,120.000004577637,0|0|0,0:0|0:0|0:0,0:0:0:0:
120,272,19371,5,0,0:0:0:0:
256,192,19542,1,0,0:0:0:0:
384,112,19714,1,0,0:0:0:0:
120,96,19885,1,0,0:0:0:0:
256,136,20057,1,0,0:0:0:0:
400,184,20228,1,0,0:0:0:0:
264,224,20400,1,0,0:0:0:0:
120,272,20571,1,0,0:0:0:0:
120,160,61292,6,0,L|512:160,1,383.99998828125
